osu file format v14

[General]
AudioFilename: audio.mp3
AudioLeadIn: 0
PreviewTime: 62803
Countdown: 0
SampleSet: Normal
StackLeniency: 0.7
Mode: 1
LetterboxInBreaks: 0
WidescreenStoryboard: 0

[Editor]
DistanceSpacing: 1.6
BeatDivisor: 4
GridSize: 32
TimelineZoom: 2.1

[Metadata]
Title:ROCK-mode (Cut Ver.)
TitleUnicode:ROCK-mode (Cut Ver.)
Artist:LiSA
ArtistUnicode:LiSA
Creator:skolodojko
Version:Oni
Source:
Tags:japanese pop rock short version lover"s"mile lover's smile ansb-3707 risa oribe
BeatmapID:2663720
BeatmapSetID:1282473

[Difficulty]
HPDrainRate:5
CircleSize:2
OverallDifficulty:6
ApproachRate:10
SliderMultiplier:1.4
SliderTickRate:1

[Events]
//Background and Video events
0,0,"bg stolen from some unranked set.jpg",0,0
//Break Periods
//Storyboard Layer 0 (Background)
//Storyboard Layer 1 (Fail)
//Storyboard Layer 2 (Pass)
//Storyboard Layer 3 (Foreground)
//Storyboard Layer 4 (Overlay)
//Storyboard Sound Samples

[TimingPoints]
220,333.333333333333,4,1,0,100,1,0
1553,-99.009900990099,4,1,0,100,0,0
2886,-98.0392156862745,4,1,0,100,0,0
4219,-97.0873786407767,4,1,0,100,0,0
4886,-96.1538461538461,4,1,0,100,0,0
5053,-94.3396226415094,4,1,0,100,0,0
5219,-92.5925925925926,4,1,0,100,0,0
5386,-90.9090909090909,4,1,0,100,0,0
7678,-99.009900990099,4,1,0,80,0,0
8178,-99.009900990099,4,1,0,100,0,0
8219,-88.4955752212389,4,1,0,100,0,1
16219,-88.4955752212389,4,1,0,100,0,0
18886,-88.4955752212389,4,1,0,100,0,0
19178,-99.009900990099,4,1,0,80,0,0
26844,-88.4955752212389,4,1,0,100,0,0
29844,-99.009900990099,4,1,0,80,0,0
37511,-88.4955752212389,4,1,0,100,0,0
40136,-99.009900990099,4,1,0,80,0,0
50678,-95.2380952380952,4,1,0,80,0,0
50761,-91.743119266055,4,1,0,80,0,0
50844,-88.4955752212389,4,1,0,90,0,0
54719,-89.2857142857143,4,1,0,90,0,0
56178,-89.2857142857143,4,1,0,95,0,0
58844,-84.0336134453781,4,1,0,100,0,0
61011,-86.9565217391304,4,1,0,90,0,0
61136,-87.719298245614,4,1,0,90,0,0
61219,-88.4955752212389,4,1,0,90,0,0
61303,-89.2857142857143,4,1,0,90,0,0
61386,-90.0900900900901,4,1,0,90,0,0
61469,-90.9090909090909,4,1,0,90,0,0
61511,-90.9090909090909,4,1,0,80,0,0
62844,-90.9090909090909,4,1,0,100,0,0
62886,-86.2068965517241,4,1,0,100,0,1
70886,-86.2068965517241,4,1,0,100,0,0
73553,-86.2068965517241,4,1,0,100,0,1
86886,-79.3650793650794,4,1,0,100,0,0
89053,-80.6451612903226,4,1,0,100,0,0
89136,-81.9672131147541,4,1,0,100,0,0
89219,-83.3333333333333,4,1,0,100,0,0
89386,-84.7457627118644,4,1,0,100,0,0
89553,-86.2068965517241,4,1,0,100,0,1
97553,-76.9230769230769,4,1,0,100,0,0

[HitObjects]
216,249,220,5,0,0:0:0:0:
81,244,386,5,0,0:0:0:0:
94,283,553,5,8,0:0:0:0:
132,217,719,5,0,0:0:0:0:
132,217,803,5,0,0:0:0:0:
132,217,886,5,0,0:0:0:0:
138,277,1053,5,0,0:0:0:0:
138,277,1219,5,8,0:0:0:0:
216,249,1553,5,0,0:0:0:0:
81,244,1719,5,0,0:0:0:0:
94,283,1886,5,8,0:0:0:0:
132,217,2053,5,8,0:0:0:0:
132,217,2136,5,8,0:0:0:0:
132,217,2219,5,0,0:0:0:0:
138,277,2386,5,0,0:0:0:0:
138,277,2553,5,8,0:0:0:0:
216,249,2886,5,0,0:0:0:0:
94,283,3053,5,0,0:0:0:0:
81,244,3219,5,8,0:0:0:0:
132,217,3386,5,0,0:0:0:0:
132,217,3469,5,8,0:0:0:0:
132,217,3553,5,0,0:0:0:0:
138,277,3719,5,0,0:0:0:0:
138,277,3886,5,8,0:0:0:0:
97,284,4219,5,8,0:0:0:0:
97,284,4386,5,0,0:0:0:0:
97,284,4553,5,0,0:0:0:0:
97,284,4719,5,8,0:0:0:0:
97,284,4886,5,8,0:0:0:0:
97,284,5053,5,0,0:0:0:0:
97,284,5219,5,8,0:0:0:0:
97,284,5386,5,8,0:0:0:0:
500,190,7719,5,0,0:0:0:0:
410,192,7803,5,0,0:0:0:0:
181,293,7886,5,8,0:0:0:0:
120,254,8219,5,4,0:0:0:0:
139,267,8386,5,0,0:0:0:0:
216,268,8553,5,0,0:0:0:0:
216,268,8719,5,8,0:0:0:0:
239,244,8803,5,8,0:0:0:0:
216,268,8886,5,0,0:0:0:0:
46,249,9053,5,8,0:0:0:0:
46,249,9219,5,0,0:0:0:0:
46,249,9386,5,8,0:0:0:0:
149,233,9553,5,0,0:0:0:0:
130,290,9719,5,0,0:0:0:0:
164,282,9886,5,0,0:0:0:0:
162,271,10053,5,8,0:0:0:0:
162,271,10136,5,8,0:0:0:0:
332,133,10219,5,0,0:0:0:0:
214,142,10386,5,0,0:0:0:0:
162,272,10553,5,8,0:0:0:0:
162,272,10636,5,0,0:0:0:0:
162,272,10719,5,8,0:0:0:0:
162,271,10803,5,8,0:0:0:0:
162,271,10886,5,0,0:0:0:0:
162,271,11053,5,8,0:0:0:0:
162,271,11136,5,8,0:0:0:0:
162,271,11219,5,0,0:0:0:0:
162,272,11386,5,8,0:0:0:0:
162,272,11553,5,0,0:0:0:0:
162,271,11636,5,0,0:0:0:0:
162,271,11719,5,8,0:0:0:0:
162,271,11886,5,0,0:0:0:0:
164,160,12053,5,8,0:0:0:0:
84,205,12219,5,0,0:0:0:0:
84,205,12386,5,0,0:0:0:0:
329,262,12469,5,0,0:0:0:0:
84,205,12553,5,8,0:0:0:0:
84,205,12886,5,0,0:0:0:0:
84,205,13053,5,0,0:0:0:0:
166,179,13136,5,0,0:0:0:0:
84,205,13219,5,8,0:0:0:0:
84,205,13553,5,4,0:0:0:0:
157,298,13719,5,8,0:0:0:0:
157,298,13886,5,0,0:0:0:0:
157,298,14053,5,8,0:0:0:0:
157,298,14136,5,8,0:0:0:0:
157,298,14219,5,0,0:0:0:0:
157,298,14386,5,8,0:0:0:0:
157,298,14553,5,0,0:0:0:0:
256,121,14636,5,0,0:0:0:0:
131,249,14719,5,8,0:0:0:0:
156,125,14803,5,8,0:0:0:0:
100,307,14886,5,0,0:0:0:0:
131,249,15053,5,8,0:0:0:0:
100,307,15219,5,0,0:0:0:0:
109,238,15386,5,8,0:0:0:0:
108,238,15469,5,8,0:0:0:0:
108,238,15553,5,0,0:0:0:0:
109,238,15886,5,8,0:0:0:0:
109,238,15969,5,0,0:0:0:0:
109,238,16053,5,8,0:0:0:0:
109,238,16136,5,8,0:0:0:0:
109,238,16219,5,4,0:0:0:0:
199,157,16386,5,0,0:0:0:0:
189,235,16553,5,8,0:0:0:0:
179,239,16719,5,0,0:0:0:0:
179,239,16803,5,0,0:0:0:0:
179,239,16886,5,8,0:0:0:0:
177,239,17053,5,0,0:0:0:0:
177,239,17219,5,8,0:0:0:0:
209,246,17386,5,8,0:0:0:0:
236,106,17469,5,8,0:0:0:0:
209,246,17553,5,0,0:0:0:0:
207,250,17719,5,8,0:0:0:0:
207,251,17886,5,8,0:0:0:0:
135,197,18053,5,0,0:0:0:0:
135,197,18219,5,8,0:0:0:0:
171,131,18386,5,0,0:0:0:0:
171,131,18469,5,0,0:0:0:0:
135,197,18553,5,0,0:0:0:0:
135,197,18719,5,0,0:0:0:0:
128,201,18886,5,12,0:0:0:0:
196,268,19219,5,0,0:0:0:0:
196,268,19553,5,8,0:0:0:0:
196,268,19886,5,0,0:0:0:0:
196,268,20053,5,0,0:0:0:0:
196,268,20219,5,8,0:0:0:0:
121,234,20553,5,0,0:0:0:0:
121,234,20886,5,8,0:0:0:0:
121,234,21053,5,0,0:0:0:0:
121,234,21219,5,0,0:0:0:0:
121,234,21386,5,0,0:0:0:0:
121,234,21553,5,8,0:0:0:0:
121,234,21886,5,0,0:0:0:0:
279,134,22053,5,8,0:0:0:0:
121,234,22219,5,8,0:0:0:0:
121,234,22553,5,0,0:0:0:0:
191,111,22636,1,8,0:0:0:0:
121,234,22719,5,8,0:0:0:0:
121,234,22886,5,0,0:0:0:0:
201,260,23053,5,8,0:0:0:0:
241,271,23136,5,8,0:0:0:0:
121,234,23219,5,0,0:0:0:0:
123,241,23553,5,0,0:0:0:0:
121,234,23719,5,8,0:0:0:0:
321,120,23803,5,8,0:0:0:0:
121,234,23886,5,8,0:0:0:0:
293,185,23969,5,8,0:0:0:0:
121,234,24053,5,0,0:0:0:0:
123,241,24219,5,4,0:0:0:0:
178,218,24553,5,0,0:0:0:0:
178,218,24886,5,8,0:0:0:0:
178,218,25219,5,8,0:0:0:0:
178,218,25386,5,0,0:0:0:0:
178,218,25553,5,8,0:0:0:0:
178,218,25886,5,0,0:0:0:0:
178,218,26219,5,8,0:0:0:0:
252,218,26553,5,8,0:0:0:0:
252,218,26636,5,8,0:0:0:0:
178,218,26886,5,12,0:0:0:0:
219,92,27053,5,0,0:0:0:0:
178,218,27219,5,0,0:0:0:0:
178,218,27386,5,8,0:0:0:0:
218,159,27469,5,8,0:0:0:0:
178,218,27553,5,0,0:0:0:0:
218,159,27719,5,8,0:0:0:0:
178,218,27886,5,0,0:0:0:0:
178,218,28053,5,8,0:0:0:0:
178,218,28219,5,0,0:0:0:0:
178,218,28386,5,8,0:0:0:0:
178,218,28469,5,8,0:0:0:0:
178,218,28553,5,8,0:0:0:0:
178,218,28719,5,0,0:0:0:0:
178,218,28886,5,8,0:0:0:0:
326,182,29053,5,0,0:0:0:0:
178,218,29219,5,8,0:0:0:0:
291,110,29553,5,4,0:0:0:0:
118,203,29886,5,8,0:0:0:0:
118,203,30219,5,0,0:0:0:0:
241,173,30386,5,0,0:0:0:0:
436,131,30553,5,0,0:0:0:0:
118,203,30719,5,8,0:0:0:0:
118,203,31053,5,0,0:0:0:0:
118,203,31219,5,8,0:0:0:0:
211,123,31386,1,8,0:0:0:0:
206,248,31553,5,0,0:0:0:0:
206,248,31886,5,8,0:0:0:0:
206,248,32219,5,0,0:0:0:0:
206,248,32386,5,8,0:0:0:0:
206,248,32553,5,8,0:0:0:0:
211,122,32719,5,0,0:0:0:0:
206,248,32886,5,0,0:0:0:0:
239,141,33219,5,0,0:0:0:0:
206,248,33386,5,8,0:0:0:0:
141,164,33719,5,0,0:0:0:0:
206,248,34053,5,8,0:0:0:0:
144,242,34386,5,0,0:0:0:0:
136,147,34553,5,8,0:0:0:0:
276,158,34803,5,0,0:0:0:0:
111,282,34886,5,8,0:0:0:0:
178,224,35053,5,0,0:0:0:0:
258,274,35219,5,8,0:0:0:0:
258,274,35469,5,0,0:0:0:0:
266,292,35553,5,0,0:0:0:0:
168,134,35719,5,0,0:0:0:0:
159,249,35886,5,8,0:0:0:0:
160,206,36053,5,8,0:0:0:0:
159,249,36219,5,0,0:0:0:0:
342,269,36386,5,8,0:0:0:0:
253,195,36553,5,0,0:0:0:0:
186,159,36719,5,0,0:0:0:0:
168,134,36886,5,8,0:0:0:0:
344,176,37053,5,8,0:0:0:0:
196,275,37219,5,0,0:0:0:0:
226,229,37553,5,12,0:0:0:0:
227,228,37719,5,8,0:0:0:0:
227,228,37886,5,0,0:0:0:0:
226,229,38053,5,8,0:0:0:0:
226,229,38136,5,8,0:0:0:0:
226,229,38219,5,0,0:0:0:0:
158,138,38303,5,0,0:0:0:0:
226,229,38386,5,8,0:0:0:0:
227,228,38553,5,0,0:0:0:0:
131,163,38719,5,8,0:0:0:0:
131,163,38886,5,0,0:0:0:0:
131,163,39053,5,8,0:0:0:0:
131,163,39136,5,8,0:0:0:0:
131,163,39219,5,8,0:0:0:0:
131,163,39386,5,0,0:0:0:0:
131,163,39553,5,8,0:0:0:0:
457,162,39719,5,0,0:0:0:0:
131,163,39886,5,8,0:0:0:0:
128,172,40219,5,4,0:0:0:0:
210,124,40386,5,8,0:0:0:0:
182,238,40553,5,8,0:0:0:0:
341,123,40719,5,8,0:0:0:0:
182,238,40886,5,0,0:0:0:0:
182,238,41219,5,0,0:0:0:0:
182,238,41386,5,8,0:0:0:0:
181,244,41719,5,0,0:0:0:0:
181,244,42053,5,8,0:0:0:0:
181,244,42219,5,0,0:0:0:0:
181,244,42386,5,8,0:0:0:0:
215,148,42719,5,0,0:0:0:0:
311,122,43053,5,0,0:0:0:0:
196,156,43219,5,0,0:0:0:0:
196,156,43386,5,8,0:0:0:0:
271,206,43553,5,0,0:0:0:0:
196,156,43719,5,8,0:0:0:0:
196,156,44053,5,0,0:0:0:0:
196,156,44386,5,0,0:0:0:0:
196,156,44719,5,0,0:0:0:0:
196,156,44886,5,8,0:0:0:0:
196,156,45053,5,8,0:0:0:0:
309,119,45136,5,8,0:0:0:0:
196,156,45219,5,4,0:0:0:0:
196,156,45553,5,12,0:0:0:0:
191,258,45719,5,8,0:0:0:0:
196,156,45886,5,0,0:0:0:0:
303,259,46053,5,0,0:0:0:0:
196,156,46219,5,8,0:0:0:0:
196,156,46553,5,0,0:0:0:0:
196,156,46719,5,8,0:0:0:0:
196,156,47053,5,0,0:0:0:0:
155,173,47219,5,0,0:0:0:0:
196,156,47386,5,8,0:0:0:0:
196,156,47553,5,0,0:0:0:0:
196,156,47719,5,8,0:0:0:0:
305,81,48053,5,8,0:0:0:0:
196,156,48219,5,8,0:0:0:0:
255,157,48386,5,0,0:0:0:0:
196,156,48719,5,0,0:0:0:0:
196,156,48886,5,8,0:0:0:0:
121,115,49053,5,0,0:0:0:0:
196,156,49219,5,0,0:0:0:0:
196,156,49386,5,8,0:0:0:0:
196,156,49719,5,8,0:0:0:0:
196,156,49886,5,0,0:0:0:0:
368,131,50053,5,0,0:0:0:0:
196,156,50219,5,8,0:0:0:0:
218,289,50386,5,8,0:0:0:0:
196,156,50553,5,8,0:0:0:0:
196,156,50719,5,0,0:0:0:0:
196,156,50886,5,12,0:0:0:0:
156,181,52053,5,4,0:0:0:0:
346,152,53219,5,0,0:0:0:0:
202,179,53386,5,12,0:0:0:0:
338,222,54553,5,8,0:0:0:0:
130,212,54719,5,4,0:0:0:0:
256,112,54886,5,0,0:0:0:0:
130,212,55053,5,0,0:0:0:0:
130,212,55219,5,8,0:0:0:0:
130,212,55386,5,0,0:0:0:0:
130,212,55553,5,8,0:0:0:0:
130,212,55719,5,0,0:0:0:0:
188,113,55803,5,0,0:0:0:0:
130,212,55886,5,8,0:0:0:0:
221,196,56219,5,4,0:0:0:0:
221,196,56386,5,8,0:0:0:0:
217,204,56469,5,8,0:0:0:0:
217,204,56553,5,8,0:0:0:0:
217,207,56719,5,0,0:0:0:0:
217,207,56886,5,8,0:0:0:0:
217,207,57053,5,0,0:0:0:0:
216,209,57219,5,0,0:0:0:0:
217,207,57553,5,4,0:0:0:0:
217,207,57719,5,0,0:0:0:0:
215,214,57803,5,0,0:0:0:0:
215,215,57886,5,8,0:0:0:0:
214,218,58053,5,0,0:0:0:0:
211,229,58219,5,8,0:0:0:0:
209,232,58386,5,8,0:0:0:0:
209,232,58553,5,0,0:0:0:0:
208,232,58719,5,0,0:0:0:0:
135,236,58886,5,12,0:0:0:0:
136,243,59053,5,4,0:0:0:0:
145,182,59386,5,12,0:0:0:0:
145,182,59719,5,12,0:0:0:0:
145,182,60053,5,12,0:0:0:0:
145,182,60386,5,12,0:0:0:0:
145,182,60553,5,4,0:0:0:0:
145,182,60719,5,12,0:0:0:0:
145,182,60886,5,4,0:0:0:0:
260,134,61053,5,0,0:0:0:0:
260,134,61136,5,0,0:0:0:0:
272,219,61219,5,8,0:0:0:0:
272,219,61303,5,8,0:0:0:0:
272,219,61386,5,8,0:0:0:0:
272,219,61469,5,8,0:0:0:0:
256,192,61553,12,0,62719,0:0:0:0:
247,179,62886,5,12,0:0:0:0:
54,227,63053,5,0,0:0:0:0:
54,227,63136,5,0,0:0:0:0:
54,227,63219,5,0,0:0:0:0:
71,230,63386,5,8,0:0:0:0:
71,231,63553,5,8,0:0:0:0:
289,103,63719,5,0,0:0:0:0:
172,275,63886,5,8,0:0:0:0:
71,231,64053,5,0,0:0:0:0:
165,268,64219,5,8,0:0:0:0:
164,269,64386,5,0,0:0:0:0:
164,269,64469,5,0,0:0:0:0:
163,269,64553,5,0,0:0:0:0:
163,269,64719,5,8,0:0:0:0:
163,269,64886,5,8,0:0:0:0:
293,157,65053,5,0,0:0:0:0:
164,269,65219,5,8,0:0:0:0:
164,269,65303,5,0,0:0:0:0:
163,269,65386,5,8,0:0:0:0:
163,269,65469,5,8,0:0:0:0:
163,269,65553,5,0,0:0:0:0:
154,190,65719,5,0,0:0:0:0:
147,201,65886,5,8,0:0:0:0:
141,217,66053,5,0,0:0:0:0:
141,218,66136,5,0,0:0:0:0:
141,218,66219,5,8,0:0:0:0:
141,219,66386,5,0,0:0:0:0:
141,219,66553,5,8,0:0:0:0:
141,219,66719,5,0,0:0:0:0:
141,217,66886,5,8,0:0:0:0:
141,218,67053,5,0,0:0:0:0:
141,219,67136,5,0,0:0:0:0:
141,219,67219,5,8,0:0:0:0:
141,219,67553,5,8,0:0:0:0:
141,217,67719,5,0,0:0:0:0:
141,218,67803,5,0,0:0:0:0:
141,218,67886,5,8,0:0:0:0:
217,207,68219,5,12,0:0:0:0:
217,207,68386,5,0,0:0:0:0:
217,207,68469,5,0,0:0:0:0:
217,207,68553,5,8,0:0:0:0:
217,207,68719,5,0,0:0:0:0:
217,207,68886,5,8,0:0:0:0:
220,217,69053,5,0,0:0:0:0:
221,217,69219,5,8,0:0:0:0:
221,218,69386,5,8,0:0:0:0:
221,218,69553,5,0,0:0:0:0:
221,218,69719,5,0,0:0:0:0:
221,218,69803,5,0,0:0:0:0:
220,217,69886,5,8,0:0:0:0:
221,217,70053,5,0,0:0:0:0:
221,218,70219,5,8,0:0:0:0:
221,218,70386,5,0,0:0:0:0:
221,218,70553,5,8,0:0:0:0:
293,157,70719,5,8,0:0:0:0:
161,207,70886,5,0,0:0:0:0:
372,124,70969,5,0,0:0:0:0:
161,207,71053,5,8,0:0:0:0:
161,207,71219,5,0,0:0:0:0:
150,273,71386,5,8,0:0:0:0:
175,89,71469,5,8,0:0:0:0:
260,110,71553,5,0,0:0:0:0:
330,153,71636,5,0,0:0:0:0:
150,273,71719,5,8,0:0:0:0:
150,273,71886,5,0,0:0:0:0:
150,273,72053,5,8,0:0:0:0:
150,273,72219,5,0,0:0:0:0:
191,224,72386,5,8,0:0:0:0:
146,79,72469,5,0,0:0:0:0:
191,224,72553,5,8,0:0:0:0:
173,107,72719,5,0,0:0:0:0:
173,107,72886,5,0,0:0:0:0:
173,107,73053,5,12,0:0:0:0:
173,107,73219,5,12,0:0:0:0:
173,107,73553,5,4,0:0:0:0:
144,208,73719,5,0,0:0:0:0:
341,146,73803,5,0,0:0:0:0:
144,208,73886,5,8,0:0:0:0:
144,215,74053,5,0,0:0:0:0:
143,215,74219,5,8,0:0:0:0:
143,215,74386,5,8,0:0:0:0:
143,215,74553,5,0,0:0:0:0:
143,215,74719,5,8,0:0:0:0:
144,215,74886,5,0,0:0:0:0:
143,215,75053,5,8,0:0:0:0:
325,201,75136,5,8,0:0:0:0:
143,215,75219,5,0,0:0:0:0:
143,215,75386,5,0,0:0:0:0:
143,215,75553,5,8,0:0:0:0:
241,203,75719,5,0,0:0:0:0:
143,215,75886,5,8,0:0:0:0:
213,143,75969,5,0,0:0:0:0:
143,215,76053,5,8,0:0:0:0:
143,215,76136,5,8,0:0:0:0:
143,215,76219,5,0,0:0:0:0:
234,225,76386,5,0,0:0:0:0:
232,234,76553,5,8,0:0:0:0:
213,136,76719,5,0,0:0:0:0:
109,254,76803,5,8,0:0:0:0:
109,254,76886,5,8,0:0:0:0:
97,37,77053,5,0,0:0:0:0:
109,254,77219,5,8,0:0:0:0:
175,64,77386,5,0,0:0:0:0:
423,167,77553,5,8,0:0:0:0:
423,167,77719,5,0,0:0:0:0:
423,167,77803,5,0,0:0:0:0:
423,167,77886,5,8,0:0:0:0:
109,254,78219,5,8,0:0:0:0:
109,254,78386,5,0,0:0:0:0:
109,254,78469,5,0,0:0:0:0:
109,254,78553,5,8,0:0:0:0:
168,198,78886,5,12,0:0:0:0:
170,217,79053,5,0,0:0:0:0:
170,217,79136,5,0,0:0:0:0:
170,217,79219,5,8,0:0:0:0:
170,218,79386,5,0,0:0:0:0:
170,218,79553,5,8,0:0:0:0:
166,226,79719,5,0,0:0:0:0:
155,253,79886,5,8,0:0:0:0:
155,253,80053,5,8,0:0:0:0:
154,253,80219,5,0,0:0:0:0:
154,254,80386,5,8,0:0:0:0:
155,253,80469,5,8,0:0:0:0:
155,254,80553,5,0,0:0:0:0:
155,253,80719,5,0,0:0:0:0:
155,253,80886,5,8,0:0:0:0:
241,206,81053,5,0,0:0:0:0:
154,254,81219,5,8,0:0:0:0:
253,257,81386,5,0,0:0:0:0:
155,212,81553,5,8,0:0:0:0:
155,212,81719,5,0,0:0:0:0:
155,212,81803,5,0,0:0:0:0:
126,247,81886,5,0,0:0:0:0:
126,247,82053,5,8,0:0:0:0:
126,247,82219,5,8,0:0:0:0:
126,247,82386,5,0,0:0:0:0:
126,247,82553,5,8,0:0:0:0:
126,247,82719,5,0,0:0:0:0:
126,247,82803,5,0,0:0:0:0:
126,247,82886,5,0,0:0:0:0:
126,247,83053,5,8,0:0:0:0:
126,247,83219,5,0,0:0:0:0:
242,206,83386,5,0,0:0:0:0:
182,171,83553,5,8,0:0:0:0:
182,174,83719,5,0,0:0:0:0:
181,176,83803,5,0,0:0:0:0:
181,176,83886,5,8,0:0:0:0:
239,102,83969,5,8,0:0:0:0:
181,176,84053,5,8,0:0:0:0:
384,177,84136,5,8,0:0:0:0:
180,178,84219,5,4,0:0:0:0:
193,232,84386,5,0,0:0:0:0:
193,232,84469,5,0,0:0:0:0:
193,232,84553,5,8,0:0:0:0:
193,232,84719,5,0,0:0:0:0:
193,232,84886,5,8,0:0:0:0:
181,238,85053,5,0,0:0:0:0:
181,238,85136,5,8,0:0:0:0:
180,239,85219,5,0,0:0:0:0:
211,140,85386,5,0,0:0:0:0:
180,239,85553,5,8,0:0:0:0:
180,240,85719,5,8,0:0:0:0:
179,240,85803,5,8,0:0:0:0:
202,66,85886,5,0,0:0:0:0:
217,116,85969,5,8,0:0:0:0:
122,187,86053,5,0,0:0:0:0:
122,187,86219,5,8,0:0:0:0:
122,187,86386,5,8,0:0:0:0:
302,132,86469,5,8,0:0:0:0:
126,196,86553,5,0,0:0:0:0:
126,197,86886,5,12,0:0:0:0:
236,197,87053,5,12,0:0:0:0:
175,251,87386,5,12,0:0:0:0:
175,251,87553,5,12,0:0:0:0:
175,251,87719,5,4,0:0:0:0:
175,251,88053,5,12,0:0:0:0:
168,251,88386,5,4,0:0:0:0:
166,250,88553,5,12,0:0:0:0:
163,250,88886,5,4,0:0:0:0:
151,245,89219,5,12,0:0:0:0:
179,136,89553,5,4,0:0:0:0:
111,202,89719,5,0,0:0:0:0:
111,202,89886,5,0,0:0:0:0:
111,202,90053,5,8,0:0:0:0:
309,139,90136,5,8,0:0:0:0:
111,208,90219,5,0,0:0:0:0:
111,209,90386,5,8,0:0:0:0:
111,210,90553,5,0,0:0:0:0:
111,208,90719,5,8,0:0:0:0:
111,211,90886,5,0,0:0:0:0:
111,211,91053,5,0,0:0:0:0:
111,209,91219,5,0,0:0:0:0:
111,210,91386,5,8,0:0:0:0:
111,209,91469,5,8,0:0:0:0:
111,211,91553,5,0,0:0:0:0:
281,190,91719,5,0,0:0:0:0:
150,238,91886,5,8,0:0:0:0:
150,238,92053,5,8,0:0:0:0:
150,238,92136,5,0,0:0:0:0:
150,238,92219,5,8,0:0:0:0:
150,238,92386,5,0,0:0:0:0:
150,238,92553,5,8,0:0:0:0:
150,238,92719,5,0,0:0:0:0:
150,238,92886,5,0,0:0:0:0:
150,238,92969,5,0,0:0:0:0:
148,243,93053,5,8,0:0:0:0:
147,244,93136,5,8,0:0:0:0:
147,246,93219,5,0,0:0:0:0:
147,246,93386,5,8,0:0:0:0:
147,246,93553,5,0,0:0:0:0:
146,246,93719,5,0,0:0:0:0:
226,139,93803,5,0,0:0:0:0:
148,243,93886,5,8,0:0:0:0:
147,246,94219,5,0,0:0:0:0:
147,246,94386,5,0,0:0:0:0:
201,147,94469,5,0,0:0:0:0:
146,246,94553,5,8,0:0:0:0:
220,163,94886,5,4,0:0:0:0:
220,163,95053,5,8,0:0:0:0:
216,170,95219,5,0,0:0:0:0:
209,232,95386,5,8,0:0:0:0:
220,163,95469,5,8,0:0:0:0:
209,232,95553,5,0,0:0:0:0:
209,232,95719,5,8,0:0:0:0:
139,186,95886,5,0,0:0:0:0:
244,66,95969,5,0,0:0:0:0:
139,186,96053,5,8,0:0:0:0:
139,186,96136,5,8,0:0:0:0:
139,186,96219,5,0,0:0:0:0:
141,196,96386,5,8,0:0:0:0:
141,196,96553,5,0,0:0:0:0:
141,196,96719,5,8,0:0:0:0:
194,30,96803,5,8,0:0:0:0:
141,196,96886,5,0,0:0:0:0:
141,196,97219,5,8,0:0:0:0:
141,196,97386,5,0,0:0:0:0:
141,196,97553,5,12,0:0:0:0:
210,230,98053,5,4,0:0:0:0:
210,230,98219,5,12,0:0:0:0:
210,230,98386,5,12,0:0:0:0:
215,123,98719,5,12,0:0:0:0:
215,123,99053,5,12,0:0:0:0:
215,123,99386,5,12,0:0:0:0:
215,123,99553,5,4,0:0:0:0:
