osu file format v14

[General]
AudioFilename: audio.mp3
AudioLeadIn: 0
PreviewTime: 62803
Countdown: 0
SampleSet: Normal
StackLeniency: 0.7
Mode: 1
LetterboxInBreaks: 0
WidescreenStoryboard: 1

[Editor]
DistanceSpacing: 1.6
BeatDivisor: 4
GridSize: 32
TimelineZoom: 3.299999

[Metadata]
Title:ROCK-mode (Cut Ver.)
TitleUnicode:ROCK-mode (Cut Ver.)
Artist:LiSA
ArtistUnicode:LiSA
Creator:skolodojko
Version:Muzukashii
Source:
Tags:japanese pop rock short version lover"s"mile lover's smile ansb-3707 risa oribe
BeatmapID:2663719
BeatmapSetID:1282473

[Difficulty]
HPDrainRate:6
CircleSize:3
OverallDifficulty:5
ApproachRate:9
SliderMultiplier:1.4
SliderTickRate:1

[Events]
//Background and Video events
0,0,"bg stolen from some unranked set.jpg",0,0
//Break Periods
//Storyboard Layer 0 (Background)
//Storyboard Layer 1 (Fail)
//Storyboard Layer 2 (Pass)
//Storyboard Layer 3 (Foreground)
//Storyboard Layer 4 (Overlay)
//Storyboard Sound Samples

[TimingPoints]
220,333.333333333333,4,1,0,100,1,0
1553,-99.009900990099,4,1,0,100,0,0
2886,-98.0392156862745,4,1,0,100,0,0
4219,-97.0873786407767,4,1,0,100,0,0
7678,-99.009900990099,4,1,0,80,0,0
8178,-99.009900990099,4,1,0,100,0,0
8219,-88.4955752212389,4,1,0,100,0,1
16219,-88.4955752212389,4,1,0,100,0,0
18886,-88.4955752212389,4,1,0,100,0,0
19178,-99.009900990099,4,1,0,80,0,0
26844,-88.4955752212389,4,1,0,100,0,0
29553,-99.009900990099,4,1,0,100,0,0
29803,-99.009900990099,4,1,0,80,0,0
37511,-88.4955752212389,4,1,0,100,0,0
40219,-99.009900990099,4,1,0,100,0,0
40511,-99.009900990099,4,1,0,80,0,0
50678,-99.009900990099,4,1,0,80,0,0
50761,-99.009900990099,4,1,0,80,0,0
50844,-91.743119266055,4,1,0,90,0,0
54719,-89.2857142857143,4,1,0,90,0,0
56178,-89.2857142857143,4,1,0,95,0,0
58844,-84.0336134453781,4,1,0,100,0,0
61511,-84.0336134453781,4,1,0,80,0,0
62844,-84.0336134453781,4,1,0,100,0,0
62886,-86.2068965517241,4,1,0,100,0,1
70886,-86.2068965517241,4,1,0,100,0,0
73553,-86.2068965517241,4,1,0,100,0,1
86886,-83.3333333333333,4,1,0,100,0,0
89053,-86.2068965517241,4,1,0,100,0,0
89553,-86.2068965517241,4,1,0,100,0,1
97553,-76.9230769230769,4,1,0,100,0,0

[HitObjects]
212,213,220,5,0,0:0:0:0:
297,111,553,5,8,0:0:0:0:
113,212,719,5,0,0:0:0:0:
113,212,886,5,0,0:0:0:0:
113,212,1053,5,0,0:0:0:0:
113,212,1219,5,8,0:0:0:0:
143,237,1553,5,0,0:0:0:0:
177,110,1886,5,8,0:0:0:0:
143,237,2053,5,8,0:0:0:0:
143,237,2219,5,0,0:0:0:0:
421,113,2386,5,0,0:0:0:0:
136,237,2553,5,8,0:0:0:0:
143,237,2886,5,0,0:0:0:0:
175,109,3219,5,8,0:0:0:0:
143,237,3386,5,0,0:0:0:0:
143,237,3553,5,0,0:0:0:0:
421,113,3719,5,8,0:0:0:0:
136,237,3886,5,8,0:0:0:0:
211,168,4219,5,8,0:0:0:0:
257,254,4386,5,0,0:0:0:0:
110,168,4553,5,0,0:0:0:0:
257,254,4719,5,8,0:0:0:0:
110,168,4886,5,8,0:0:0:0:
110,168,5053,5,0,0:0:0:0:
110,168,5219,5,8,0:0:0:0:
110,168,5386,5,8,0:0:0:0:
320,158,7719,5,0,0:0:0:0:
187,150,7886,5,8,0:0:0:0:
187,150,8219,5,4,0:0:0:0:
179,156,8386,5,0,0:0:0:0:
171,161,8553,5,0,0:0:0:0:
164,162,8719,5,8,0:0:0:0:
336,248,8803,5,8,0:0:0:0:
164,162,8886,5,8,0:0:0:0:
160,162,9219,5,0,0:0:0:0:
164,162,9553,5,0,0:0:0:0:
164,162,9719,5,0,0:0:0:0:
160,162,9886,5,0,0:0:0:0:
160,162,10053,5,8,0:0:0:0:
160,162,10136,5,8,0:0:0:0:
160,162,10219,5,8,0:0:0:0:
250,174,10553,5,0,0:0:0:0:
243,62,10719,5,8,0:0:0:0:
263,104,10886,5,8,0:0:0:0:
220,201,11219,5,0,0:0:0:0:
220,201,11553,5,8,0:0:0:0:
147,222,11886,5,0,0:0:0:0:
127,219,12219,5,8,0:0:0:0:
302,253,12386,5,0,0:0:0:0:
253,266,12553,5,8,0:0:0:0:
149,254,12886,5,8,0:0:0:0:
199,255,13053,5,0,0:0:0:0:
209,175,13219,5,8,0:0:0:0:
70,231,13553,5,4,0:0:0:0:
70,231,13719,5,8,0:0:0:0:
70,231,13886,5,0,0:0:0:0:
149,254,14053,5,8,0:0:0:0:
149,254,14136,5,8,0:0:0:0:
157,248,14219,5,8,0:0:0:0:
116,179,14553,5,8,0:0:0:0:
116,179,14886,5,0,0:0:0:0:
116,179,15053,5,8,0:0:0:0:
116,179,15219,5,0,0:0:0:0:
149,254,15386,5,8,0:0:0:0:
149,254,15469,5,8,0:0:0:0:
157,248,15553,5,8,0:0:0:0:
56,212,15886,5,8,0:0:0:0:
56,212,16219,5,4,0:0:0:0:
307,193,16719,5,0,0:0:0:0:
56,212,16886,5,8,0:0:0:0:
56,212,17053,5,0,0:0:0:0:
56,212,17386,5,8,0:0:0:0:
56,212,17719,5,0,0:0:0:0:
56,212,17886,5,8,0:0:0:0:
215,145,18219,5,0,0:0:0:0:
215,145,18553,5,8,0:0:0:0:
215,145,18886,5,12,0:0:0:0:
166,182,19219,5,0,0:0:0:0:
166,182,19553,5,8,0:0:0:0:
166,182,19886,5,0,0:0:0:0:
166,182,20053,5,8,0:0:0:0:
166,182,20553,5,0,0:0:0:0:
166,182,20886,5,8,0:0:0:0:
106,198,21053,5,0,0:0:0:0:
273,237,21219,5,0,0:0:0:0:
106,198,21553,5,8,0:0:0:0:
106,198,21886,5,0,0:0:0:0:
106,198,22219,5,8,0:0:0:0:
106,198,22553,5,0,0:0:0:0:
106,198,22719,5,8,0:0:0:0:
106,198,23053,5,0,0:0:0:0:
238,266,23553,5,0,0:0:0:0:
238,266,23719,5,8,0:0:0:0:
263,148,23803,5,8,0:0:0:0:
106,198,23886,5,8,0:0:0:0:
106,198,24219,5,4,0:0:0:0:
106,198,24553,5,0,0:0:0:0:
112,197,24886,5,8,0:0:0:0:
218,164,25219,5,8,0:0:0:0:
112,197,25386,5,0,0:0:0:0:
112,197,25553,5,8,0:0:0:0:
112,197,25886,5,0,0:0:0:0:
112,197,26219,5,8,0:0:0:0:
243,151,26886,5,12,0:0:0:0:
232,108,27219,5,0,0:0:0:0:
112,197,27386,5,0,0:0:0:0:
112,197,27553,5,8,0:0:0:0:
304,154,27719,5,8,0:0:0:0:
112,197,28053,5,8,0:0:0:0:
112,197,28386,5,8,0:0:0:0:
118,194,28469,5,8,0:0:0:0:
118,194,28553,5,8,0:0:0:0:
121,194,28719,5,0,0:0:0:0:
121,194,28886,5,8,0:0:0:0:
241,120,29219,5,8,0:0:0:0:
121,194,29553,5,4,0:0:0:0:
226,229,29886,5,8,0:0:0:0:
226,229,30219,5,0,0:0:0:0:
166,208,30553,5,0,0:0:0:0:
226,229,30719,5,8,0:0:0:0:
256,145,31219,5,8,0:0:0:0:
125,224,31553,5,0,0:0:0:0:
125,224,31886,5,8,0:0:0:0:
125,224,32219,5,0,0:0:0:0:
125,224,32386,5,8,0:0:0:0:
125,224,32553,5,8,0:0:0:0:
125,224,32886,5,8,0:0:0:0:
210,104,33219,5,0,0:0:0:0:
125,224,33386,5,8,0:0:0:0:
125,224,33719,5,0,0:0:0:0:
125,224,34053,5,8,0:0:0:0:
125,224,34386,5,0,0:0:0:0:
125,224,34553,5,8,0:0:0:0:
125,224,34719,5,0,0:0:0:0:
221,261,35053,5,0,0:0:0:0:
125,224,35219,5,8,0:0:0:0:
125,224,35553,5,0,0:0:0:0:
125,224,35886,5,8,0:0:0:0:
125,224,36053,5,0,0:0:0:0:
221,261,36136,5,0,0:0:0:0:
125,224,36219,5,0,0:0:0:0:
205,164,36386,5,0,0:0:0:0:
125,224,36553,5,8,0:0:0:0:
292,99,36719,5,0,0:0:0:0:
125,224,36886,5,8,0:0:0:0:
125,224,37553,5,12,0:0:0:0:
221,143,37886,5,0,0:0:0:0:
125,224,38053,5,8,0:0:0:0:
125,224,38219,5,8,0:0:0:0:
206,210,38386,5,0,0:0:0:0:
206,210,38719,5,8,0:0:0:0:
191,209,39053,5,8,0:0:0:0:
204,74,39136,5,8,0:0:0:0:
206,210,39219,5,8,0:0:0:0:
220,145,39386,5,0,0:0:0:0:
206,210,39553,5,0,0:0:0:0:
243,108,39886,5,8,0:0:0:0:
140,131,40219,5,4,0:0:0:0:
108,169,40553,5,8,0:0:0:0:
126,218,40886,5,0,0:0:0:0:
126,218,41386,5,8,0:0:0:0:
126,218,41719,5,0,0:0:0:0:
126,218,42053,5,8,0:0:0:0:
212,220,42219,5,0,0:0:0:0:
126,218,42386,5,8,0:0:0:0:
228,103,42719,5,8,0:0:0:0:
212,220,43053,5,0,0:0:0:0:
126,218,43219,5,0,0:0:0:0:
212,220,43386,5,0,0:0:0:0:
126,218,43553,5,8,0:0:0:0:
241,90,43719,5,0,0:0:0:0:
189,178,44053,5,0,0:0:0:0:
160,153,44386,5,0,0:0:0:0:
126,218,44719,5,0,0:0:0:0:
126,218,44886,5,8,0:0:0:0:
121,172,45219,5,4,0:0:0:0:
121,172,45553,5,12,0:0:0:0:
121,172,45886,5,0,0:0:0:0:
121,172,46219,5,8,0:0:0:0:
121,172,46719,5,8,0:0:0:0:
121,172,47053,5,0,0:0:0:0:
221,216,47219,5,0,0:0:0:0:
121,172,47386,5,0,0:0:0:0:
121,172,47553,5,8,0:0:0:0:
121,172,47719,5,0,0:0:0:0:
84,240,48053,5,8,0:0:0:0:
221,216,48219,5,8,0:0:0:0:
84,240,48386,5,0,0:0:0:0:
221,216,48719,5,0,0:0:0:0:
215,158,48886,5,8,0:0:0:0:
84,240,49053,5,0,0:0:0:0:
143,223,49386,5,8,0:0:0:0:
143,223,49719,5,0,0:0:0:0:
143,223,50053,5,0,0:0:0:0:
143,223,50219,5,8,0:0:0:0:
267,104,50553,5,8,0:0:0:0:
143,223,50719,5,0,0:0:0:0:
131,139,50886,5,12,0:0:0:0:
115,210,52053,5,4,0:0:0:0:
233,178,53219,5,0,0:0:0:0:
216,137,53386,5,12,0:0:0:0:
333,105,54553,5,8,0:0:0:0:
134,183,54719,5,4,0:0:0:0:
130,190,55053,5,0,0:0:0:0:
130,191,55219,5,0,0:0:0:0:
130,191,55386,5,8,0:0:0:0:
129,191,55553,5,8,0:0:0:0:
130,190,55719,5,0,0:0:0:0:
152,145,55803,5,0,0:0:0:0:
152,145,55886,5,0,0:0:0:0:
195,198,56219,5,4,0:0:0:0:
167,288,56386,5,8,0:0:0:0:
224,250,56469,5,8,0:0:0:0:
163,270,56553,5,8,0:0:0:0:
195,198,56719,5,0,0:0:0:0:
187,201,57053,5,0,0:0:0:0:
183,203,57219,5,8,0:0:0:0:
141,103,57553,5,4,0:0:0:0:
262,178,57719,5,8,0:0:0:0:
271,178,57803,5,8,0:0:0:0:
271,178,57886,5,8,0:0:0:0:
110,206,58053,5,0,0:0:0:0:
110,206,58386,5,0,0:0:0:0:
110,206,58553,5,8,0:0:0:0:
110,206,58886,5,12,0:0:0:0:
322,217,59053,5,4,0:0:0:0:
186,203,59386,5,12,0:0:0:0:
261,258,59719,5,12,0:0:0:0:
185,210,60053,5,12,0:0:0:0:
284,91,60386,5,12,0:0:0:0:
185,210,60553,5,4,0:0:0:0:
183,212,60719,5,12,0:0:0:0:
183,212,60886,5,4,0:0:0:0:
256,192,61553,12,0,62719,0:0:0:0:
272,228,62886,5,12,0:0:0:0:
234,192,63053,5,0,0:0:0:0:
131,212,63136,5,0,0:0:0:0:
266,94,63219,5,0,0:0:0:0:
131,212,63386,5,8,0:0:0:0:
131,212,63553,5,8,0:0:0:0:
46,222,63886,5,8,0:0:0:0:
46,222,64053,5,0,0:0:0:0:
46,222,64219,5,8,0:0:0:0:
191,153,64386,5,0,0:0:0:0:
373,124,64469,5,0,0:0:0:0:
201,136,64553,5,0,0:0:0:0:
131,212,64719,5,8,0:0:0:0:
131,212,64886,5,8,0:0:0:0:
209,237,65219,5,8,0:0:0:0:
217,109,65386,5,8,0:0:0:0:
209,237,65553,5,0,0:0:0:0:
209,237,65886,5,8,0:0:0:0:
209,237,66219,5,0,0:0:0:0:
131,175,66553,5,8,0:0:0:0:
131,212,66886,5,8,0:0:0:0:
207,164,67053,5,0,0:0:0:0:
131,212,67219,5,8,0:0:0:0:
131,212,67553,5,8,0:0:0:0:
131,175,67719,5,0,0:0:0:0:
131,212,67886,5,8,0:0:0:0:
52,145,68219,5,12,0:0:0:0:
433,244,68386,5,0,0:0:0:0:
355,70,68553,5,0,0:0:0:0:
212,146,68719,5,8,0:0:0:0:
117,131,68803,5,8,0:0:0:0:
188,93,68886,5,8,0:0:0:0:
197,192,69219,5,8,0:0:0:0:
197,192,69386,5,0,0:0:0:0:
190,193,69553,5,8,0:0:0:0:
266,113,69719,5,0,0:0:0:0:
342,219,69886,5,0,0:0:0:0:
270,154,70053,5,8,0:0:0:0:
270,154,70136,5,8,0:0:0:0:
132,140,70219,5,8,0:0:0:0:
131,140,70553,5,8,0:0:0:0:
193,223,70886,5,0,0:0:0:0:
193,223,71386,5,0,0:0:0:0:
193,223,71553,5,8,0:0:0:0:
193,223,71719,5,0,0:0:0:0:
131,212,72053,5,8,0:0:0:0:
131,212,72136,5,8,0:0:0:0:
131,212,72219,5,8,0:0:0:0:
78,222,72386,5,0,0:0:0:0:
78,222,72553,5,8,0:0:0:0:
86,220,72886,5,0,0:0:0:0:
91,218,73053,5,12,0:0:0:0:
92,218,73219,5,12,0:0:0:0:
131,212,73553,5,4,0:0:0:0:
209,132,73719,1,8,0:0:0:0:
177,218,73886,5,0,0:0:0:0:
177,218,74053,5,8,0:0:0:0:
236,210,74136,5,8,0:0:0:0:
177,218,74219,5,8,0:0:0:0:
177,218,74553,5,8,0:0:0:0:
212,149,74719,5,8,0:0:0:0:
266,157,74886,5,0,0:0:0:0:
204,113,75053,5,0,0:0:0:0:
78,208,75219,5,8,0:0:0:0:
78,208,75386,5,0,0:0:0:0:
307,171,75469,5,0,0:0:0:0:
78,208,75553,5,0,0:0:0:0:
211,207,75886,5,8,0:0:0:0:
211,207,76053,5,8,0:0:0:0:
211,207,76219,5,0,0:0:0:0:
211,207,76553,5,0,0:0:0:0:
211,207,76886,5,8,0:0:0:0:
131,212,77219,5,0,0:0:0:0:
131,212,77553,5,8,0:0:0:0:
131,212,77719,5,0,0:0:0:0:
44,206,77886,5,8,0:0:0:0:
131,212,78219,5,8,0:0:0:0:
131,212,78386,5,0,0:0:0:0:
86,141,78553,5,8,0:0:0:0:
160,210,78886,5,12,0:0:0:0:
183,144,79053,5,0,0:0:0:0:
290,97,79219,5,0,0:0:0:0:
106,213,79386,5,8,0:0:0:0:
106,213,79469,5,8,0:0:0:0:
106,213,79553,5,8,0:0:0:0:
202,221,80053,5,0,0:0:0:0:
155,160,80219,5,0,0:0:0:0:
106,213,80386,5,8,0:0:0:0:
106,213,80469,5,8,0:0:0:0:
106,213,80553,5,8,0:0:0:0:
186,117,80719,5,0,0:0:0:0:
172,155,80886,5,0,0:0:0:0:
203,199,81219,5,8,0:0:0:0:
203,199,81553,5,8,0:0:0:0:
203,199,81886,5,0,0:0:0:0:
203,199,82053,5,0,0:0:0:0:
203,199,82219,5,8,0:0:0:0:
203,199,82553,5,8,0:0:0:0:
106,213,82719,5,0,0:0:0:0:
106,213,82803,5,0,0:0:0:0:
106,213,82886,5,0,0:0:0:0:
108,128,83053,5,0,0:0:0:0:
99,127,83219,5,8,0:0:0:0:
155,207,83553,5,0,0:0:0:0:
288,147,83719,1,0,0:0:0:0:
155,207,83886,5,8,0:0:0:0:
210,236,83969,1,8,0:0:0:0:
210,236,84053,1,8,0:0:0:0:
155,207,84219,5,4,0:0:0:0:
83,132,84719,5,8,0:0:0:0:
83,132,84886,5,0,0:0:0:0:
235,245,85053,5,0,0:0:0:0:
235,245,85219,5,8,0:0:0:0:
106,213,85553,5,8,0:0:0:0:
106,213,85636,5,8,0:0:0:0:
106,213,85719,5,8,0:0:0:0:
178,231,85886,5,0,0:0:0:0:
178,231,86053,5,8,0:0:0:0:
178,231,86219,5,0,0:0:0:0:
231,171,86386,5,8,0:0:0:0:
113,231,86553,5,8,0:0:0:0:
113,231,86886,5,12,0:0:0:0:
126,228,87386,5,12,0:0:0:0:
126,228,87553,5,12,0:0:0:0:
126,228,87719,5,4,0:0:0:0:
126,228,88053,5,12,0:0:0:0:
126,228,88386,5,4,0:0:0:0:
126,228,88553,5,12,0:0:0:0:
126,228,88886,5,4,0:0:0:0:
153,136,89219,5,12,0:0:0:0:
126,228,89553,5,4,0:0:0:0:
276,168,89719,5,0,0:0:0:0:
92,177,89886,5,0,0:0:0:0:
106,213,90053,5,8,0:0:0:0:
106,213,90136,5,8,0:0:0:0:
106,213,90219,5,8,0:0:0:0:
193,132,90553,5,0,0:0:0:0:
161,246,90886,5,0,0:0:0:0:
161,246,91053,5,0,0:0:0:0:
142,144,91219,5,0,0:0:0:0:
25,173,91386,5,8,0:0:0:0:
305,94,91469,5,8,0:0:0:0:
30,181,91553,5,8,0:0:0:0:
186,176,91886,5,8,0:0:0:0:
186,176,92053,5,8,0:0:0:0:
186,176,92219,5,8,0:0:0:0:
186,176,92553,5,0,0:0:0:0:
186,176,92886,5,8,0:0:0:0:
186,176,93219,5,0,0:0:0:0:
106,213,93553,5,0,0:0:0:0:
106,213,93719,5,0,0:0:0:0:
83,138,93886,5,8,0:0:0:0:
106,213,94219,5,0,0:0:0:0:
186,176,94386,5,0,0:0:0:0:
106,213,94553,5,8,0:0:0:0:
148,202,94886,5,4,0:0:0:0:
251,126,95053,5,8,0:0:0:0:
280,89,95219,5,0,0:0:0:0:
106,213,95386,5,8,0:0:0:0:
111,96,95469,5,8,0:0:0:0:
106,213,95553,5,8,0:0:0:0:
51,153,95886,5,8,0:0:0:0:
51,153,96219,5,0,0:0:0:0:
51,153,96386,5,8,0:0:0:0:
224,230,96553,5,0,0:0:0:0:
232,147,96719,5,8,0:0:0:0:
194,109,96803,5,8,0:0:0:0:
209,182,96886,5,8,0:0:0:0:
232,173,97219,5,0,0:0:0:0:
232,175,97553,5,12,0:0:0:0:
117,178,98053,5,4,0:0:0:0:
117,178,98219,5,12,0:0:0:0:
117,178,98386,5,12,0:0:0:0:
117,178,98719,5,12,0:0:0:0:
117,178,99053,5,12,0:0:0:0:
117,178,99386,5,12,0:0:0:0:
145,253,99553,5,4,0:0:0:0:
