osu file format v14

[General]
AudioFilename: audio.mp3
AudioLeadIn: 0
PreviewTime: 54390
Countdown: 0
SampleSet: None
StackLeniency: 0.4
Mode: 0
LetterboxInBreaks: 0
WidescreenStoryboard: 1

[Editor]
DistanceSpacing: 0.1
BeatDivisor: 4
GridSize: 4
TimelineZoom: 2.899999

[Metadata]
Title:My Soul, Your Beats! (TV Size)
TitleUnicode:My Soul, Your Beats! (TV Size)
Artist:LiSA
ArtistUnicode:LiSA
Creator:Aviaty
Version:Tenshi
Source:エンジェルビーツ!
Tags:angel beats anime japanese opening
BeatmapID:2229517
BeatmapSetID:1064835

[Difficulty]
HPDrainRate:5.3
CircleSize:4
OverallDifficulty:8
ApproachRate:8.4
SliderMultiplier:1.6
SliderTickRate:1

[Events]
//Background and Video events
0,0,"daebd7fa57a60fec1e75523df83f8f13ae23b494_s2_n1.jpg",0,0
//Break Periods
//Storyboard Layer 0 (Background)
//Storyboard Layer 1 (Fail)
//Storyboard Layer 2 (Pass)
//Storyboard Layer 3 (Foreground)
//Storyboard Layer 4 (Overlay)
//Storyboard Sound Samples

[TimingPoints]
-230,413.793103448276,4,2,0,100,1,0
12597,-416.666666666667,4,2,0,100,0,0
16321,-125,4,2,0,100,0,0
21287,-111.111111111111,4,2,0,100,0,0
22735,-111.111111111111,4,2,0,5,0,0
22942,-111.111111111111,4,2,0,100,0,0
35356,-111.111111111111,4,2,0,5,0,0
35563,-111.111111111111,4,2,0,100,0,0
54390,-90.9090909090909,4,2,0,100,0,1
79218,-90.9090909090909,4,2,0,100,0,0

[HitObjects]
144,87,804,5,0,0:0:0:0:
112,299,1011,1,0,0:0:0:0:
246,157,1218,5,0,0:0:0:0:
246,157,1425,2,0,L|357:155,1,80
105,226,1838,2,0,L|-6:228,1,80
253,179,2252,2,0,P|266:217|246:278,1,80
153,109,2666,6,0,L|156:13,1,80
372,98,3080,2,0,P|333:106|276:95,1,80
147,13,3494,2,0,P|187:6|241:16,1,80
253,179,3907,1,0,0:0:0:0:
308,22,4114,1,0,0:0:0:0:
186,102,4321,1,0,0:0:0:0:
354,102,4528,1,0,0:0:0:0:
172,180,4735,6,0,P|129:174|77:140,1,80
311,168,5149,2,0,P|315:209|310:260,1,80
206,376,5563,2,0,P|202:335|207:284,1,80
424,338,5976,6,0,L|318:337,1,80
124,295,6390,2,0,L|230:296,1,80
311,168,6804,2,0,P|299:205|311:270,1,80
459,213,7218,6,0,L|540:218,2,53.3333333333333
354,248,7632,2,0,L|273:243,2,53.3333333333333
476,138,8045,6,0,P|484:97|480:54,1,80
263,126,8459,2,0,L|373:129,1,80
167,80,8873,2,0,P|157:126|171:175,1,80
261,281,9287,2,0,P|271:235|257:186,1,80
86,238,9701,6,0,P|132:248|181:234,1,80
345,204,10114,2,0,L|227:202,1,80
433,301,10528,2,0,L|551:303,1,80
347,120,10942,1,0,0:0:0:0:
327,119,11045,1,0,0:0:0:0:
307,119,11148,1,0,0:0:0:0:
328,338,11356,6,0,P|338:297|328:238,1,80
213,136,11770,1,0,0:0:0:0:
397,195,11976,1,0,0:0:0:0:
239,232,12183,1,0,0:0:0:0:
353,84,12390,1,0,0:0:0:0:
335,259,12597,6,0,B|329:304|356:333|356:333|239:272|239:358|134:310,1,307.2000075
136,311,16321,6,0,L|62:306,1,64
173,233,16735,2,0,L|99:228,1,64
211,154,17149,2,0,L|137:149,1,64
253,76,17563,2,0,L|179:71,1,64
293,189,17976,6,0,L|356:193,1,64
498,121,18390,2,0,L|424:116,1,64
450,277,18804,2,0,L|455:203,1,64
468,43,19218,1,0,0:0:0:0:
329,113,19425,1,0,0:0:0:0:
329,113,19528,1,0,0:0:0:0:
329,113,19632,5,0,0:0:0:0:
401,153,19838,1,0,0:0:0:0:
385,235,20045,1,0,0:0:0:0:
303,245,20252,1,0,0:0:0:0:
268,169,20459,1,0,0:0:0:0:
401,153,20666,5,0,0:0:0:0:
198,119,20873,1,0,0:0:0:0:
303,245,21080,1,0,0:0:0:0:
233,39,21287,6,0,L|132:39,1,71.9999978027344
191,197,21701,1,0,0:0:0:0:
313,81,21907,2,0,P|322:45|302:-19,1,71.9999978027344
236,123,22321,1,0,0:0:0:0:
384,123,22528,2,0,L|499:124,1,107.999996704102
507,136,22942,5,0,0:0:0:0:
382,201,23149,1,0,0:0:0:0:
438,47,23356,1,0,0:0:0:0:
459,225,23563,2,0,P|415:273|329:263,1,143.999995605469
224,163,24183,1,0,0:0:0:0:
382,129,24390,1,0,0:0:0:0:
382,129,24494,1,0,0:0:0:0:
382,129,24597,6,0,L|381:225,1,71.9999978027344
275,45,25011,1,0,0:0:0:0:
205,182,25218,2,0,P|170:186|116:171,1,71.9999978027344
179,31,25632,1,0,0:0:0:0:
283,161,25838,2,0,P|283:204|267:238,1,71.9999978027344
272,230,26149,1,0,0:0:0:0:
272,230,26252,5,0,0:0:0:0:
120,106,26459,1,0,0:0:0:0:
120,106,26666,2,0,L|212:105,1,71.9999978027344
354,160,27080,5,0,0:0:0:0:
354,160,27287,1,0,0:0:0:0:
354,160,27494,1,0,0:0:0:0:
357,27,27701,1,0,0:0:0:0:
385,233,27907,6,0,P|350:239|308:229,1,71.9999978027344
160,159,28321,2,0,P|195:153|237:163,1,71.9999978027344
212,340,28735,2,0,P|206:305|216:263,1,71.9999978027344
313,150,29149,1,0,0:0:0:0:
289,308,29356,1,0,0:0:0:0:
138,238,29563,6,0,P|64:247|37:324,1,143.999995605469
151,377,30183,1,0,0:0:0:0:
220,231,30390,2,0,P|208:196|162:156,1,71.9999978027344
0,227,30804,2,0,P|35:232|82:223,1,71.9999978027344
123,60,31218,5,0,0:0:0:0:
123,60,31425,1,0,0:0:0:0:
257,130,31632,2,0,P|302:131|357:114,1,71.9999978027344
471,48,32045,2,0,P|426:47|371:64,1,71.9999978027344
416,236,32459,2,0,P|422:195|420:142,1,71.9999978027344
227,223,32873,5,0,0:0:0:0:
227,223,33080,2,0,L|304:221,1,71.9999978027344
165,134,33494,2,0,L|74:137,1,71.9999978027344
188,301,33907,5,0,0:0:0:0:
247,104,34114,1,0,0:0:0:0:
101,240,34321,1,0,0:0:0:0:
298,221,34528,5,0,0:0:0:0:
128,140,34735,1,0,0:0:0:0:
330,138,34942,1,0,0:0:0:0:
129,218,35149,2,0,P|77:202|50:135,1,107.999996704102
35,157,35563,1,0,0:0:0:0:
239,121,35770,2,0,P|279:122|323:135,1,71.9999978027344
398,264,36183,5,0,0:0:0:0:
383,82,36390,1,0,0:0:0:0:
308,227,36597,1,0,0:0:0:0:
458,101,36804,2,0,P|454:52|367:3,1,143.999995605469
210,58,37425,2,0,L|305:57,1,71.9999978027344
225,233,37838,5,0,0:0:0:0:
210,58,38045,1,0,0:0:0:0:
309,148,38252,1,0,0:0:0:0:
143,103,38459,2,0,P|130:56|143:6,1,71.9999978027344
301,56,38873,1,0,0:0:0:0:
169,174,39080,2,0,P|132:177|80:152,1,71.9999978027344
297,139,39494,6,0,L|302:220,1,71.9999978027344
197,96,39907,2,0,L|192:15,1,71.9999978027344
200,175,40321,6,0,P|158:180|119:168,1,71.9999978027344
297,139,40735,1,0,0:0:0:0:
231,266,40942,1,0,0:0:0:0:
297,139,41149,6,0,L|381:137,1,71.9999978027344
512,200,41563,2,0,L|428:202,1,71.9999978027344
297,161,41976,6,0,L|381:159,1,71.9999978027344
512,224,42390,2,0,L|428:226,1,71.9999978027344
297,161,42804,6,0,P|335:210|308:297,1,143.999995605469
140,231,43425,1,0,0:0:0:0:
140,231,43632,2,0,P|183:229|217:234,1,71.9999978027344
62,287,44045,2,0,L|49:189,1,71.9999978027344
99,77,44459,6,0,L|112:175,1,71.9999978027344
188,83,44873,2,0,P|239:80|288:95,1,71.9999978027344
368,161,45287,2,0,P|317:164|268:149,1,71.9999978027344
450,111,45701,2,0,L|458:206,1,71.9999978027344
466,286,46114,5,0,0:0:0:0:
373,113,46321,1,0,0:0:0:0:
373,113,46528,1,0,0:0:0:0:
376,302,46735,5,0,0:0:0:0:
283,129,46942,1,0,0:0:0:0:
283,129,47149,1,0,0:0:0:0:
212,318,47356,5,0,0:0:0:0:
176,320,47459,1,0,0:0:0:0:
140,313,47562,1,0,0:0:0:0:
336,211,47770,6,0,L|435:212,1,71.9999978027344
210,245,48183,1,0,0:0:0:0:
210,245,48390,2,0,P|208:194|216:162,1,71.9999978027344
308,299,48804,1,0,0:0:0:0:
308,299,49011,2,0,P|310:350|302:382,1,71.9999978027344
210,245,49425,6,0,B|136:217|136:270|68:240,1,143.999995605469
284,166,50045,2,0,P|312:209|303:307,1,143.999995605469
196,149,50666,2,0,L|195:63,1,71.9999978027344
381,88,51080,5,0,0:0:0:0:
381,88,51287,2,0,P|345:94|308:88,1,71.9999978027344
488,57,51701,2,0,P|495:112|428:173,1,143.999995605469
238,86,52321,2,0,P|272:83|325:93,1,71.9999978027344
358,271,52735,5,0,0:0:0:0:
412,65,52942,1,0,0:0:0:0:
358,271,53149,1,0,0:0:0:0:
441,138,53356,2,0,P|477:134|522:140,1,71.9999978027344
482,299,53770,5,0,0:0:0:0:
324,169,53976,1,0,0:0:0:0:
389,374,54183,1,0,0:0:0:0:
367,95,54390,5,0,0:0:0:0:
312,291,54597,1,0,0:0:0:0:
476,216,54804,1,0,0:0:0:0:
282,98,55011,1,0,0:0:0:0:
282,98,55114,1,0,0:0:0:0:
282,98,55218,2,0,P|237:95|156:106,1,88.000002685547
225,286,55632,1,0,0:0:0:0:
356,142,55838,6,0,P|365:102|268:11,1,176.000005371094
166,169,56459,1,0,0:0:0:0:
356,142,56666,1,0,0:0:0:0:
356,142,56770,1,0,0:0:0:0:
356,142,56873,2,0,P|399:137|453:144,1,88.000002685547
252,245,57287,2,0,P|209:250|155:243,1,88.000002685547
400,211,57701,6,0,L|416:310,2,88.000002685547
375,52,58321,1,0,0:0:0:0:
375,52,58425,1,0,0:0:0:0:
375,52,58528,2,0,P|320:51|261:73,1,88.000002685547
265,237,58942,1,0,0:0:0:0:
78,149,59149,6,0,L|264:142,1,176.000005371094
206,310,59770,1,0,0:0:0:0:
259,129,59976,2,0,L|277:75,1,44.0000013427735
206,310,60183,1,0,0:0:0:0:
206,310,60390,1,0,0:0:0:0:
332,162,60597,1,0,0:0:0:0:
363,157,60700,1,0,0:0:0:0:
395,161,60803,1,0,0:0:0:0:
425,173,60907,1,0,0:0:0:0:
451,191,61011,6,0,P|463:248|458:297,1,88.000002685547
259,248,61425,2,0,P|296:244|357:249,1,88.000002685547
346,247,61735,1,0,0:0:0:0:
346,247,61838,1,0,0:0:0:0:
267,371,62045,1,0,0:0:0:0:
199,196,62252,1,0,0:0:0:0:
169,339,62459,1,0,0:0:0:0:
275,169,62666,5,0,0:0:0:0:
237,296,62873,1,0,0:0:0:0:
211,119,63080,1,0,0:0:0:0:
312,246,63287,1,0,0:0:0:0:
312,246,63390,1,0,0:0:0:0:
312,246,63494,1,0,0:0:0:0:
360,101,63701,5,0,0:0:0:0:
360,101,63907,2,0,P|402:95|459:104,1,88.000002685547
257,182,64321,2,0,P|215:188|158:179,1,88.000002685547
238,16,64735,1,0,0:0:0:0:
257,182,64942,1,0,0:0:0:0:
257,182,65045,1,0,0:0:0:0:
257,182,65149,1,0,0:0:0:0:
285,73,65356,5,0,0:0:0:0:
170,182,65563,1,0,0:0:0:0:
356,148,65770,1,0,0:0:0:0:
181,98,65976,6,0,P|137:104|102:133,1,88.000002685547
96,160,66287,1,0,0:0:0:0:
93,186,66390,1,0,0:0:0:0:
97,213,66493,1,0,0:0:0:0:
107,238,66597,1,0,0:0:0:0:
257,182,66804,5,0,0:0:0:0:
221,28,67011,1,0,0:0:0:0:
170,182,67218,1,0,0:0:0:0:
172,202,67321,1,0,0:0:0:0:
181,221,67424,1,0,0:0:0:0:
352,152,67632,6,0,P|395:146|455:159,1,88.000002685547
460,290,68045,1,0,0:0:0:0:
352,152,68252,1,0,0:0:0:0:
352,152,68356,1,0,0:0:0:0:
352,152,68459,2,0,P|349:95|367:47,1,88.000002685547
502,216,68873,1,0,0:0:0:0:
339,246,69080,6,0,P|270:206|261:103,1,176.000005371094
436,77,69701,1,0,0:0:0:0:
255,116,69907,1,0,0:0:0:0:
255,116,70011,1,0,0:0:0:0:
255,116,70114,2,0,P|200:119|146:107,1,88.000002685547
357,65,70528,2,0,P|361:129|345:173,1,88.000002685547
216,29,70942,5,0,0:0:0:0:
429,35,71149,1,0,0:0:0:0:
255,116,71356,1,0,0:0:0:0:
438,145,71563,1,0,0:0:0:0:
438,145,71666,1,0,0:0:0:0:
438,145,71770,2,0,P|424:200|381:237,1,88.000002685547
302,54,72183,1,0,0:0:0:0:
148,179,72390,6,0,L|335:164,1,176.000005371094
220,19,73011,1,0,0:0:0:0:
148,179,73218,1,0,0:0:0:0:
132,32,73425,1,0,0:0:0:0:
77,225,73632,1,0,0:0:0:0:
77,225,73735,1,0,0:0:0:0:
77,225,73838,1,0,0:0:0:0:
212,100,74045,1,0,0:0:0:0:
212,100,74149,1,0,0:0:0:0:
212,100,74252,6,0,P|305:97|359:163,1,176.000005371094
261,300,74873,1,0,0:0:0:0:
261,300,74976,1,0,0:0:0:0:
261,300,75080,2,0,P|252:245|261:196,1,88.000002685547
415,258,75494,1,0,0:0:0:0:
261,300,75701,5,0,0:0:0:0:
356,154,75907,1,0,0:0:0:0:
348,331,76114,1,0,0:0:0:0:
244,199,76321,6,0,P|194:191|140:206,1,88.000002685547
157,198,76632,1,0,0:0:0:0:
157,198,76735,1,0,0:0:0:0:
185,353,76942,1,0,0:0:0:0:
244,199,77149,1,0,0:0:0:0:
117,285,77356,1,0,0:0:0:0:
261,287,77563,5,0,0:0:0:0:
157,198,77770,1,0,0:0:0:0:
185,353,77976,1,0,0:0:0:0:
258,178,78183,1,0,0:0:0:0:
274,384,78390,1,0,0:0:0:0:
76,211,78597,1,0,0:0:0:0:
74,184,78700,1,0,0:0:0:0:
81,158,78803,1,0,0:0:0:0:
97,136,78907,1,0,0:0:0:0:
118,121,79010,1,0,0:0:0:0:
144,114,79114,1,0,0:0:0:0:
170,116,79218,6,0,L|276:115,1,88.000002685547
412,194,79632,2,0,L|306:195,1,88.000002685547
157,198,80045,1,0,0:0:0:0:
157,198,80252,1,0,0:0:0:0:
324,194,80459,6,0,P|334:294|277:338,1,176.000005371094
99,298,81080,1,0,0:0:0:0:
99,298,81287,2,0,P|148:292|206:301,1,88.000002685547
368,334,81701,2,0,P|319:340|261:331,1,88.000002685547
255,187,82114,1,0,0:0:0:0:
280,336,82321,1,0,0:0:0:0:
255,187,82528,6,0,L|152:188,1,88.000002685547
341,252,82942,2,0,L|444:251,1,88.000002685547
347,153,83356,1,0,0:0:0:0:
243,265,83563,1,0,0:0:0:0:
428,251,83770,6,0,P|484:192|467:104,1,176.000005371094
259,153,84390,1,0,0:0:0:0:
259,153,84597,2,0,P|303:158|351:151,1,88.000002685547
250,66,85011,6,0,L|235:0,2,58.6666684570313
174,135,85425,2,0,L|195:220,2,58.6666684570313
154,33,85838,6,0,P|111:45|80:83,1,88.000002685547
250,66,86252,2,0,L|345:66,1,88.000002685547
476,67,86666,1,0,0:0:0:0:
476,67,86873,1,0,0:0:0:0:
256,192,87080,12,0,88942,0:0:0:0:
