osu file format v14

[General]
AudioFilename: audio.mp3
AudioLeadIn: 0
PreviewTime: 127351
Countdown: 0
SampleSet: Soft
StackLeniency: 0.7
Mode: 0
LetterboxInBreaks: 0
WidescreenStoryboard: 0

[Editor]
Bookmarks: 75776,86623,235776,243911,249335
DistanceSpacing: 1
BeatDivisor: 4
GridSize: 8
TimelineZoom: 1

[Metadata]
Title:Kimi ni Pierrot
TitleUnicode:君にピエロ
Artist:LiSA
ArtistUnicode:LiSA
Creator:Sotarks
Version:Akitoshi's Normal
Source:
Tags:happyrocket88 doormat hb24 kalibe akitoshi Risa Oribe Launcher [C_u_r_i] Curi
BeatmapID:975164
BeatmapSetID:441167

[Difficulty]
HPDrainRate:3
CircleSize:3
OverallDifficulty:3
ApproachRate:4
SliderMultiplier:0.899999999999999
SliderTickRate:1

[Events]
//Background and Video events
0,0,"BG.jpg",0,0
//Break Periods
2,76026,85353
//Storyboard Layer 0 (Background)
//Storyboard Layer 1 (Fail)
//Storyboard Layer 2 (Pass)
//Storyboard Layer 3 (Foreground)
//Storyboard Sound Samples

[TimingPoints]
2606,338.983050847458,4,2,1,52,1,0
2606,-100,4,2,1,52,0,0
12097,-100,4,2,1,52,0,0
13453,-100,4,2,1,62,0,0
43283,-100,4,2,1,72,0,1
64978,-100,4,2,1,52,0,0
70402,-100,4,2,1,62,0,0
86673,-100,4,2,1,62,0,0
96843,-100,4,2,1,62,0,0
127351,-100,4,2,1,72,0,1
136843,-100,4,2,1,72,0,0
138199,-100,4,2,1,72,0,1
149046,-100,4,2,1,62,0,0
181589,-100,4,2,1,62,0,1
203283,-100,4,2,1,62,0,0
235826,-100,4,2,1,62,0,0
235911,-100,4,2,1,42,0,0
248029,-100,4,2,1,32,0,0
248707,-100,4,2,1,22,0,0
249385,-100,4,2,1,12,0,0

[Colours]
Combo1 : 180,164,255
Combo2 : 240,217,123
Combo3 : 255,117,120
Combo4 : 143,255,62
SliderBorder : 135,158,220
SliderTrackOverride : 27,67,67

[HitObjects]
295,170,2606,6,0,B|355:146|373:190|435:158,2,135,2|0|2,0:0|0:0|0:0,0:0:0:0:
229,232,3961,2,0,P|206:180|239:98,2,135,2|2|2,0:0|0:0|0:0,0:0:0:0:
275,309,5317,6,0,P|212:320|152:280,2,135,2|2|2,0:0|0:0|0:0,0:0:0:0:
336,242,6673,2,0,B|363:303|363:303|351:374,2,135,2|2|2,0:0|0:0|0:0,0:0:0:0:
270,179,8029,6,0,P|256:130|259:89,1,89.9999999999999,2|0,0:0|0:0,0:0:0:0:
331,38,8707,2,0,P|380:24|421:27,1,89.9999999999999,0|2,0:0|0:0,0:0:0:0:
460,42,9216,1,0,0:0:0:0:
479,82,9385,2,0,L|467:222,2,135,2|2|2,0:0|0:0|0:0,0:0:0:0:
395,116,10741,6,0,B|388:188|388:188|370:222|370:222|363:299,1,180,2|2,0:0|0:0,0:0:0:0:
301,356,11758,1,0,0:0:0:0:
230,300,12097,2,0,B|183:297|145:323|145:323|95:322|63:273,1,180,2|0,0:0|0:0,0:0:0:0:
63,101,13453,6,0,B|95:89|95:89|161:93,1,89.9999999999999,6|8,3:0|0:0,0:0:0:0:
240,95,14131,2,0,L|248:39,2,45,2|2|8,0:0|0:0|0:0,0:0:0:0:
235,139,14639,2,0,P|237:188|257:242,1,89.9999999999999,2|2,3:0|0:0,0:0:0:0:
272,265,15148,1,8,0:0:0:0:
351,306,15487,2,0,L|344:366,2,45,2|2|8,0:0|0:0|0:0,0:0:0:0:
413,239,16165,6,0,L|403:149,1,89.9999999999999,2|8,3:0|0:0,0:0:0:0:
358,70,16843,1,2,0:0:0:0:
268,64,17182,1,8,0:0:0:0:
190,111,17521,2,0,P|158:152|151:208,1,89.9999999999999,0|8,0:0|0:0,0:0:0:0:
159,278,18199,1,2,0:0:0:0:
237,321,18538,1,8,0:0:0:0:
318,284,18877,6,0,B|353:275|353:275|423:280,1,89.9999999999999,6|8,3:0|0:0,0:0:0:0:
468,212,19555,2,0,L|516:216,2,45,2|2|8,0:0|0:0|0:0,0:0:0:0:
424,198,20063,2,0,P|386:164|375:118,1,89.9999999999999,2|2,3:0|0:0,0:0:0:0:
375,82,20572,1,8,0:0:0:0:
300,32,20911,2,0,B|263:29|263:29|198:35,1,89.9999999999999,2|8,0:0|0:0,0:0:0:0:
166,42,21419,1,0,0:0:0:0:
122,54,21589,6,0,P|100:97|102:151,1,89.9999999999999,2|8,3:0|0:0,0:0:0:0:
103,228,22267,2,0,L|112:283,1,45,2|2,0:0|0:0,0:0:0:0:
118,316,22606,1,8,0:0:0:0:
198,355,22944,2,0,P|244:373|300:371,1,89.9999999999999,2|8,3:0|0:0,0:0:0:0:
366,336,23622,2,0,L|373:291,1,45,8|2,0:0|0:0,0:0:0:0:
418,292,23961,2,0,L|425:247,1,45,8|2,0:0|0:0,0:0:0:0:
470,247,24300,6,0,L|484:142,1,89.9999999999999,6|8,0:0|0:0,0:0:0:0:
492,68,24978,2,0,L|429:61,1,45,8|2,0:0|0:0,0:0:0:0:
358,81,25487,2,0,B|314:94|314:94|261:88,1,89.9999999999999,2|2,3:0|0:0,0:0:0:0:
225,80,25995,1,8,0:0:0:0:
144,121,26334,2,0,L|133:175,1,45,2|2,0:0|0:0,0:0:0:0:
104,197,26673,2,0,L|115:251,1,45,8|0,0:0|0:0,0:0:0:0:
146,272,27012,6,0,P|186:293|241:294,1,89.9999999999999,6|8,3:0|0:0,0:0:0:0:
319,304,27690,2,0,L|313:353,2,45,2|2|8,0:0|0:0|0:0,0:0:0:0:
340,216,28368,2,0,P|382:221|431:212,1,89.9999999999999,2|8,0:0|0:0,0:0:0:0:
470,195,28877,1,8,0:0:0:0:
495,158,29046,2,0,L|489:54,1,89.9999999999999,2|8,0:0|0:0,0:0:0:0:
405,36,29724,6,0,B|369:28|369:28|299:42,1,89.9999999999999,2|8,3:0|0:0,0:0:0:0:
272,48,30233,1,0,0:0:0:0:
228,58,30402,2,0,L|221:124,1,45,8|2,0:0|0:0,0:0:0:0:
197,189,30911,2,0,P|155:208|99:212,1,89.9999999999999,2|2,3:0|0:0,0:0:0:0:
66,212,31419,1,8,0:0:0:0:
6,279,31758,6,0,B|17:334|50:357|50:357|89:345|139:350,1,180,8|6,3:0|3:0,0:0:0:0:
226,365,32775,1,8,0:0:0:0:
284,296,33114,2,0,L|343:298,2,45,2|2|8,0:0|0:0|0:0,0:0:0:0:
246,270,33622,2,0,P|211:237|193:185,1,89.9999999999999,0|0,0:0|0:0,0:0:0:0:
192,153,34131,2,8,B|153:140|153:140|86:144,2,89.9999999999999,8|2|8,0:0|0:0|0:0,0:0:0:0:
278,178,35148,6,8,B|317:191|317:191|384:187,1,89.9999999999999,6|8,3:0|0:0,0:0:0:0:
455,184,35826,2,0,L|454:81,1,89.9999999999999,2|8,0:0|0:0,0:0:0:0:
425,60,36334,2,8,B|386:47|386:47|319:51,1,89.9999999999999,2|0,3:0|0:0,0:0:0:0:
292,57,36843,1,8,0:0:0:0:
214,102,37182,2,0,L|206:160,1,45,2|2,0:0|0:0,0:0:0:0:
175,178,37521,2,0,L|183:236,1,45,8|0,0:0|0:0,0:0:0:0:
180,267,37860,6,0,P|141:286|81:277,2,89.9999999999999,2|8|0,3:0|0:0|0:0,0:0:0:0:
264,235,38877,2,0,P|346:229|420:297,1,180,8|8,0:0|0:0,0:0:0:0:
503,263,39894,2,0,L|491:161,1,89.9999999999999,2|8,0:0|0:0,0:0:0:0:
470,85,40572,6,0,P|427:68|364:71,1,89.9999999999999,12|8,0:0|3:0,0:0:0:0:
319,130,41250,2,0,P|273:136|220:170,1,89.9999999999999,8|8,3:0|3:0,0:0:0:0:
171,221,41928,1,8,0:0:0:0:
171,221,43283,6,0,L|165:123,1,89.9999999999999,6|8,3:0|0:0,0:0:0:0:
207,51,43961,2,0,B|238:43|238:43|313:49,1,89.9999999999999,2|8,0:0|0:0,0:0:0:0:
340,57,44470,2,0,P|376:80|405:128,1,89.9999999999999,0|0,0:0|0:0,0:0:0:0:
409,163,44978,1,8,0:0:0:0:
416,252,45317,2,0,L|518:258,1,89.9999999999999,2|8,0:0|0:0,0:0:0:0:
498,347,45995,6,0,L|396:341,1,89.9999999999999,2|8,3:0|0:0,0:0:0:0:
318,330,46673,2,0,P|277:303|255:255,1,89.9999999999999,2|8,0:0|0:0,0:0:0:0:
255,222,47182,1,0,0:0:0:0:
259,177,47351,2,0,B|265:131|265:131|256:80,1,89.9999999999999,2|8,3:0|0:0,0:0:0:0:
167,88,48029,2,0,B|161:134|161:134|170:185,1,89.9999999999999,2|8,0:0|0:0,0:0:0:0:
177,266,48707,6,0,P|126:274|82:266,2,89.9999999999999,6|8|2,3:0|0:0|0:0,0:0:0:0:
255,222,49724,2,0,P|306:214|350:222,1,89.9999999999999,8|2,0:0|3:0,0:0:0:0:
422,264,50402,1,8,0:0:0:0:
481,196,50741,2,0,L|475:98,1,89.9999999999999,2|8,0:0|0:0,0:0:0:0:
443,74,51250,6,0,B|400:62|400:62|340:74,1,89.9999999999999,0|0,0:0|0:0,0:0:0:0:
312,85,51758,1,8,0:0:0:0:
246,146,52097,2,0,P|202:152|157:146,1,89.9999999999999,2|8,0:0|0:0,0:0:0:0:
116,124,52606,1,0,0:0:0:0:
73,110,52775,2,0,B|32:135|32:135|14:237,1,135,2|0,3:0|0:0,0:0:0:0:
80,284,53622,2,0,L|66:347,2,45,10|8|8,3:0|3:0|3:0,0:0:0:0:
112,251,54131,6,0,B|146:244|146:244|215:253,1,89.9999999999999,2|8,3:0|0:0,0:0:0:0:
289,267,54809,2,0,P|324:240|345:189,1,89.9999999999999,0|8,3:0|0:0,0:0:0:0:
346,154,55317,1,2,0:0:0:0:
309,71,55656,2,0,L|317:25,2,45,2|8|8,3:0|0:0|0:0,0:0:0:0:
276,103,56165,2,0,P|232:128|174:126,1,89.9999999999999,0|8,3:0|0:0,0:0:0:0:
103,133,56843,6,0,B|101:180|101:180|126:239,1,89.9999999999999,2|8,3:0|0:0,0:0:0:0:
181,283,57521,2,0,L|174:336,2,45,0|0|8,3:0|3:0|0:0,0:0:0:0:
212,251,58029,2,0,B|247:244|247:244|316:249,1,89.9999999999999,2|0,0:0|3:0,0:0:0:0:
391,254,58707,2,0,B|398:219|398:219|393:150,1,89.9999999999999,8|0,0:0|3:0,0:0:0:0:
390,119,59216,1,8,0:0:0:0:
333,48,59555,6,0,P|287:42|236:50,1,89.9999999999999,2|8,3:0|0:0,0:0:0:0:
161,85,60233,2,0,P|115:91|64:83,2,89.9999999999999,2|8|0,0:0|0:0|0:0,0:0:0:0:
244,47,61250,1,8,0:0:0:0:
316,99,61589,2,0,L|313:200,1,89.9999999999999,2|8,0:0|0:0,0:0:0:0:
317,233,62097,6,0,P|346:268|390:292,1,89.9999999999999,0|0,0:0|0:0,0:0:0:0:
427,302,62606,1,8,0:0:0:0:
467,221,62944,2,0,L|470:120,1,89.9999999999999,2|8,0:0|0:0,0:0:0:0:
434,47,63622,2,0,B|395:39|395:39|333:46,1,89.9999999999999,14|8,2:0|0:0,0:0:0:0:
301,57,64131,2,0,B|262:65|262:65|200:58,1,89.9999999999999,2|2,0:0|0:0,0:0:0:0:
167,51,64639,1,8,3:0:0:0:
87,93,64978,6,0,B|72:153|72:153|85:206|85:206|65:288,1,180,6|8,0:0|0:0,0:0:0:0:
117,344,65995,1,2,0:0:0:0:
191,293,66334,2,0,B|249:267|265:318|329:284,2,135,2|2|0,0:0|0:0|0:0,0:0:0:0:
117,344,67690,6,0,P|110:254|179:204,1,180,2|8,0:0|0:0,0:0:0:0:
265,193,68707,1,8,0:0:0:0:
344,234,69046,2,0,B|366:190|341:146|341:146|344:87,2,135,2|2|8,0:0|0:2|0:0,0:0:0:0:
295,309,70402,6,0,P|376:318|434:233,1,180,6|2,3:0|0:0,0:0:0:0:
439,157,71419,1,8,0:0:0:0:
385,84,71758,2,0,B|317:79|317:79|273:89|273:89|198:83,1,180,2|2,3:0|0:0,0:0:0:0:
116,74,72775,1,8,0:0:0:0:
63,146,73114,6,0,P|53:193|61:248,2,89.9999999999999,6|8|2,3:0|0:0|0:0,0:0:0:0:
116,74,74131,1,8,0:0:0:0:
207,84,74470,2,0,B|246:93|274:89|274:89|310:77|344:73,2,135,8|2|2,0:0|0:0|0:0,0:0:0:0:
116,74,75826,5,6,0:0:0:0:
54,190,86673,6,0,L|155:187,1,89.9999999999999,6|2,0:0|0:0,0:0:0:0:
207,123,87351,2,0,L|308:120,1,89.9999999999999,2|2,0:0|0:0,0:0:0:0:
342,123,87860,2,0,P|379:135|418:190,1,89.9999999999999,0|0,0:0|0:0,0:0:0:0:
422,216,88368,1,2,0:0:0:0:
397,302,88707,2,0,B|354:317|354:317|301:311,1,89.9999999999999,2|2,0:0|0:0,0:0:0:0:
266,299,89216,6,0,P|225:286|174:283,1,89.9999999999999,0|0,3:0|0:0,0:0:0:0:
134,291,89724,1,2,0:0:0:0:
84,215,90063,2,0,B|68:177|68:177|78:111,1,89.9999999999999,2|2,0:0|0:0,0:0:0:0:
88,85,90572,2,0,P|126:68|182:70,1,89.9999999999999,0|0,0:0|0:0,0:0:0:0:
217,78,91080,1,2,0:0:0:0:
301,108,91419,2,0,B|324:142|324:142|330:201,1,89.9999999999999,2|2,0:0|0:0,0:0:0:0:
339,234,91928,6,0,P|390:244|445:228,1,89.9999999999999,0|0,3:0|0:0,0:0:0:0:
468,220,92436,1,2,2:0:0:0:
437,135,92775,2,0,P|428:76|455:5,2,135,2|0|2,0:0|3:0|0:0,0:0:0:0:
468,220,94131,2,0,B|475:266|475:266|464:320,1,89.9999999999999,2|2,0:0|0:0,0:0:0:0:
391,359,94809,6,0,P|302:362|253:291,1,180,2|2,0:0|0:0,0:0:0:0:
343,281,95826,1,8,0:0:0:0:
286,210,96165,2,0,P|237:205|187:233,1,89.9999999999999,2|2,0:0|0:0,0:0:0:0:
127,273,96843,6,0,L|132:332,1,45,8|0,0:0|3:0,0:0:0:0:
43,340,97351,2,0,L|34:238,1,89.9999999999999,12|8,0:0|0:0,0:0:0:0:
31,205,97860,1,8,0:0:0:0:
42,115,98199,2,0,P|72:97|146:97,1,89.9999999999999,2|0,0:0|0:0,0:0:0:0:
169,103,98707,2,0,P|199:121|273:121,1,89.9999999999999,8|8,0:0|0:0,0:0:0:0:
297,118,99216,1,2,0:0:0:0:
383,91,99555,6,0,B|399:122|399:122|395:197,1,89.9999999999999,2|2,0:0|0:0,0:0:0:0:
386,221,100063,2,0,P|351:246|301:253,1,89.9999999999999,8|8,0:0|0:0,0:0:0:0:
259,252,100572,1,8,0:0:0:0:
170,233,100911,2,0,L|163:340,1,89.9999999999999,2|2,0:0|0:0,0:0:0:0:
73,318,101589,6,0,L|80:211,1,89.9999999999999,2|2,0:0|0:0,0:0:0:0:
95,139,102267,2,0,P|131:86|246:77,1,180,0|6,3:0|0:0,0:0:0:0:
315,122,103283,1,2,0:0:0:0:
352,203,103622,2,0,L|347:264,1,45,8|8,0:0|0:0,0:0:0:0:
434,275,104131,6,0,L|442:170,1,89.9999999999999,6|2,0:0|0:0,0:0:0:0:
454,95,104809,1,8,0:0:0:0:
454,95,104978,2,0,B|418:69|418:69|355:56,1,89.9999999999999,8|2,0:0|0:0,0:0:0:0:
283,59,105656,2,0,B|238:68|238:68|202:94,1,89.9999999999999,6|2,0:0|0:0,0:0:0:0:
159,173,106334,2,0,L|154:233,1,45,8|8,0:0|0:0,0:0:0:0:
65,228,106843,6,0,L|73:117,1,89.9999999999999,6|2,0:0|0:0,0:0:0:0:
107,55,107521,1,8,0:0:0:0:
107,55,107690,2,0,P|155:58|200:44,1,89.9999999999999,8|8,0:0|0:0,0:0:0:0:
284,35,108368,2,0,B|337:33|337:33|370:45|370:45|410:24|475:55,1,180,4|2,3:0|0:0,0:0:0:0:
492,78,109216,1,8,3:0:0:0:
485,167,109555,6,0,B|459:214|459:214|474:315,1,135,6|8,0:0|0:0,0:0:0:0:
386,325,110402,2,0,L|392:369,2,45,2|2|8,0:0|0:0|0:0,0:0:0:0:
326,256,111080,2,0,B|283:242|283:242|231:246,1,89.9999999999999,2|8,3:0|0:0,0:0:0:0:
149,262,111758,2,0,L|141:318,2,45,2|2|8,0:0|0:0|0:0,0:0:0:0:
164,173,112436,6,0,P|179:135|230:100,1,89.9999999999999,2|8,0:0|0:0,0:0:0:0:
260,96,112944,1,8,0:0:0:0:
305,94,113114,2,0,L|301:35,2,45,2|2|8,0:0|0:0|0:0,0:0:0:0:
322,182,113792,2,0,B|375:195|408:171|408:171|458:193|464:240,1,180,0|8,3:0|0:0,0:0:0:0:
468,281,114639,1,2,0:0:0:0:
415,353,114978,6,0,B|369:361|369:361|269:342,1,135,2|8,3:0|0:0,0:0:0:0:
193,327,115826,2,0,L|183:381,2,45,2|2|8,0:0|0:0|0:0,0:0:0:0:
195,236,116504,2,0,P|147:215|110:217,1,89.9999999999999,2|8,3:0|0:0,0:0:0:0:
23,240,117182,2,0,L|16:292,2,45,2|0|8,0:0|0:0|0:0,0:0:0:0:
37,150,117860,6,0,P|55:112|108:76,1,89.9999999999999,2|8,3:0|0:0,0:0:0:0:
134,68,118368,1,8,0:0:0:0:
178,64,118538,2,0,B|213:69|213:69|271:63,1,89.9999999999999,2|8,0:0|0:0,0:0:0:0:
357,58,119216,2,0,P|395:76|431:129,1,89.9999999999999,6|8,3:0|0:0,0:0:0:0:
426,202,119894,2,0,B|426:246|426:246|412:304,1,89.9999999999999,2|8,0:0|0:0,0:0:0:0:
389,328,120402,6,0,L|295:321,1,89.9999999999999,2|0,0:0|0:0,0:0:0:0:
253,319,120911,1,8,0:0:0:0:
165,297,121250,2,0,L|160:242,1,45,2|2,0:0|0:0,0:0:0:0:
129,220,121589,2,0,L|134:165,1,45,8|0,0:0|0:0,0:0:0:0:
164,143,121928,6,0,P|206:146|265:140,2,89.9999999999999,6|8|0,3:0|0:0|0:0,0:0:0:0:
84,99,122944,2,0,B|55:135|55:135|40:277,1,180,8|8,0:0|0:0,0:0:0:0:
64,355,123961,2,0,P|105:367|157:359,1,89.9999999999999,2|8,0:0|0:0,0:0:0:0:
221,304,124639,6,0,L|321:309,1,89.9999999999999,12|8,0:0|3:0,0:0:0:0:
310,218,125317,2,0,L|410:223,1,89.9999999999999,8|8,3:0|3:0,0:0:0:0:
399,132,125995,1,8,0:0:0:0:
399,132,127351,6,0,L|399:223,1,89.9999999999999,6|8,3:0|0:0,0:0:0:0:
369,307,128029,2,0,P|333:339|278:352,1,89.9999999999999,2|8,0:0|0:0,0:0:0:0:
248,351,128538,2,0,P|205:336|172:306,1,89.9999999999999,0|0,0:0|0:0,0:0:0:0:
151,266,129046,1,8,0:0:0:0:
129,178,129385,2,0,L|23:182,1,89.9999999999999,2|8,0:0|0:0,0:0:0:0:
38,91,130063,6,0,L|144:87,1,89.9999999999999,2|8,3:0|0:0,0:0:0:0:
218,91,130741,2,0,P|255:115|278:168,1,89.9999999999999,2|8,0:0|0:0,0:0:0:0:
280,199,131250,1,0,0:0:0:0:
283,243,131419,2,0,B|330:255|330:255|387:253,1,89.9999999999999,2|8,3:0|0:0,0:0:0:0:
364,165,132097,2,0,B|317:153|317:153|260:155,1,89.9999999999999,2|8,0:0|0:0,0:0:0:0:
191,187,132775,6,0,P|176:230|189:293,2,89.9999999999999,6|8|2,3:0|0:0|0:0,0:0:0:0:
276,155,133792,2,0,P|291:112|278:49,1,89.9999999999999,8|2,0:0|3:0,0:0:0:0:
208,22,134470,1,8,0:0:0:0:
118,23,134809,2,0,B|83:52|83:52|70:100,1,89.9999999999999,2|8,0:0|0:0,0:0:0:0:
73,140,135317,2,0,B|77:185|77:185|52:228,1,89.9999999999999,2|0,0:0|0:0,0:0:0:0:
26,258,135826,1,8,0:0:0:0:
52,343,136165,2,0,P|93:351|144:341,1,89.9999999999999,2|8,0:0|0:0,0:0:0:0:
217,295,136843,5,4,3:0:0:0:
282,79,137690,2,0,L|275:22,2,45,0|0|0,3:0|3:0|3:0,0:0:0:0:
295,122,138199,6,0,P|337:137|395:134,1,89.9999999999999,2|8,3:0|0:0,0:0:0:0:
472,133,138877,2,0,L|464:235,1,89.9999999999999,0|8,3:0|0:0,0:0:0:0:
456,266,139385,2,0,B|414:290|414:290|353:293,1,89.9999999999999,2|2,0:0|0:0,0:0:0:0:
327,295,139894,2,0,L|319:344,2,45,8|8|0,0:0|0:0|3:0,0:0:0:0:
338,205,140572,1,8,0:0:0:0:
299,123,140911,6,0,P|252:109|209:115,1,89.9999999999999,4|8,3:0|0:0,0:0:0:0:
122,125,141589,2,0,L|102:80,2,45,0|0|8,3:0|3:0|0:0,0:0:0:0:
133,168,142097,2,0,B|137:212|137:212|129:264,1,89.9999999999999,2|2,0:0|0:0,0:0:0:0:
143,346,142775,2,0,P|189:361|236:354,1,89.9999999999999,10|2,0:0|0:0,0:0:0:0:
273,344,143283,1,8,0:0:0:0:
322,268,143622,6,0,L|313:169,1,89.9999999999999,4|8,3:0|0:0,0:0:0:0:
299,89,144300,2,0,P|340:78|391:82,2,89.9999999999999,0|8|4,3:0|0:0|3:0,0:0:0:0:
228,145,145317,1,8,0:0:0:0:
187,225,145656,2,0,P|196:273|187:327,1,89.9999999999999,0|8,3:0|0:0,0:0:0:0:
161,347,146165,6,0,B|114:355|114:355|59:346,1,89.9999999999999,0|0,0:0|0:0,0:0:0:0:
27,340,146673,1,8,0:0:0:0:
22,250,147012,2,0,P|21:203|27:147,1,89.9999999999999,0|8,3:0|0:0,0:0:0:0:
75,85,147690,2,0,P|116:73|175:82,1,89.9999999999999,0|8,0:0|0:0,0:0:0:0:
204,94,148199,2,0,P|245:106|304:97,1,89.9999999999999,0|0,3:0|3:0,0:0:0:0:
332,82,148707,1,0,3:0:0:0:
416,50,149046,6,0,P|459:78|458:203,1,180,4|8,0:0|0:0,0:0:0:0:
390,249,150063,1,0,0:0:0:0:
313,295,150402,2,0,P|375:338|441:323,2,135,2|2|0,0:0|0:0|0:0,0:0:0:0:
233,251,151758,6,0,B|186:235|146:260|146:260|98:262|62:213,1,180,6|8,0:0|0:0,0:0:0:0:
44,134,152775,1,8,0:0:0:0:
128,101,153114,2,0,P|79:50|13:48,2,135,2|2|8,0:0|0:0|0:0,0:0:0:0:
195,160,154470,6,0,B|255:167|255:167|298:145|298:145|377:153,1,180,6|2,3:0|0:0,0:0:0:0:
458,159,155487,1,8,0:0:0:0:
485,244,155826,2,0,P|470:308|367:342,1,180,2|2,3:0|0:0,0:0:0:0:
396,256,156843,1,8,0:0:0:0:
308,236,157182,6,0,B|262:235|262:235|205:250,1,89.9999999999999,4|8,3:0|0:0,0:0:0:0:
176,260,157690,1,8,0:0:0:0:
131,269,157860,2,0,P|91:254|53:209,1,89.9999999999999,2|8,0:0|0:0,0:0:0:0:
50,130,158538,2,0,B|52:84|52:84|74:36,1,89.9999999999999,8|8,0:0|0:0,0:0:0:0:
160,45,159216,2,0,P|201:60|246:57,1,89.9999999999999,8|8,0:0|3:0,0:0:0:0:
291,54,159724,1,8,3:0:0:0:
334,41,159894,6,0,P|378:36|420:51,1,89.9999999999999,4|8,3:0|0:0,0:0:0:0:
460,132,160572,2,0,B|468:177|468:177|462:230,1,89.9999999999999,8|8,0:0|0:0,0:0:0:0:
441,260,161080,2,0,P|397:265|355:250,1,89.9999999999999,2|2,0:0|0:0,0:0:0:0:
313,229,161589,1,8,0:0:0:0:
239,177,161928,2,0,P|223:223|238:282,1,89.9999999999999,8|8,0:0|0:0,0:0:0:0:
237,307,162436,1,2,0:0:0:0:
267,340,162606,6,0,B|311:351|311:351|366:338,1,89.9999999999999,8|8,0:0|0:0,0:0:0:0:
400,263,163283,2,0,B|412:200|412:200|396:158|396:158|412:81,1,180,8|0,0:0|0:0,0:0:0:0:
346,24,164300,2,0,L|292:31,1,45,8|6,0:0|0:0,0:0:0:0:
258,44,164639,2,0,P|240:78|245:132,1,89.9999999999999,0|8,0:0|0:0,0:0:0:0:
231,217,165317,6,0,L|127:211,1,89.9999999999999,8|8,0:0|0:0,0:0:0:0:
133,301,165995,2,0,L|237:307,1,89.9999999999999,8|8,0:0|0:0,0:0:0:0:
268,304,166504,2,0,P|306:279|331:225,1,89.9999999999999,2|2,0:0|0:0,0:0:0:0:
339,197,167012,1,8,0:0:0:0:
382,118,167351,2,0,L|483:114,1,89.9999999999999,8|8,0:0|0:0,0:0:0:0:
462,24,168029,6,0,L|361:28,1,89.9999999999999,8|8,0:0|0:0,0:0:0:0:
282,35,168707,2,0,P|241:56|209:106,1,89.9999999999999,8|8,0:0|0:0,0:0:0:0:
199,133,169216,2,0,B|152:139|152:139|95:130,1,89.9999999999999,6|2,0:0|0:0,0:0:0:0:
65,121,169724,1,8,0:0:0:0:
18,197,170063,2,0,P|6:243|22:300,1,89.9999999999999,0|8,0:0|0:0,0:0:0:0:
78,346,170741,6,0,B|157:381|212:347|265:312|353:356,1,270,12|8,0:0|0:0,0:0:0:0:
431,358,172097,2,0,B|443:315|443:315|438:253,1,89.9999999999999,8|8,0:0|0:0,0:0:0:0:
405,186,172775,2,0,B|362:174|362:174|300:179,1,89.9999999999999,8|8,0:0|0:0,0:0:0:0:
228,194,173453,5,8,0:0:0:0:
142,165,173792,2,0,P|138:118|146:70,2,89.9999999999999,8|8|8,0:0|0:0|0:0,0:0:0:0:
159,253,174809,2,0,P|163:300|155:348,1,89.9999999999999,8|8,0:0|0:0,0:0:0:0:
246,353,175487,2,0,B|282:347|282:347|342:352,1,89.9999999999999,8|8,0:0|0:0,0:0:0:0:
380,352,175995,6,0,P|417:326|432:280,1,89.9999999999999,2|2,0:0|0:0,0:0:0:0:
424,240,176504,1,8,0:0:0:0:
412,196,176673,2,0,B|410:151|410:151|417:98,1,89.9999999999999,2|2,0:0|0:0,0:0:0:0:
329,80,177351,2,0,B|331:125|331:125|324:178,1,89.9999999999999,2|2,0:0|0:0,0:0:0:0:
320,214,177860,1,8,0:0:0:0:
300,254,178029,2,0,P|252:270|204:266,1,89.9999999999999,2|2,0:0|0:0,0:0:0:0:
124,252,178707,1,2,0:0:0:0:
124,252,178877,6,0,B|110:208|110:208|115:149,1,89.9999999999999,12|8,0:0|0:0,0:0:0:0:
163,88,179555,2,0,B|207:74|207:74|266:79,1,89.9999999999999,12|8,0:0|0:0,0:0:0:0:
340,89,180233,2,0,B|391:149|356:204|356:204|378:248|378:248|370:302|316:317,1,270,4|0,0:0|3:0,0:0:0:0:
230,311,181589,6,0,B|183:306|183:306|128:313,1,89.9999999999999,4|8,3:0|0:0,0:0:0:0:
61,268,182267,2,0,P|48:225|61:166,1,89.9999999999999,2|8,0:0|0:0,0:0:0:0:
71,139,182775,2,0,B|113:122|113:122|168:119,1,89.9999999999999,0|0,0:0|0:0,0:0:0:0:
202,122,183283,1,8,0:0:0:0:
291,125,183622,2,0,P|297:70|294:24,1,89.9999999999999,2|8,0:0|0:0,0:0:0:0:
385,41,184300,6,0,P|379:96|382:142,1,89.9999999999999,4|8,3:0|0:0,0:0:0:0:
388,175,184809,2,0,B|396:219|396:219|390:282,1,89.9999999999999,2|2,0:0|0:0,0:0:0:0:
386,308,185317,1,8,0:0:0:0:
308,354,185656,2,0,P|262:360|213:353,1,89.9999999999999,2|8,3:0|0:0,0:0:0:0:
176,338,186165,2,0,L|168:243,1,89.9999999999999,0|2,0:0|0:0,0:0:0:0:
166,203,186673,1,8,0:0:0:0:
165,113,187012,6,0,B|206:108|206:108|268:119,1,89.9999999999999,4|8,3:0|0:0,0:0:0:0:
343,123,187690,2,0,P|350:75|345:25,2,89.9999999999999,2|8|2,0:0|0:0|3:0,0:0:0:0:
292,197,188707,1,8,0:0:0:0:
355,260,189046,2,0,P|403:267|453:262,1,89.9999999999999,2|8,0:0|0:0,0:0:0:0:
485,245,189555,2,0,L|490:147,1,89.9999999999999,0|0,0:0|0:0,0:0:0:0:
492,110,190063,1,8,0:0:0:0:
436,38,190402,6,0,P|388:31|338:36,1,89.9999999999999,2|8,0:0|0:0,0:0:0:0:
302,46,190911,1,0,0:0:0:0:
260,61,191080,2,0,B|214:73|174:53|174:53|112:67,2,135,4|10|8,3:0|0:0|0:0,0:0:0:0:
346,34,192436,6,0,P|372:72|377:124,1,89.9999999999999,4|8,3:0|0:0,0:0:0:0:
358,202,193114,2,0,B|349:245|349:245|358:296,1,89.9999999999999,2|8,0:0|0:0,0:0:0:0:
360,335,193622,2,0,P|328:360|275:363,1,89.9999999999999,0|0,0:0|0:0,0:0:0:0:
235,356,194131,1,8,0:0:0:0:
177,286,194470,2,0,B|131:280|131:280|79:287,1,89.9999999999999,2|8,0:0|0:0,0:0:0:0:
20,226,195148,6,0,P|11:182|26:124,1,89.9999999999999,4|8,3:0|0:0,0:0:0:0:
63,59,195826,2,0,L|163:55,1,89.9999999999999,2|8,0:0|0:0,0:0:0:0:
197,60,196334,2,0,B|241:76|241:76|274:128,1,89.9999999999999,2|0,0:0|0:0,0:0:0:0:
281,154,196843,1,8,0:0:0:0:
295,242,197182,2,0,P|341:249|395:237,1,89.9999999999999,2|8,0:0|0:0,0:0:0:0:
424,222,197690,1,0,0:0:0:0:
461,196,197860,6,0,L|451:94,1,89.9999999999999,4|8,3:0|0:0,0:0:0:0:
386,44,198538,2,0,P|340:37|286:49,1,89.9999999999999,2|8,0:0|0:0,0:0:0:0:
231,106,199216,2,0,B|184:124|145:104|145:104|98:80|50:113,1,180,2|2,3:0|0:0,0:0:0:0:
0,177,200233,1,8,0:0:0:0:
50,251,200572,6,0,L|35:353,1,89.9999999999999,4|8,3:0|0:0,0:0:0:0:
126,354,201250,2,0,L|141:252,1,89.9999999999999,2|8,0:0|0:0,0:0:0:0:
163,178,201928,2,0,P|205:171|257:185,1,89.9999999999999,2|2,0:0|0:0,0:0:0:0:
294,193,202436,2,0,P|336:200|388:186,1,89.9999999999999,8|8,0:0|3:0,0:0:0:0:
416,161,202944,1,8,3:0:0:0:
402,72,203283,6,0,B|319:35|299:105|212:66,1,180,6|8,0:0|0:0,0:0:0:0:
139,46,204300,1,0,0:0:0:0:
77,111,204639,2,0,B|65:159|65:159|74:191|74:191|66:256,2,135,2|2|2,0:0|0:0|0:0,0:0:0:0:
139,46,205995,6,0,P|198:33|280:129,1,180,6|8,0:0|0:0,0:0:0:0:
293,197,207012,1,8,0:0:0:0:
296,286,207351,2,0,P|350:264|379:178,2,135,2|2|8,0:0|0:0|0:0,0:0:0:0:
208,263,208707,6,0,B|162:245|121:273|121:273|65:275|28:227,1,180,4|2,3:0|0:0,0:0:0:0:
1,160,209724,1,8,0:0:0:0:
43,80,210063,2,0,B|86:65|86:65|146:68,1,89.9999999999999,4|8,3:0|0:0,0:0:0:0:
175,74,210572,1,2,0:0:0:0:
219,79,210741,2,0,B|262:94|262:94|322:91,1,89.9999999999999,2|8,0:0|0:0,0:0:0:0:
396,83,211419,6,0,P|416:127|412:180,1,89.9999999999999,4|8,3:0|0:0,0:0:0:0:
407,212,211928,1,8,0:0:0:0:
392,254,212097,2,0,P|372:298|376:351,1,89.9999999999999,2|8,0:0|0:0,0:0:0:0:
283,325,212775,2,0,B|235:316|235:316|137:328,2,135,8|2|8,0:0|0:0|0:0,0:0:0:0:
372,338,214131,6,0,P|421:328|461:288,1,89.9999999999999,6|8,3:0|0:0,0:0:0:0:
472,263,214639,1,8,0:0:0:0:
481,218,214809,2,0,L|468:119,1,89.9999999999999,2|8,0:0|0:0,0:0:0:0:
416,55,215487,2,0,B|370:46|370:46|308:51,1,89.9999999999999,0|8,0:0|0:0,0:0:0:0:
282,57,215995,1,8,0:0:0:0:
237,65,216165,2,0,P|210:93|195:148,1,89.9999999999999,2|8,0:0|0:0,0:0:0:0:
169,227,216843,6,0,B|122:216|122:216|71:218,2,89.9999999999999,2|8|0,3:0|0:0|0:0,0:0:0:0:
255,252,217860,2,0,P|341:227|370:149,1,180,8|8,0:0|0:0,0:0:0:0:
358,104,218707,1,8,0:0:0:0:
330,67,218877,2,0,B|285:58|285:58|227:67,1,89.9999999999999,2|8,0:0|0:0,0:0:0:0:
157,97,219555,6,0,P|130:129|125:186,1,89.9999999999999,4|8,3:0|0:0,0:0:0:0:
125,220,220063,1,8,0:0:0:0:
129,264,220233,2,0,L|21:277,1,89.9999999999999,2|8,0:0|0:0,0:0:0:0:
70,359,220911,2,0,L|178:346,1,89.9999999999999,0|8,0:0|0:0,0:0:0:0:
204,343,221419,1,8,0:0:0:0:
248,334,221589,2,0,P|275:302|280:245,1,89.9999999999999,2|8,0:0|0:0,0:0:0:0:
274,165,222267,6,0,B|317:159|317:159|364:167,1,89.9999999999999,2|8,3:0|0:0,0:0:0:0:
407,174,222775,1,8,0:0:0:0:
451,181,222944,2,0,P|472:143|471:89,1,89.9999999999999,2|8,0:0|0:0,0:0:0:0:
403,40,223622,2,0,B|301:48,1,89.9999999999999,0|8,0:0|0:0,0:0:0:0:
270,61,224131,2,0,P|235:86|176:95,1,89.9999999999999,0|0,0:0|0:0,0:0:0:0:
144,95,224639,1,8,0:0:0:0:
62,133,224978,6,0,P|26:220|84:291,1,180,6|0,3:0|3:0,0:0:0:0:
116,206,225995,1,8,0:0:0:0:
178,141,226334,2,0,B|239:135|239:135|292:152|292:152|370:144,1,180,0|0,0:0|3:0,0:0:0:0:
444,134,227351,1,8,0:0:0:0:
499,204,227690,6,0,P|503:251|491:302,1,89.9999999999999,2|8,0:0|0:0,0:0:0:0:
470,331,228199,1,8,0:0:0:0:
434,358,228368,2,0,B|387:365|387:365|332:356,1,89.9999999999999,0|8,3:0|0:0,0:0:0:0:
266,314,229046,2,0,B|207:338|181:296|119:327,2,135,0|8|8,0:0|0:0|0:0,0:0:0:0:
332,252,230402,6,0,B|339:207|339:207|332:160,1,89.9999999999999,2|8,0:0|0:0,0:0:0:0:
323,118,230911,1,8,0:0:0:0:
299,80,231080,2,0,P|250:69|200:72,1,89.9999999999999,0|8,3:0|0:0,0:0:0:0:
125,100,231758,2,0,B|96:135|96:135|79:179,1,89.9999999999999,0|8,0:0|0:0,0:0:0:0:
66,220,232267,1,8,0:0:0:0:
67,265,232436,2,0,P|103:299|148:321,1,89.9999999999999,0|8,3:0|0:0,0:0:0:0:
227,334,233114,5,8,0:0:0:0:
316,325,233453,1,8,0:0:0:0:
392,278,233792,1,8,0:0:0:0:
419,192,234131,1,8,0:0:0:0:
399,104,234470,2,0,B|367:47|367:47|299:37|254:77,1,180,0|0,3:0|0:0,0:0:0:0:
197,139,235487,1,8,0:0:0:0:
180,227,235826,5,0,0:0:0:0:
317,342,236504,2,0,B|408:373|408:314|499:344,2,180,0|0|0,0:0|0:0|0:0,0:0:0:0:
178,226,238538,5,0,0:0:0:0:
322,119,239216,2,0,P|383:94|486:137,2,180,0|0|0,0:0|0:0|0:0,0:0:0:0:
178,226,241250,5,0,0:0:0:0:
357,234,241928,2,0,P|429:283|465:379,2,180,0|0|0,0:0|0:0|0:0,0:0:0:0:
178,226,243961,5,0,0:0:0:0:
256,192,244131,12,0,249385,0:0:0:0:
