osu file format v14

[General]
AudioFilename: audio.mp3
AudioLeadIn: 0
PreviewTime: 127348
Countdown: 0
SampleSet: Soft
StackLeniency: 0.7
Mode: 0
LetterboxInBreaks: 0
WidescreenStoryboard: 0

[Editor]
DistanceSpacing: 1.1
BeatDivisor: 4
GridSize: 32
TimelineZoom: 1.6

[Metadata]
Title:Kimi ni Pierrot
TitleUnicode:Kimi ni Pierrot
Artist:LiSA
ArtistUnicode:LiSA
Creator:Onlybiscuit
Version:old
Source:
Tags:
BeatmapID:1748814
BeatmapSetID:834914

[Difficulty]
HPDrainRate:5
CircleSize:3.8
OverallDifficulty:9.4
ApproachRate:9.4
SliderMultiplier:1.77
SliderTickRate:1

[Events]
//Background and Video events
0,0,"cropped-1366-768-918716.jpg",0,0
//Break Periods
//Storyboard Layer 0 (Background)
//Storyboard Layer 1 (Fail)
//Storyboard Layer 2 (Pass)
//Storyboard Layer 3 (Foreground)
//Storyboard Sound Samples

[TimingPoints]
2603,338.983050847458,4,2,0,65,1,0
2603,-125,4,2,0,65,0,0
10738,-111.111111111111,4,2,0,65,0,0
12772,-166.666666666666,4,2,0,65,0,0
13450,-100,4,2,0,65,0,0
42094,-125,4,2,0,65,0,0
42941,-90.9090909090909,4,2,0,65,0,0
43280,-76.9230769230769,4,2,0,65,0,1
64975,-90.9090909090909,4,2,0,65,0,0
75823,-83.3333333333333,4,2,0,65,0,0
87009,-111.111111111111,4,2,0,65,0,0
97348,-90.9090909090908,4,2,0,65,0,0
97857,-111.111111111111,4,2,0,65,0,0
98704,-90.9090909090908,4,2,0,65,0,0
99213,-111.111111111111,4,2,0,65,0,0
100060,-90.9090909090908,4,2,0,65,0,0
100569,-111.111111111111,4,2,0,65,0,0
101586,-99.9999999999999,4,2,0,65,0,0
109552,-90.9090909090909,4,2,0,65,0,0
126162,-125,4,2,0,65,0,0
127009,-90.9090909090909,4,2,0,65,0,0
127348,-76.9230769230769,4,2,0,65,0,1
149043,-90.9090909090909,4,2,0,65,0,0
176162,-90.9090909090909,4,2,0,65,0,1
181586,-71.4285714285714,4,2,0,65,0,1
203280,-90.9090909090909,4,2,0,65,0,0
235145,-125,4,2,0,65,0,0
236501,-250,4,2,0,65,0,0

[Colours]
Combo1 : 240,240,240
Combo2 : 255,128,192
Combo3 : 128,255,255
Combo4 : 128,255,128

[HitObjects]
207,58,2603,6,0,P|169:50|123:53,1,70.8
15,97,2941,2,0,B|85:88|58:153|146:141,1,141.6
274,112,3450,2,0,P|290:71|287:29,1,70.8
207,58,3789,1,0,0:0:0:0:
369,9,3958,6,0,L|379:165,1,141.6
476,284,4467,2,0,P|425:236|346:234,1,141.6
333,368,4975,2,0,P|364:353|386:325,1,70.8
269,189,5314,6,0,B|189:176|209:230|127:215,1,141.6
88,133,5823,1,0,0:0:0:0:
55,283,5992,2,0,P|38:244|33:201,1,70.8
134,359,6331,2,0,P|151:320|156:277,1,70.8
333,368,6670,6,0,L|491:359,1,141.6
512,265,7179,1,0,0:0:0:0:
357,207,7348,2,0,P|316:195|278:195,1,70.8
444,134,7687,2,0,P|485:122|523:122,1,70.8
251,62,8026,6,0,B|241:130|299:122|288:194,1,141.6
176,248,8535,2,0,P|185:208|211:175,1,70.8
258,285,8874,2,0,P|276:314|283:349,1,70.8
186,350,9213,1,0,0:0:0:0:
63,182,9382,6,0,P|119:169|214:189,1,141.6
28,256,9891,2,0,L|21:114,1,141.6
63,21,10399,1,0,0:0:0:0:
134,135,10569,1,0,0:0:0:0:
290,40,10738,6,0,B|372:31|339:92|442:84,1,159.29999513855
416,0,11247,1,0,0:0:0:0:
296,124,11416,2,0,P|305:163|328:196,1,79.649997569275
187,48,11755,2,0,P|177:86|155:119,1,79.649997569275
28,256,12094,6,0,P|72:224|190:236,1,159.29999513855
256,280,12603,1,0,0:0:0:0:
145,356,12772,2,0,P|126:337|115:314,2,53.0999983795166
173,226,13280,1,0,0:0:0:0:
341,331,13450,6,0,B|439:329|404:396|530:365,2,177
248,258,14297,1,0,0:0:0:0:
378,141,14467,1,0,0:0:0:0:
424,250,14636,1,0,0:0:0:0:
233,157,14806,6,0,P|191:145|131:149,1,88.5
382,39,15145,2,0,P|424:27|484:31,1,88.5
311,111,15484,2,0,P|286:60|288:0,1,88.5
146,145,15823,1,0,0:0:0:0:
196,52,15992,1,0,0:0:0:0:
0,198,16162,6,0,B|101:182|62:255|172:241,1,177
241,178,16670,1,0,0:0:0:0:
341,350,16840,1,0,0:0:0:0:
384,200,17009,1,0,0:0:0:0:
240,358,17179,1,0,0:0:0:0:
164,241,17348,1,0,0:0:0:0:
382,181,17518,6,0,P|426:167|497:170,1,88.5
255,354,17857,2,0,L|240:169,1,177
302,104,18365,1,0,0:0:0:0:
120,37,18535,2,0,P|73:40|14:56,1,88.5
304,12,18874,6,0,P|363:39|373:156,2,177
189,65,19721,1,0,0:0:0:0:
319,228,19891,1,0,0:0:0:0:
227,156,20060,6,0,B|141:145|157:214|45:190,1,177
251,354,20569,1,0,0:0:0:0:
334,231,20738,1,0,0:0:0:0:
428,365,20908,1,0,0:0:0:0:
258,270,21077,1,0,0:0:0:0:
446,147,21247,1,0,0:0:0:0:
307,107,21416,1,0,0:0:0:0:
416,245,21586,6,0,L|425:45,2,177
336,335,22433,1,0,0:0:0:0:
211,161,22603,1,0,0:0:0:0:
124,288,22772,1,0,0:0:0:0:
306,206,22941,5,0,0:0:0:0:
138,76,23111,1,0,0:0:0:0:
102,286,23280,2,0,P|98:236|90:197,1,88.5
210,32,23619,5,0,0:0:0:0:
293,230,23789,1,0,0:0:0:0:
389,8,23958,5,0,0:0:0:0:
306,206,24128,1,0,0:0:0:0:
195,16,24297,5,0,0:0:0:0:
358,105,24467,1,0,0:0:0:0:
165,183,24636,2,0,P|120:183|73:178,1,88.5
54,162,24891,1,0,0:0:0:0:
54,162,24975,1,0,0:0:0:0:
230,328,25145,1,0,0:0:0:0:
230,328,25484,6,0,B|324:302|307:374|405:355,1,177
236,239,25992,2,0,P|177:254|150:285,1,88.5
302,161,26331,1,0,0:0:0:0:
368,266,26501,1,0,0:0:0:0:
435,129,26670,2,0,P|494:144|521:175,1,88.5
274,50,27009,2,0,P|186:42|96:36,2,177
386,27,27857,1,0,0:0:0:0:
216,190,28026,1,0,0:0:0:0:
279,69,28196,5,0,0:0:0:0:
341,272,28365,1,0,0:0:0:0:
130,244,28535,1,0,0:0:0:0:
309,157,28704,1,0,0:0:0:0:
183,335,28874,1,0,0:0:0:0:
283,169,29043,5,0,0:0:0:0:
368,337,29213,1,0,0:0:0:0:
209,136,29382,1,0,0:0:0:0:
154,344,29552,1,0,0:0:0:0:
58,145,29721,6,0,P|51:95|37:51,1,88.5
182,243,30060,2,0,P|189:193|203:149,1,88.5
209,136,30314,1,0,0:0:0:0:
209,136,30399,1,0,0:0:0:0:
60,340,30569,1,0,0:0:0:0:
60,340,30908,6,0,L|48:137,1,177
169,323,31416,1,0,0:0:0:0:
250,210,31586,1,0,0:0:0:0:
346,349,31755,2,0,P|371:340|390:342,1,44.25
457,269,31925,2,0,P|478:287|490:303,1,44.25
344,245,32094,2,0,P|357:227|375:213,1,44.25
448,130,32264,2,0,P|466:144|480:162,1,44.25
334,138,32433,6,0,B|223:129|274:192|165:179,2,177
405,56,33280,1,0,0:0:0:0:
184,100,33450,1,0,0:0:0:0:
305,15,33619,1,0,0:0:0:0:
311,225,33789,5,0,0:0:0:0:
205,101,33958,1,0,0:0:0:0:
116,311,34128,1,0,0:0:0:0:
285,139,34297,1,0,0:0:0:0:
68,155,34467,5,0,0:0:0:0:
218,242,34636,1,0,0:0:0:0:
32,331,34806,1,0,0:0:0:0:
146,192,34975,1,0,0:0:0:0:
278,346,35145,6,0,P|359:323|449:354,2,177
124,276,35992,1,0,0:0:0:0:
298,172,36162,1,0,0:0:0:0:
137,86,36331,6,0,L|148:280,1,177
308,156,36840,2,0,P|355:145|407:146,1,88.5
209,77,37179,1,0,0:0:0:0:
293,237,37348,1,0,0:0:0:0:
421,40,37518,1,0,0:0:0:0:
497,163,37687,1,0,0:0:0:0:
276,21,37857,6,0,B|179:19|226:86|107:72,1,177
20,18,38365,1,0,0:0:0:0:
159,165,38535,1,0,0:0:0:0:
140,0,38704,1,0,0:0:0:0:
2,212,38874,1,0,0:0:0:0:
114,72,39043,6,0,P|124:148|133:250,1,177
277,89,39552,2,0,P|273:137|271:192,1,88.5
394,66,39891,1,0,0:0:0:0:
450,191,40060,1,0,0:0:0:0:
256,73,40230,1,0,0:0:0:0:
182,199,40399,1,0,0:0:0:0:
494,108,40569,5,0,0:0:0:0:
162,65,40908,1,0,0:0:0:0:
249,282,41077,1,0,0:0:0:0:
368,93,41247,1,0,0:0:0:0:
74,157,41416,1,0,0:0:0:0:
404,318,41586,1,0,0:0:0:0:
251,38,41755,1,0,0:0:0:0:
154,339,41925,5,0,0:0:0:0:
239,262,42094,2,0,P|296:244|389:257,2,141.6
16,108,42941,2,0,P|68:123|97:205,1,146.025004456329
24,266,43280,6,0,P|75:230|154:225,1,115.049994733429
358,137,43619,2,0,P|307:101|228:96,1,115.049994733429
227,261,43958,2,0,B|226:132|148:173|156:30,1,230.099989466858
74,171,44467,1,0,0:0:0:0:
229,15,44636,5,0,0:0:0:0:
371,158,44806,2,0,P|389:215|400:277,1,115.049994733429
244,90,45145,2,0,P|226:147|215:209,1,115.049994733429
44,241,45484,1,0,0:0:0:0:
159,69,45653,1,0,0:0:0:0:
35,26,45823,1,0,0:0:0:0:
61,233,45992,6,0,P|175:265|226:357,1,230.099989466858
100,350,46501,1,0,0:0:0:0:
245,205,46670,1,0,0:0:0:0:
323,330,46840,1,0,0:0:0:0:
428,146,47009,1,0,0:0:0:0:
472,353,47179,6,0,P|483:295|513:243,1,115.049994733429
300,321,47518,2,0,P|289:265|261:215,1,115.049994733429
421,164,47857,1,0,0:0:0:0:
286,77,48026,1,0,0:0:0:0:
442,0,48196,2,0,P|469:50|480:106,1,115.049994733429
402,189,48535,1,0,0:0:0:0:
269,56,48704,6,0,P|208:38|134:47,1,115.049994733429
22,188,49043,2,0,B|156:164|99:234|252:222,1,230.099989466858
200,126,49552,1,0,0:0:0:0:
292,340,49721,1,0,0:0:0:0:
154,247,49891,1,0,0:0:0:0:
340,151,50060,6,0,P|427:174|485:300,2,230.099989466858
243,222,50908,1,0,0:0:0:0:
133,90,51077,2,0,P|54:77|3:85,1,115.049994733429
296,20,51416,5,0,0:0:0:0:
164,104,51586,1,0,0:0:0:0:
335,254,51755,2,0,L|316:13,1,230.099989466858
209,233,52264,1,0,0:0:0:0:
441,342,52433,1,0,0:0:0:0:
283,139,52603,1,0,0:0:0:0:
144,317,52772,6,0,B|279:303|223:399|382:364,1,230.099989466858
373,146,53280,2,0,P|342:218|334:261,1,115.049994733429
210,88,53619,1,0,0:0:0:0:
192,233,53789,1,0,0:0:0:0:
65,90,53958,1,0,0:0:0:0:
44,304,54128,6,0,B|35:238|0:182,1,115.049994733429
194,82,54467,1,0,0:0:0:0:
15,87,54636,1,0,0:0:0:0:
210,131,54806,2,0,P|257:118|349:125,1,115.049994733429
103,35,55145,1,0,0:0:0:0:
77,230,55314,6,0,P|74:169|62:100,1,115.049994733429
275,322,55653,2,0,P|278:261|290:192,1,115.049994733429
156,353,55992,1,0,0:0:0:0:
324,189,56162,1,0,0:0:0:0:
384,331,56331,1,0,0:0:0:0:
178,132,56501,2,0,P|121:117|55:116,1,115.049994733429
245,24,56840,5,0,0:0:0:0:
338,177,57009,1,0,0:0:0:0:
483,0,57179,5,0,0:0:0:0:
324,189,57348,1,0,0:0:0:0:
327,27,57518,1,0,0:0:0:0:
460,140,57687,1,0,0:0:0:0:
243,241,57857,1,0,0:0:0:0:
372,95,58026,6,0,P|311:72|246:71,1,115.049994733429
92,166,58365,2,0,P|153:143|218:142,1,115.049994733429
331,237,58704,1,0,0:0:0:0:
164,349,58874,1,0,0:0:0:0:
386,344,59043,2,0,P|447:321|512:320,1,115.049994733429
349,232,59382,1,0,0:0:0:0:
181,335,59552,6,0,P|120:312|55:311,1,115.049994733429
190,109,59891,1,0,0:0:0:0:
266,266,60060,1,0,0:0:0:0:
87,217,60230,2,0,P|24:216|-32:232,1,115.049994733429
83,52,60569,1,0,0:0:0:0:
170,188,60738,1,0,0:0:0:0:
235,46,60908,6,0,B|367:31|313:120|406:142|470:101,1,230.099989466858
218,186,61416,1,0,0:0:0:0:
392,230,61586,2,0,B|446:203|510:210,1,115.049994733429
210,319,61925,1,0,0:0:0:0:
292,200,62094,1,0,0:0:0:0:
459,349,62264,6,0,L|316:339,1,115.049994733429
104,340,62603,1,0,0:0:0:0:
300,190,62772,1,0,0:0:0:0:
108,182,62941,2,0,P|41:184|-10:207,1,115.049994733429
224,67,63280,1,0,0:0:0:0:
276,208,63450,1,0,0:0:0:0:
87,51,63619,6,0,P|73:103|72:185,1,115.049994733429
342,143,63958,5,0,0:0:0:0:
123,44,64128,1,0,0:0:0:0:
413,44,64297,5,0,0:0:0:0:
194,143,64467,1,0,0:0:0:0:
422,232,64636,5,0,0:0:0:0:
285,76,64806,1,0,0:0:0:0:
211,258,64975,2,0,P|269:189|372:168,1,194.700005941773
324,277,65484,1,0,0:0:0:0:
174,137,65653,2,0,P|130:121|72:119,1,97.3500029708863
0,173,65992,1,0,0:0:0:0:
120,222,66162,1,0,0:0:0:0:
21,346,66331,6,0,L|7:228,1,97.3500029708863
155,355,66670,1,0,0:0:0:0:
242,239,66840,2,0,P|277:289|280:344,1,97.3500029708863
440,359,67179,1,0,0:0:0:0:
274,345,67348,1,0,0:0:0:0:
426,246,67518,1,0,0:0:0:0:
232,152,67687,6,0,B|348:147|291:225|437:204,1,194.700005941773
327,90,68196,1,0,0:0:0:0:
212,243,68365,2,0,L|192:28,1,194.700005941773
120,140,68874,1,0,0:0:0:0:
275,21,69043,6,0,P|317:1|397:16,1,97.3500029708863
426,78,69382,1,0,0:0:0:0:
193,49,69552,2,0,P|151:29|71:44,1,97.3500029708863
238,205,69891,2,0,P|258:163|243:83,1,97.3500029708863
329,248,70230,1,0,0:0:0:0:
147,135,70399,6,0,P|43:169|4:247,2,194.700005941773
238,205,71247,1,0,0:0:0:0:
87,347,71416,1,0,0:0:0:0:
122,245,71586,1,0,0:0:0:0:
286,346,71755,6,0,B|388:329|363:406|501:368,2,194.700005941773
148,256,72603,1,0,0:0:0:0:
304,127,72772,2,0,P|367:133|442:203,1,146.025004456329
454,217,73111,5,0,0:0:0:0:
368,48,73280,1,0,0:0:0:0:
226,222,73450,2,0,L|206:7,1,194.700005941773
107,118,73958,1,0,0:0:0:0:
334,222,74128,1,0,0:0:0:0:
179,342,74297,1,0,0:0:0:0:
367,207,74467,6,0,P|422:191|485:191,1,97.3500029708863
321,93,74806,1,0,0:0:0:0:
213,251,74975,2,0,B|94:229|146:310|16:289,1,194.700005941773
71,193,75484,1,0,0:0:0:0:
252,346,75653,1,0,0:0:0:0:
252,346,75738,1,0,0:0:0:0:
252,346,75823,6,0,B|331:342|331:342|386:361|386:361|480:359,1,212.399993518067
512,270,76331,1,0,0:0:0:0:
350,193,76501,1,0,0:0:0:0:
512,131,76670,1,0,0:0:0:0:
377,356,76840,1,0,0:0:0:0:
318,186,77009,1,0,0:0:0:0:
224,371,77179,5,0,0:0:0:0:
152,181,77348,2,0,P|87:174|-4:212,1,159.29999513855
1,207,77687,2,0,P|78:194|153:220,1,159.29999513855
153,220,78026,2,0,P|82:227|22:267,1,106.199996759033
287,96,78365,1,0,0:0:0:0:
287,96,78450,1,0,0:0:0:0:
287,96,78535,6,0,P|357:103|417:143,1,106.199996759033
233,287,78874,1,0,0:0:0:0:
326,182,79043,1,0,0:0:0:0:
410,352,79213,1,0,0:0:0:0:
221,196,79382,2,0,P|221:222|229:247,1,53.0999983795166
132,358,79552,2,0,P|140:332|140:306,1,53.0999983795166
48,190,79721,2,0,P|48:216|56:241,1,53.0999983795166
34,371,79891,5,0,0:0:0:0:
221,196,80060,2,0,L|238:354,1,159.29999513855
322,381,80399,2,0,L|340:222,1,159.29999513855
418,159,80738,2,0,L|429:264,1,106.199996759033
303,106,81077,1,0,0:0:0:0:
303,106,81162,1,0,0:0:0:0:
303,106,81247,6,0,B|168:89|232:170|79:144,1,212.399993518067
129,42,81755,1,0,0:0:0:0:
269,209,81925,1,0,0:0:0:0:
84,141,82094,1,0,0:0:0:0:
276,10,82264,1,0,0:0:0:0:
251,191,82433,1,0,0:0:0:0:
369,0,82603,5,0,0:0:0:0:
512,160,82772,2,0,P|438:166|360:200,1,159.29999513855
250,191,83111,2,0,P|328:198|401:231,1,159.29999513855
512,253,83450,2,0,P|451:258|396:283,1,106.199996759033
220,338,83789,1,0,0:0:0:0:
220,338,83874,1,0,0:0:0:0:
220,338,83958,6,0,L|203:100,1,212.399993518067
91,326,84467,1,0,0:0:0:0:
332,172,84636,1,0,0:0:0:0:
97,146,84806,1,0,0:0:0:0:
339,285,84975,1,0,0:0:0:0:
224,56,85145,1,0,0:0:0:0:
17,347,85314,5,0,0:0:0:0:
116,134,85484,1,0,0:0:0:0:
261,364,85653,5,0,0:0:0:0:
149,137,85823,1,0,0:0:0:0:
20,328,85992,5,0,0:0:0:0:
237,244,86162,1,0,0:0:0:0:
0,97,86331,2,0,B|92:85|62:156|181:133,1,159.29999513855
188,53,86670,6,0,L|207:241,1,159.29999513855
158,254,87009,2,0,P|194:245|246:245,1,79.649997569275
332,338,87348,2,0,P|296:329|244:329,1,79.649997569275
179,383,87687,1,0,0:0:0:0:
66,303,87857,6,0,P|60:254|54:216,1,79.649997569275
168,175,88196,2,0,P|161:214|157:253,1,79.649997569275
320,238,88535,2,0,P|315:198|309:159,1,79.649997569275
251,63,88874,1,0,0:0:0:0:
142,94,89043,2,0,P|85:86|46:90,1,79.649997569275
284,52,89382,6,0,B|372:42|348:115|444:95,1,159.29999513855
411,13,89891,1,0,0:0:0:0:
296,144,90060,2,0,P|296:189|300:231,1,79.649997569275
404,329,90399,1,0,0:0:0:0:
298,240,90569,1,0,0:0:0:0:
217,359,90738,6,0,P|171:349|127:354,1,79.649997569275
16,286,91077,2,0,P|62:276|106:281,1,79.649997569275
176,194,91416,1,0,0:0:0:0:
53,118,91586,2,0,P|38:171|36:216,1,79.649997569275
209,117,91925,1,0,0:0:0:0:
209,117,92009,1,0,0:0:0:0:
209,117,92094,6,0,P|287:122|363:164,2,159.29999513855
94,85,92941,2,0,P|45:75|3:81,1,79.649997569275
209,117,93280,2,0,L|198:37,1,79.649997569275
368,81,93619,2,0,L|357:159,1,79.649997569275
430,246,93958,1,0,0:0:0:0:
256,220,94128,2,0,P|211:220|175:232,1,79.649997569275
83,331,94467,1,0,0:0:0:0:
159,216,94636,1,0,0:0:0:0:
295,313,94806,6,0,B|396:308|354:353|461:348,1,159.29999513855
351,241,95314,1,0,0:0:0:0:
268,379,95484,2,0,L|255:198,1,159.29999513855
206,109,95992,1,0,0:0:0:0:
109,259,96162,6,0,P|177:220|273:225,1,159.29999513855
373,100,96670,1,0,0:0:0:0:
112,66,96840,1,0,0:0:0:0:
299,20,97009,1,0,0:0:0:0:
58,152,97179,1,0,0:0:0:0:
352,117,97348,6,0,P|422:141|461:255,1,194.700005941773
203,88,97857,2,0,P|160:79|97:92,1,79.649997569275
58,152,98196,2,0,L|48:253,1,79.649997569275
88,314,98535,1,0,0:0:0:0:
236,171,98704,6,0,B|233:268|310:234|302:360,1,194.700005941773
395,368,99213,1,0,0:0:0:0:
395,368,99552,1,0,0:0:0:0:
432,261,99721,2,0,P|435:220|442:174,1,79.649997569275
244,73,100060,6,0,B|128:56|188:134|49:119,1,194.700005941773
389,36,100569,1,0,0:0:0:0:
389,36,100908,2,0,P|405:85|405:116,1,79.649997569275
263,90,101247,2,0,P|247:139|247:170,1,79.649997569275
314,241,101501,1,0,0:0:0:0:
314,241,101586,6,0,P|253:199|131:208,1,177
59,236,102094,1,0,0:0:0:0:
103,383,102264,2,0,P|130:375|159:349,2,59
213,296,102603,2,0,P|231:318|240:346,2,59
329,367,102941,6,0,P|367:299|466:284,2,177
139,238,103789,2,0,P|101:213|52:206,1,88.5
314,152,104128,2,0,P|352:127|401:120,1,88.5
142,49,104467,2,0,P|104:24|55:17,1,88.5
280,145,104806,1,0,0:0:0:0:
120,260,104975,2,0,P|125:334|223:376,1,177
283,248,105484,1,0,0:0:0:0:
451,365,105653,6,0,P|377:333|259:348,1,177
282,338,106162,1,0,0:0:0:0:
197,137,106331,1,0,0:0:0:0:
60,287,106501,2,0,P|38:235|37:90,1,177
261,257,107009,6,0,P|278:211|284:163,2,88.5
144,52,107518,1,0,0:0:0:0:
405,129,107687,1,0,0:0:0:0:
192,187,107857,1,0,0:0:0:0:
378,18,108026,1,0,0:0:0:0:
356,263,108196,1,0,0:0:0:0:
253,76,108365,6,0,P|223:57|195:51,1,44.25
150,183,108535,2,0,P|170:174|188:161,1,44.25
103,81,108704,2,0,P|73:62|45:56,1,44.25
0,188,108874,2,0,P|20:179|38:166,1,44.25
214,54,109043,1,0,0:0:0:0:
309,321,109213,1,0,0:0:0:0:
309,321,109552,6,0,B|197:305|250:380|107:358,1,194.700005941773
277,169,110060,1,0,0:0:0:0:
401,274,110230,2,0,P|401:228|409:170,1,97.3500029708863
250,295,110569,2,0,P|249:246|243:198,1,97.3500029708863
126,305,110908,1,0,0:0:0:0:
60,106,111077,5,0,0:0:0:0:
0,234,111247,1,0,0:0:0:0:
185,130,111416,2,0,P|230:114|288:114,1,97.3500029708863
179,32,111755,1,0,0:0:0:0:
128,202,111925,1,0,0:0:0:0:
40,9,112094,2,0,B|33:119,1,97.3500029708863
189,269,112433,5,0,0:0:0:0:
123,95,112603,1,0,0:0:0:0:
25,323,112772,1,0,0:0:0:0:
246,129,112941,1,0,0:0:0:0:
359,333,113111,5,0,0:0:0:0:
194,250,113280,1,0,0:0:0:0:
402,146,113450,1,0,0:0:0:0:
246,92,113619,1,0,0:0:0:0:
370,16,113789,6,0,P|394:37|410:73,1,48.6750014854432
280,121,113958,2,0,B|279:120|286:104|310:83,1,48.6750014854432
385,158,114128,2,0,P|409:179|425:215,1,48.6750014854432
295,263,114297,2,0,B|294:262|301:246|325:225,1,48.6750014854432
402,323,114467,1,0,0:0:0:0:
193,128,114636,1,0,0:0:0:0:
193,128,114975,6,0,B|73:106|130:187|-1:170,1,194.700005941773
241,30,115484,1,0,0:0:0:0:
387,159,115653,2,0,P|430:146|510:151,1,97.3500029708863
258,221,115992,2,0,P|215:208|135:213,1,97.3500029708863
275,122,116331,1,0,0:0:0:0:
345,343,116501,5,0,0:0:0:0:
256,209,116670,1,0,0:0:0:0:
135,362,116840,2,0,P|138:313|151:266,1,97.3500029708863
54,192,117179,1,0,0:0:0:0:
170,127,117348,1,0,0:0:0:0:
22,38,117518,2,0,L|128:18,1,97.3500029708863
325,101,117857,5,0,0:0:0:0:
150,152,118026,1,0,0:0:0:0:
285,9,118196,1,0,0:0:0:0:
341,236,118365,1,0,0:0:0:0:
205,54,118535,5,0,0:0:0:0:
147,239,118704,1,0,0:0:0:0:
341,83,118874,1,0,0:0:0:0:
365,256,119043,1,0,0:0:0:0:
177,59,119213,6,0,L|167:269,2,194.700005941773
69,109,120060,1,0,0:0:0:0:
283,226,120230,1,0,0:0:0:0:
80,317,120399,6,0,L|66:220,1,97.3500029708863
250,346,120738,2,0,L|264:249,1,97.3500029708863
419,364,121077,1,0,0:0:0:0:
358,226,121247,1,0,0:0:0:0:
276,361,121416,1,0,0:0:0:0:
422,157,121586,1,0,0:0:0:0:
294,125,121755,1,0,0:0:0:0:
457,36,121925,6,0,P|457:148|464:242,1,194.700005941773
376,290,122433,1,0,0:0:0:0:
268,130,122603,1,0,0:0:0:0:
412,159,122772,1,0,0:0:0:0:
259,280,122941,1,0,0:0:0:0:
182,127,123111,6,0,B|66:119|118:187|-16:176,1,194.700005941773
252,295,123619,1,0,0:0:0:0:
92,355,123789,1,0,0:0:0:0:
261,206,123958,2,0,P|314:198|372:202,1,97.3500029708863
96,117,124297,2,0,P|43:109|-15:113,1,97.3500029708863
271,41,124636,6,0,P|344:60|387:171,1,194.700005941773
96,298,125145,1,0,0:0:0:0:
147,45,125314,1,0,0:0:0:0:
404,283,125484,1,0,0:0:0:0:
40,193,125653,1,0,0:0:0:0:
249,57,125823,1,0,0:0:0:0:
268,350,125992,5,0,0:0:0:0:
162,235,126162,2,0,P|98:214|21:213,2,141.6
322,131,127009,2,0,P|394:133|454:197,1,146.025004456329
465,261,127348,6,0,P|476:207|501:153,1,115.049994733429
274,40,127687,2,0,P|298:91|310:148,1,115.049994733429
97,205,128026,2,0,B|245:206|157:286|335:280,1,230.099989466858
393,195,128535,1,0,0:0:0:0:
207,113,128704,5,0,0:0:0:0:
109,300,128874,2,0,P|47:267|-22:260,1,115.049994733429
293,263,129213,2,0,P|355:230|424:223,1,115.049994733429
229,129,129552,1,0,0:0:0:0:
450,49,129721,1,0,0:0:0:0:
393,195,129891,1,0,0:0:0:0:
193,25,130060,6,0,L|181:262,1,230.099989466858
96,135,130569,1,0,0:0:0:0:
283,221,130738,1,0,0:0:0:0:
91,250,130908,1,0,0:0:0:0:
281,135,131077,1,0,0:0:0:0:
39,56,131247,6,0,P|15:115|2:188,1,115.049994733429
155,3,131586,2,0,P|179:62|192:135,1,115.049994733429
326,20,131925,1,0,0:0:0:0:
310,172,132094,1,0,0:0:0:0:
467,10,132264,2,0,P|491:69|504:142,1,115.049994733429
312,299,132603,1,0,0:0:0:0:
312,299,132687,1,0,0:0:0:0:
312,299,132772,6,0,P|390:232|526:238,2,230.099989466858
444,332,133619,1,0,0:0:0:0:
279,201,133789,1,0,0:0:0:0:
422,116,133958,1,0,0:0:0:0:
216,45,134128,2,0,B|82:24|129:119|-20:90,1,230.099989466858
38,0,134636,1,0,0:0:0:0:
129,232,134806,2,0,P|151:168|177:128,1,115.049994733429
53,348,135145,2,0,P|31:284|5:244,1,115.049994733429
150,370,135484,5,0,0:0:0:0:
227,214,135653,1,0,0:0:0:0:
377,357,135823,2,0,P|355:293|329:253,1,115.049994733429
182,117,136162,1,0,0:0:0:0:
212,313,136331,1,0,0:0:0:0:
376,107,136501,1,0,0:0:0:0:
472,266,136670,1,0,0:0:0:0:
288,69,136840,1,0,0:0:0:0:
288,69,137687,5,0,0:0:0:0:
71,202,137857,1,0,0:0:0:0:
173,7,138026,1,0,0:0:0:0:
299,205,138196,2,0,B|419:188|381:284|530:263,1,230.099989466858
320,116,138704,1,0,0:0:0:0:
193,291,138874,2,0,P|205:215|221:174,1,115.049994733429
102,339,139213,1,0,0:0:0:0:
345,227,139382,6,0,P|333:151|317:110,1,115.049994733429
472,343,139721,2,0,P|484:267|500:226,1,115.049994733429
307,110,140060,1,0,0:0:0:0:
469,28,140230,1,0,0:0:0:0:
416,205,140399,1,0,0:0:0:0:
292,16,140569,2,0,P|223:18|179:31,1,115.049994733429
59,220,140908,5,0,0:0:0:0:
246,129,141077,1,0,0:0:0:0:
39,39,141247,1,0,0:0:0:0:
120,260,141416,1,0,0:0:0:0:
254,101,141586,1,0,0:0:0:0:
318,253,141755,1,0,0:0:0:0:
172,109,141925,1,0,0:0:0:0:
0,291,142094,6,0,P|50:257|117:242,1,115.049994733429
219,365,142433,2,0,P|157:338|77:349,1,115.049994733429
223,218,142772,1,0,0:0:0:0:
316,367,142941,1,0,0:0:0:0:
439,176,143111,2,0,P|450:234|455:318,1,115.049994733429
358,120,143450,1,0,0:0:0:0:
208,203,143619,6,0,P|146:176|66:187,1,115.049994733429
292,50,143958,1,0,0:0:0:0:
65,85,144128,1,0,0:0:0:0:
277,149,144297,2,0,P|339:122|419:133,1,115.049994733429
80,206,144636,1,0,0:0:0:0:
181,85,144806,1,0,0:0:0:0:
294,292,144975,6,0,B|430:280|383:363|527:346,1,230.099989466858
242,360,145484,1,0,0:0:0:0:
378,222,145653,2,0,P|432:193|489:187,1,115.049994733429
225,121,145992,1,0,0:0:0:0:
376,72,146162,1,0,0:0:0:0:
158,38,146331,6,0,P|102:24|45:31,1,115.049994733429
308,135,146670,1,0,0:0:0:0:
77,161,146840,1,0,0:0:0:0:
246,61,147009,2,0,P|302:47|359:54,1,115.049994733429
262,251,147348,1,0,0:0:0:0:
157,116,147518,1,0,0:0:0:0:
21,275,147687,6,0,P|128:278|214:368,1,230.099989466858
347,206,148196,1,0,0:0:0:0:
347,206,148280,1,0,0:0:0:0:
347,206,148365,1,0,0:0:0:0:
445,366,148535,1,0,0:0:0:0:
224,241,148704,1,0,0:0:0:0:
437,135,148874,1,0,0:0:0:0:
247,45,149043,6,0,B|131:37|177:113|58:90,1,194.700005941773
101,15,149552,1,0,0:0:0:0:
241,137,149721,2,0,P|291:138|356:172,1,97.3500029708863
423,261,150060,1,0,0:0:0:0:
348,137,150230,1,0,0:0:0:0:
170,258,150399,6,0,P|212:235|260:234,1,97.3500029708863
288,327,150738,1,0,0:0:0:0:
90,236,150908,2,0,P|47:213|0:212,1,97.3500029708863
134,366,151247,1,0,0:0:0:0:
0,310,151416,1,0,0:0:0:0:
116,209,151586,1,0,0:0:0:0:
0,84,151755,6,0,P|99:80|177:155,1,194.700005941773
57,173,152264,1,0,0:0:0:0:
199,24,152433,2,0,L|195:249,1,194.700005941773
285,305,152941,1,0,0:0:0:0:
392,192,153110,6,0,P|434:172|514:187,1,97.3500029708863
505,260,153449,1,0,0:0:0:0:
313,157,153619,2,0,P|271:137|191:152,1,97.3500029708863
403,99,153958,2,0,P|423:57|408:-23,1,97.3500029708863
329,177,154297,1,0,0:0:0:0:
186,32,154467,6,0,B|73:26|133:96|-1:75,2,194.700005941773
262,95,155314,1,0,0:0:0:0:
82,285,155483,1,0,0:0:0:0:
155,132,155653,1,0,0:0:0:0:
317,314,155823,6,0,B|430:308|370:378|504:357,2,194.700005941773
200,369,156670,1,0,0:0:0:0:
95,264,156840,2,0,P|88:190|85:116,1,146.025004456329
103,87,157178,5,0,0:0:0:0:
238,241,157347,1,0,0:0:0:0:
339,39,157518,1,0,0:0:0:0:
132,187,157687,1,0,0:0:0:0:
325,139,157857,1,0,0:0:0:0:
172,0,158026,1,0,0:0:0:0:
124,261,158196,2,0,P|156:200|228:149,1,146.025004456329
248,136,158535,5,0,0:0:0:0:
399,309,158704,1,0,0:0:0:0:
396,60,158874,5,0,0:0:0:0:
278,273,159043,1,0,0:0:0:0:
284,9,159213,5,0,0:0:0:0:
395,216,159382,1,0,0:0:0:0:
395,216,159467,1,0,0:0:0:0:
395,216,159552,2,0,P|416:197|442:184,1,48.6750014854432
248,136,159721,2,0,P|226:117|201:104,1,48.6750014854432
13,219,159891,6,0,B|126:192|91:263|204:242,1,194.700005941773
108,138,160399,1,0,0:0:0:0:
106,346,160569,5,0,0:0:0:0:
190,165,160738,1,0,0:0:0:0:
280,337,160908,5,0,0:0:0:0:
115,255,161077,1,0,0:0:0:0:
288,207,161247,6,0,P|330:189|420:183,1,97.3500029708863
123,113,161586,2,0,P|81:95|-9:89,1,97.3500029708863
283,93,161925,5,0,0:0:0:0:
106,10,162094,1,0,0:0:0:0:
340,8,162264,5,0,0:0:0:0:
163,91,162433,1,0,0:0:0:0:
385,111,162603,6,0,P|401:156|415:226,1,97.3500029708863
224,335,162941,2,0,P|234:287|250:241,1,97.3500029708863
421,352,163280,5,0,0:0:0:0:
334,195,163450,1,0,0:0:0:0:
202,340,163619,5,0,0:0:0:0:
368,286,163789,1,0,0:0:0:0:
179,178,163958,6,0,B|80:165|101:256|-2:234,1,194.700005941773
142,82,164467,1,0,0:0:0:0:
220,260,164636,1,0,0:0:0:0:
56,152,164806,1,0,0:0:0:0:
258,87,164975,2,0,P|308:67|379:73,1,97.3500029708863
90,25,165314,6,0,L|104:233,1,194.700005941773
266,336,165823,1,0,0:0:0:0:
211,173,165992,5,0,0:0:0:0:
122,341,166162,1,0,0:0:0:0:
319,246,166331,5,0,0:0:0:0:
118,200,166501,1,0,0:0:0:0:
374,136,166670,5,0,0:0:0:0:
205,236,166840,1,0,0:0:0:0:
446,241,167009,5,0,0:0:0:0:
277,141,167179,1,0,0:0:0:0:
260,332,167348,6,0,P|240:266|223:226,1,97.3500029708863
124,115,167687,1,0,0:0:0:0:
44,238,167857,1,0,0:0:0:0:
320,97,168026,6,0,P|405:96|505:156,1,194.700005941773
377,217,168535,1,0,0:0:0:0:
265,22,168704,5,0,0:0:0:0:
185,205,168874,1,0,0:0:0:0:
150,16,169043,5,0,0:0:0:0:
277,185,169213,2,0,P|289:287|292:389,1,194.700005941773
72,241,169721,5,0,0:0:0:0:
235,184,169891,1,0,0:0:0:0:
70,59,170060,1,0,0:0:0:0:
218,82,170230,1,0,0:0:0:0:
63,203,170399,1,0,0:0:0:0:
63,203,170738,6,0,P|43:278|37:315,1,97.3500029708863
147,177,171077,5,0,0:0:0:0:
238,339,171247,1,0,0:0:0:0:
268,100,171416,5,0,0:0:0:0:
169,264,171586,1,0,0:0:0:0:
120,86,171755,6,0,P|66:73|18:76,1,97.3500029708863
296,100,172094,2,0,P|350:87|398:90,1,97.3500029708863
231,205,172433,5,0,0:0:0:0:
396,304,172603,1,0,0:0:0:0:
160,316,172772,5,0,0:0:0:0:
328,223,172941,1,0,0:0:0:0:
80,205,173111,5,0,0:0:0:0:
248,298,173280,1,0,0:0:0:0:
42,363,173450,6,0,P|36:308|25:260,1,97.3500029708863
187,152,173789,5,0,0:0:0:0:
17,58,173958,1,0,0:0:0:0:
236,50,174128,5,0,0:0:0:0:
66,144,174297,1,0,0:0:0:0:
312,169,174467,5,0,0:0:0:0:
142,75,174636,1,0,0:0:0:0:
355,48,174806,6,0,P|414:43|464:58,1,97.3500029708863
229,33,175145,1,0,0:0:0:0:
366,140,175314,1,0,0:0:0:0:
194,180,175484,1,0,0:0:0:0:
319,60,175653,1,0,0:0:0:0:
130,4,175823,2,0,P|71:-1|21:14,1,97.3500029708863
300,207,176162,5,0,0:0:0:0:
6,85,176331,1,0,0:0:0:0:
295,55,176501,5,0,0:0:0:0:
31,203,176670,1,0,0:0:0:0:
323,276,176840,5,0,0:0:0:0:
134,95,177009,1,0,0:0:0:0:
140,317,177179,5,0,0:0:0:0:
288,38,177348,1,0,0:0:0:0:
361,371,177518,5,0,0:0:0:0:
209,71,177687,1,0,0:0:0:0:
220,370,177857,5,0,0:0:0:0:
374,24,178026,1,0,0:0:0:0:
72,162,178196,5,0,0:0:0:0:
361,270,178365,1,0,0:0:0:0:
43,276,178535,5,0,0:0:0:0:
391,111,178704,1,0,0:0:0:0:
20,32,178874,5,0,0:0:0:0:
252,353,179043,1,0,0:0:0:0:
347,5,179213,5,0,0:0:0:0:
25,201,179382,1,0,0:0:0:0:
399,296,179552,5,0,0:0:0:0:
178,9,179721,1,0,0:0:0:0:
115,328,179891,5,0,0:0:0:0:
433,106,180060,1,0,0:0:0:0:
101,55,180230,5,0,0:0:0:0:
313,216,180399,1,0,0:0:0:0:
313,216,180484,1,0,0:0:0:0:
313,216,180569,2,0,P|339:194|389:182,1,48.6750014854432
236,328,180739,2,0,P|214:316|196:299,1,48.6750014854432
166,150,180908,2,0,P|192:128|242:116,1,48.6750014854432
89,262,181078,2,0,P|67:250|49:233,1,48.6750014854432
19,53,181247,2,0,P|40:64|58:81,1,48.6750014854432
105,291,181416,1,0,0:0:0:0:
105,291,181501,1,0,0:0:0:0:
105,291,181586,6,0,P|117:223|143:173,1,123.899996218872
271,33,181925,2,0,P|298:88|307:149,1,123.899996218872
512,289,182264,2,0,B|372:274|416:358|244:329,1,247.799992437744
418,219,182772,1,0,0:0:0:0:
235,144,182941,5,0,0:0:0:0:
392,60,183111,2,0,P|455:48|523:57,1,123.899996218872
243,23,183450,2,0,P|180:11|112:20,1,123.899996218872
326,138,183789,1,0,0:0:0:0:
94,207,183958,1,0,0:0:0:0:
226,113,184128,1,0,0:0:0:0:
49,42,184297,6,0,P|59:157|64:300,1,247.799992437744
134,351,184806,1,0,0:0:0:0:
279,236,184975,1,0,0:0:0:0:
165,142,185145,1,0,0:0:0:0:
319,333,185314,1,0,0:0:0:0:
416,173,185484,6,0,P|420:112|431:44,1,123.899996218872
254,241,185823,2,0,P|250:180|239:112,1,123.899996218872
65,326,186162,1,0,0:0:0:0:
164,185,186331,1,0,0:0:0:0:
328,358,186501,2,0,P|332:297|343:229,1,123.899996218872
429,296,186840,1,0,0:0:0:0:
178,189,187009,6,0,P|117:171|34:176,1,123.899996218872
272,58,187348,2,0,B|424:38|359:120|521:99,1,247.799992437744
449,0,187857,1,0,0:0:0:0:
290,158,188026,1,0,0:0:0:0:
369,25,188196,1,0,0:0:0:0:
512,268,188365,6,0,P|443:208|275:198,2,247.799992437744
367,295,189213,1,0,0:0:0:0:
214,123,189382,2,0,P|209:183|205:262,1,123.899996218872
118,55,189721,5,0,0:0:0:0:
55,200,189891,1,0,0:0:0:0:
309,29,190060,2,0,L|320:285,1,247.799992437744
214,238,190569,1,0,0:0:0:0:
396,117,190738,1,0,0:0:0:0:
213,78,190908,1,0,0:0:0:0:
436,279,191077,6,0,B|279:270|357:361|186:328,1,247.799992437744
42,191,191586,2,0,P|97:192|174:223,1,123.899996218872
282,168,191924,1,0,0:0:0:0:
84,292,192094,1,0,0:0:0:0:
171,132,192263,1,0,0:0:0:0:
237,338,192433,6,0,P|240:272|249:210,1,123.899996218872
365,42,192772,1,0,0:0:0:0:
443,201,192941,1,0,0:0:0:0:
178,121,193111,2,0,P|120:101|49:98,1,123.899996218872
265,23,193450,1,0,0:0:0:0:
358,184,193619,6,0,P|416:164|487:161,1,123.899996218872
246,271,193958,2,0,P|304:291|375:294,1,123.899996218872
156,353,194297,1,0,0:0:0:0:
268,182,194467,1,0,0:0:0:0:
410,363,194636,1,0,0:0:0:0:
169,196,194806,2,0,P|112:181|45:179,1,123.899996218872
349,118,195145,2,0,P|406:103|473:101,1,123.899996218872
324,6,195484,5,0,0:0:0:0:
228,247,195653,1,0,0:0:0:0:
420,173,195823,1,0,0:0:0:0:
221,35,195992,1,0,0:0:0:0:
253,230,196162,1,0,0:0:0:0:
413,57,196331,6,0,P|428:109|433:209,1,123.899996218872
273,0,196670,2,0,P|258:52|253:152,1,123.899996218872
144,0,197009,1,0,0:0:0:0:
112,142,197179,1,0,0:0:0:0:
0,5,197348,2,0,P|15:57|20:157,1,123.899996218872
101,237,197687,1,0,0:0:0:0:
254,149,197857,6,0,P|315:126|380:125,1,123.899996218872
155,111,198196,1,0,0:0:0:0:
298,262,198365,1,0,0:0:0:0:
101,237,198535,2,0,P|12:212|-37:215,1,123.899996218872
280,294,198874,1,0,0:0:0:0:
67,354,199043,1,0,0:0:0:0:
244,175,199213,6,0,P|353:173|471:268,1,247.799992437744
271,336,199721,1,0,0:0:0:0:
154,153,199891,2,0,P|89:123|20:120,1,123.899996218872
186,14,200230,1,0,0:0:0:0:
239,201,200399,1,0,0:0:0:0:
350,38,200569,6,0,P|415:8|484:5,1,123.899996218872
193,98,200908,1,0,0:0:0:0:
375,166,201077,1,0,0:0:0:0:
173,126,201247,2,0,P|111:133|56:160,1,123.899996218872
340,274,201585,1,0,0:0:0:0:
193,98,201755,1,0,0:0:0:0:
120,226,201924,6,0,P|106:278|103:363,1,123.899996218872
232,183,202264,1,0,0:0:0:0:
296,358,202433,1,0,0:0:0:0:
439,162,202603,1,0,0:0:0:0:
202,263,202772,1,0,0:0:0:0:
423,319,202941,1,0,0:0:0:0:
209,170,203111,1,0,0:0:0:0:
382,32,203280,6,0,P|399:113|410:226,1,194.700005941773
494,101,203789,1,0,0:0:0:0:
281,56,203958,2,0,P|237:43|186:43,1,97.3500029708863
122,134,204297,1,0,0:0:0:0:
36,38,204467,1,0,0:0:0:0:
15,214,204636,6,0,P|9:161|2:117,1,97.3500029708863
89,270,204975,1,0,0:0:0:0:
172,139,205145,2,0,P|178:86|185:42,1,97.3500029708863
256,210,205484,1,0,0:0:0:0:
329,71,205653,1,0,0:0:0:0:
398,221,205823,1,0,0:0:0:0:
450,51,205992,6,0,B|443:157|513:112|512:269,1,194.700005941773
398,221,206501,1,0,0:0:0:0:
282,45,206670,2,0,P|252:91|236:230,1,194.700005941773
116,108,207179,1,0,0:0:0:0:
46,322,207348,6,0,B|49:268|64:224,1,97.3500029708863
128,116,207687,1,0,0:0:0:0:
219,349,207857,2,0,B|216:295|201:251,1,97.3500029708863
376,341,208196,2,0,B|379:287|394:243,1,97.3500029708863
234,109,208535,1,0,0:0:0:0:
512,110,208704,6,0,B|399:89|448:157|315:136,2,194.700005941773
324,29,209552,1,0,0:0:0:0:
425,208,209721,1,0,0:0:0:0:
316,54,209891,1,0,0:0:0:0:
154,165,210060,6,0,P|232:170|314:282,2,194.700005941773
194,281,210908,1,0,0:0:0:0:
81,85,211077,2,0,P|59:144|59:230,1,146.025004456329
84,252,211416,5,0,0:0:0:0:
252,145,211586,1,0,0:0:0:0:
50,77,211755,1,0,0:0:0:0:
225,125,211925,1,0,0:0:0:0:
4,256,212094,2,0,P|15:209|36:165,1,97.3500029708863
188,280,212433,1,0,0:0:0:0:
70,90,212603,1,0,0:0:0:0:
20,333,212772,6,0,B|134:318|89:390|249:368,1,194.700005941773
334,302,213280,1,0,0:0:0:0:
107,198,213450,5,0,0:0:0:0:
346,132,213619,1,0,0:0:0:0:
77,50,213789,5,0,0:0:0:0:
225,239,213958,1,0,0:0:0:0:
360,25,214128,6,0,P|368:113|390:259,1,194.700005941773
258,67,214636,1,0,0:0:0:0:
183,224,214806,1,0,0:0:0:0:
335,144,214975,1,0,0:0:0:0:
147,81,215145,2,0,B|93:64|41:72,1,97.3500029708863
244,236,215484,6,0,P|316:173|438:180,1,194.700005941773
217,138,215992,1,0,0:0:0:0:
355,270,216162,2,0,P|367:322|374:377,1,97.3500029708863
174,231,216501,2,0,P|180:182|192:135,1,97.3500029708863
54,339,216840,6,0,P|52:235|35:125,1,194.700005941773
185,259,217348,1,0,0:0:0:0:
296,147,217518,2,0,P|344:138|409:145,1,97.3500029708863
147,75,217857,2,0,P|99:66|34:73,1,97.3500029708863
325,31,218196,5,0,0:0:0:0:
160,94,218365,1,0,0:0:0:0:
350,226,218535,2,0,P|374:271|384:322,1,97.3500029708863
203,173,218874,2,0,P|249:153|302:147,1,97.3500029708863
93,234,219213,2,0,P|47:214|-6:208,1,97.3500029708863
236,289,219552,5,0,0:0:0:0:
103,353,219721,1,0,0:0:0:0:
265,262,219891,1,0,0:0:0:0:
104,198,220060,1,0,0:0:0:0:
267,104,220230,2,0,B|371:95|341:165|454:152,1,194.700005941773
335,29,220738,1,0,0:0:0:0:
218,175,220908,5,0,0:0:0:0:
358,118,221077,1,0,0:0:0:0:
160,61,221247,1,0,0:0:0:0:
279,248,221416,1,0,0:0:0:0:
383,98,221586,2,0,L|405:312,2,194.700005941773
299,27,222433,5,0,0:0:0:0:
181,188,222603,1,0,0:0:0:0:
72,34,222772,1,0,0:0:0:0:
11,178,222941,2,0,P|4:227|0:281,1,97.3500029708863
193,179,223280,2,0,P|189:130|182:82,1,97.3500029708863
117,282,223619,6,0,P|149:245|304:218,1,194.700005941773
404,357,224128,2,0,P|352:318|310:310,1,97.3500029708863
216,349,224467,1,0,0:0:0:0:
301,205,224636,2,0,P|353:166|395:158,1,97.3500029708863
220,60,224975,6,0,B|103:51|166:119|15:93,1,194.700005941773
253,161,225484,1,0,0:0:0:0:
88,48,225653,1,0,0:0:0:0:
234,25,225823,1,0,0:0:0:0:
90,167,225992,2,0,P|85:228|80:282,1,97.3500029708863
276,333,226331,6,0,P|272:245|264:125,1,194.700005941773
392,285,226840,1,0,0:0:0:0:
430,130,227009,2,0,P|442:77|457:30,1,97.3500029708863
317,223,227348,1,0,0:0:0:0:
317,223,227687,6,0,P|305:170|290:123,2,97.3500029708863
153,172,228196,1,0,0:0:0:0:
256,56,228365,2,0,P|324:45|359:47,1,97.3500029708863
97,30,228704,2,0,P|29:19|-6:21,1,97.3500029708863
156,202,229043,6,0,P|165:91|174:-14,1,194.700005941773
254,244,229552,2,0,P|258:191|268:145,1,97.3500029708863
75,292,229891,2,0,P|71:239|61:193,1,97.3500029708863
176,335,230230,1,0,0:0:0:0:
283,155,230399,6,0,B|396:147|360:205|478:189,1,194.700005941773
270,240,230908,1,0,0:0:0:0:
404,90,231077,2,0,P|453:57|492:43,1,97.3500029708863
298,245,231416,1,0,0:0:0:0:
169,121,231586,6,0,P|117:104|64:105,1,97.3500029708863
298,245,231925,2,0,P|350:262|403:261,1,97.3500029708863
256,108,232264,1,0,0:0:0:0:
94,296,232433,2,0,B|95:206|73:94,1,194.700005941773
8,210,232941,1,0,0:0:0:0:
241,197,233111,5,0,0:0:0:0:
6,85,233280,1,0,0:0:0:0:
261,77,233450,5,0,0:0:0:0:
77,242,233619,1,0,0:0:0:0:
180,26,233789,5,0,0:0:0:0:
330,244,233958,1,0,0:0:0:0:
355,32,234128,5,0,0:0:0:0:
226,287,234297,1,0,0:0:0:0:
143,112,234467,6,0,P|107:99|72:93,1,48.6750014854432
283,151,234636,2,0,P|319:138|354:132,1,48.6750014854432
103,240,234806,2,0,P|67:227|32:221,1,48.6750014854432
240,297,234975,2,0,P|283:284|318:278,1,48.6750014854432
98,336,235145,1,0,0:0:0:0:
232,77,235314,1,0,0:0:0:0:
361,350,235483,1,0,0:0:0:0:
86,157,235653,1,0,0:0:0:0:
233,170,235823,5,0,0:0:0:0:
361,350,236501,6,0,P|320:333|282:331,1,70.8
88,204,237179,2,0,P|129:187|167:185,1,70.8
374,94,237857,2,0,B|313:88|333:119|263:110,1,106.2
204,39,238535,6,0,P|245:22|283:20,1,70.8
96,214,239213,2,0,P|79:173|77:135,1,70.8
233,318,239891,2,0,P|250:277|252:239,1,70.8
363,125,240569,1,0,0:0:0:0:
439,293,241247,1,0,0:0:0:0:
428,125,241925,6,0,P|469:108|507:106,1,70.8
283,57,242603,2,0,P|242:40|204:38,1,70.8
75,176,243280,2,0,P|109:171|141:156,1,70.8
279,260,243958,1,0,0:0:0:0:
256,192,244043,12,0,249382,0:0:0:0:
