osu file format v14

[General]
AudioFilename: audio.mp3
AudioLeadIn: 0
PreviewTime: 127348
Countdown: 0
SampleSet: Soft
StackLeniency: 0.7
Mode: 0
LetterboxInBreaks: 0
WidescreenStoryboard: 0

[Editor]
DistanceSpacing: 1
BeatDivisor: 4
GridSize: 32
TimelineZoom: 1.6

[Metadata]
Title:Kimi ni Pierrot
TitleUnicode:Kimi ni Pierrot
Artist:LiSA
ArtistUnicode:LiSA
Creator:Onlybiscuit
Version:Sentiment
Source:
Tags:
BeatmapID:2046770
BeatmapSetID:834914

[Difficulty]
HPDrainRate:5
CircleSize:4
OverallDifficulty:9.4
ApproachRate:9.4
SliderMultiplier:1.77
SliderTickRate:1

[Events]
//Background and Video events
0,0,"cropped-1366-768-918716.jpg",0,0
//Break Periods
//Storyboard Layer 0 (Background)
//Storyboard Layer 1 (Fail)
//Storyboard Layer 2 (Pass)
//Storyboard Layer 3 (Foreground)
//Storyboard Sound Samples

[TimingPoints]
2603,338.983050847458,4,2,0,85,1,0
2603,-166.666666666667,4,2,0,50,0,0
10738,-133.333333333333,4,2,0,50,0,0
12772,-142.857142857142,4,2,0,50,0,0
13450,-100,4,2,0,65,0,0
42094,-125,4,2,0,70,0,0
42941,-100,4,2,0,85,0,0
43280,-83.3333333333333,4,2,0,85,0,1
64975,-111.111111111111,4,2,0,85,0,0
75823,-100,4,2,0,85,0,0
87009,-125,4,2,0,85,0,0
97348,-90.9090909090908,4,2,0,85,0,0
97857,-111.111111111111,4,2,0,85,0,0
98704,-90.9090909090908,4,2,0,85,0,0
99213,-111.111111111111,4,2,0,85,0,0
100060,-90.9090909090908,4,2,0,85,0,0
100569,-111.111111111111,4,2,0,85,0,0
101586,-99.9999999999999,4,2,0,85,0,0
126162,-125,4,2,0,85,0,0
127009,-90.9090909090909,4,2,0,85,0,0
127348,-83.3333333333333,4,2,0,85,0,1
149043,-111.111111111111,4,2,0,85,0,0
176162,-90.9090909090909,4,2,0,85,0,1
181586,-83.3333333333333,4,2,0,85,0,1
203280,-111.111111111111,4,2,0,85,0,0
208704,-100,4,2,0,85,0,0
235145,-125,4,2,0,85,0,0
236501,-250,4,2,0,50,0,0

[Colours]
Combo1 : 240,240,240
Combo2 : 255,128,192
Combo3 : 128,255,255
Combo4 : 128,255,128

[HitObjects]
20,124,2603,6,0,P|47:79|95:58,1,106.199996759033
156,147,3111,1,0,0:0:0:0:
156,147,3280,2,0,L|103:143,2,53.0999983795166
31,221,3789,1,0,0:0:0:0:
31,221,3958,6,0,L|136:229,1,106.199996759033
217,356,4467,2,0,P|166:350|128:314,1,106.199996759033
205,220,4975,2,0,L|200:273,1,53.0999983795166
185,138,5314,6,0,B|216:130|238:143|238:143|265:131|287:133,1,106.199996759033
374,182,5823,1,0,0:0:0:0:
309,258,5992,2,0,P|291:238|280:215,2,53.0999983795166
476,192,6501,1,0,0:0:0:0:
476,192,6670,6,0,P|467:140|431:103,1,106.199996759033
374,182,7179,1,0,0:0:0:0:
340,99,7348,1,0,0:0:0:0:
371,16,7518,2,0,L|318:12,2,53.0999983795166
178,31,8026,6,0,L|185:148,1,106.199996759033
132,226,8535,1,0,0:0:0:0:
213,293,8704,2,0,P|256:263|308:257,1,106.199996759033
289,359,9213,1,0,0:0:0:0:
142,364,9382,6,0,L|36:357,1,106.199996759033
26,219,9891,2,0,L|132:226,1,106.199996759033
184,137,10399,1,0,0:0:0:0:
113,75,10569,1,0,0:0:0:0:
265,21,10738,6,0,B|332:10|332:46|394:34,1,132.750005064011
488,77,11247,1,0,0:0:0:0:
404,167,11416,2,0,L|394:34,1,132.750005064011
492,184,11925,1,0,0:0:0:0:
405,367,12094,6,0,P|447:318|512:311,1,132.750005064011
417,246,12603,1,0,0:0:0:0:
311,344,12772,1,0,0:0:0:0:
311,344,12941,2,0,L|179:339,1,123.899996218872
139,106,13450,6,0,P|169:137|183:179,1,88.5
109,360,13789,2,0,B|123:271|90:271|98:184,1,177
179,38,14297,1,0,0:0:0:0:
283,200,14467,1,0,0:0:0:0:
181,175,14636,1,0,0:0:0:0:
283,18,14806,6,0,P|269:60|260:103,1,88.5
311,310,15145,2,0,P|394:325|456:266,1,177
473,132,15653,1,0,0:0:0:0:
283,200,15823,1,0,0:0:0:0:
344,70,15992,1,0,0:0:0:0:
371,244,16162,6,0,B|377:165|377:165|373:144|373:144|380:67,2,177
260,103,17009,1,0,0:0:0:0:
141,304,17179,1,0,0:0:0:0:
283,200,17348,1,0,0:0:0:0:
25,136,17518,6,0,P|62:113|105:103,1,88.5
219,338,17857,2,0,B|174:335|141:303|141:303|97:314|52:300,1,177
98,207,18365,1,0,0:0:0:0:
238,360,18535,1,0,0:0:0:0:
206,248,18704,1,0,0:0:0:0:
423,358,18874,6,0,L|428:264,1,88.5
278,111,19213,2,0,L|282:199,1,88.5
407,34,19552,1,0,0:0:0:0:
368,229,19721,1,0,0:0:0:0:
242,40,19891,1,0,0:0:0:0:
452,115,20060,6,0,B|369:135|369:88|277:111,1,177
77,117,20569,1,0,0:0:0:0:
133,34,20738,2,0,P|164:64|176:106,1,88.5
191,224,21077,1,0,0:0:0:0:
0,158,21247,1,0,0:0:0:0:
77,117,21416,1,0,0:0:0:0:
140,320,21586,6,0,P|54:316|3:247,2,177
203,197,22433,1,0,0:0:0:0:
332,355,22603,2,0,L|337:261,1,88.5
452,115,22941,5,0,0:0:0:0:
489,250,23111,1,0,0:0:0:0:
344,101,23280,2,0,L|340:190,1,88.5
98,153,23619,1,0,0:0:0:0:
315,22,23789,1,0,0:0:0:0:
247,293,23958,1,0,0:0:0:0:
204,83,24128,1,0,0:0:0:0:
71,332,24297,6,0,P|114:326|153:305,1,88.5
76,135,24636,2,0,L|72:223,1,88.5
89,248,24891,1,0,0:0:0:0:
88,248,24975,1,0,0:0:0:0:
13,49,25145,1,0,0:0:0:0:
36,33,25484,6,0,B|121:35|109:80|204:82,1,177
392,0,25992,1,0,0:0:0:0:
339,135,26162,2,0,P|296:146|251:148,1,88.5
325,51,26501,1,0,0:0:0:0:
484,187,26670,1,0,0:0:0:0:
436,82,26840,1,0,0:0:0:0:
335,281,27009,6,0,P|378:282|419:264,1,88.5
174,160,27348,2,0,B|137:214|153:283|153:283|175:288|200:275,1,177
203,81,27857,1,0,0:0:0:0:
78,267,28026,1,0,0:0:0:0:
239,201,28196,1,0,0:0:0:0:
68,46,28365,5,0,0:0:0:0:
7,209,28535,1,0,0:0:0:0:
169,7,28704,1,0,0:0:0:0:
239,201,28874,1,0,0:0:0:0:
448,39,29043,5,0,0:0:0:0:
310,0,29213,1,0,0:0:0:0:
370,205,29382,1,0,0:0:0:0:
381,91,29552,1,0,0:0:0:0:
240,291,29721,6,0,P|196:292|153:283,1,88.5
48,132,30060,2,0,P|92:130|135:139,1,88.5
174,160,30314,1,0,0:0:0:0:
174,160,30399,1,0,0:0:0:0:
289,17,30569,1,0,0:0:0:0:
313,31,30908,6,0,B|305:118|338:118|324:207,1,177
440,351,31416,1,0,0:0:0:0:
420,239,31586,1,0,0:0:0:0:
273,362,31755,2,0,P|293:353|314:347,1,44.25
249,223,31925,2,0,P|239:244|224:263,1,44.25
128,355,32094,2,0,P|137:335|140:313,1,44.25
82,189,32264,2,0,P|103:191|124:199,1,44.25
25,383,32433,6,0,P|20:339|12:296,1,88.5
45,105,32772,2,0,B|99:68|168:84|168:84|173:106|160:131,1,177
83,266,33280,1,0,0:0:0:0:
260,179,33450,1,0,0:0:0:0:
160,130,33619,1,0,0:0:0:0:
311,300,33789,5,0,0:0:0:0:
345,183,33958,1,0,0:0:0:0:
201,346,34128,1,0,0:0:0:0:
164,163,34297,1,0,0:0:0:0:
404,298,34467,5,0,0:0:0:0:
221,246,34636,1,0,0:0:0:0:
428,131,34806,1,0,0:0:0:0:
317,275,34975,1,0,0:0:0:0:
360,55,35145,6,0,P|400:36|444:32,1,88.5
448,224,35484,2,0,P|404:219|363:201,1,88.5
244,91,35823,1,0,0:0:0:0:
317,275,35992,1,0,0:0:0:0:
360,55,36162,1,0,0:0:0:0:
215,240,36331,6,0,B|169:240|134:211|134:211|91:226|45:216,1,177
83,47,36840,2,0,L|86:135,1,88.5
94,298,37179,1,0,0:0:0:0:
201,157,37348,1,0,0:0:0:0:
0,299,37518,1,0,0:0:0:0:
134,213,37687,1,0,0:0:0:0:
325,361,37857,6,0,P|410:360|461:292,1,177
360,181,38365,2,0,L|365:270,1,88.5
456,168,38704,1,0,0:0:0:0:
258,236,38874,1,0,0:0:0:0:
369,61,39043,6,0,P|280:55|192:45,1,177
48,194,39552,2,0,P|92:189|136:186,1,88.5
45,96,39891,1,0,0:0:0:0:
145,272,40060,1,0,0:0:0:0:
192,45,40230,1,0,0:0:0:0:
136,186,40399,1,0,0:0:0:0:
372,259,40569,5,0,0:0:0:0:
372,259,40908,1,0,0:0:0:0:
283,97,41077,1,0,0:0:0:0:
247,347,41247,1,0,0:0:0:0:
466,163,41416,1,0,0:0:0:0:
189,65,41586,1,0,0:0:0:0:
336,335,41755,1,0,0:0:0:0:
438,28,41925,1,0,0:0:0:0:
281,124,42094,6,0,P|210:121|147:91,2,141.6
424,257,42941,2,0,P|382:208|318:215,1,132.75
261,270,43280,6,0,P|266:319|275:375,1,106.199996759033
72,198,43619,2,0,P|67:247|57:303,1,106.199996759033
0,38,43958,2,0,B|80:23|80:71|156:52,1,159.29999513855
188,19,44297,1,0,0:0:0:0:
173,225,44467,2,0,P|120:217|71:197,1,106.199996759033
434,179,44806,6,0,P|451:125|457:74,1,106.199996759033
253,204,45145,2,0,P|236:150|230:99,1,106.199996759033
457,194,45484,2,0,P|474:140|480:89,1,106.199996759033
270,234,45823,1,0,0:0:0:0:
362,47,45992,6,0,L|354:262,1,212.399993518067
230,100,46501,1,0,0:0:0:0:
201,321,46670,1,0,0:0:0:0:
354,259,46840,1,0,0:0:0:0:
140,172,47009,1,0,0:0:0:0:
381,347,47179,6,0,P|328:345|281:322,1,106.199996759033
432,193,47518,2,0,P|400:234|353:259,1,106.199996759033
101,347,47857,2,0,P|154:345|201:322,1,106.199996759033
50,193,48196,2,0,P|82:234|129:259,1,106.199996759033
256,118,48535,1,0,0:0:0:0:
43,43,48704,5,0,0:0:0:0:
140,172,48874,1,0,0:0:0:0:
307,27,49043,2,0,P|256:11|203:8,1,106.199996759033
340,175,49382,1,0,0:0:0:0:
402,35,49552,1,0,0:0:0:0:
494,214,49721,2,0,P|506:162|512:109,1,106.199996759033
287,315,50060,6,0,B|347:384|436:361|436:361|432:333|416:316,1,212.399993518067
326,194,50569,1,0,0:0:0:0:
180,360,50738,2,0,P|186:298|182:196,1,159.29999513855
166,162,51077,1,0,0:0:0:0:
336,53,51247,6,0,P|283:42|230:39,1,106.199996759033
102,97,51586,1,0,0:0:0:0:
326,194,51755,2,0,P|378:190|431:180,1,106.199996759033
238,114,52094,1,0,0:0:0:0:
323,284,52264,1,0,0:0:0:0:
113,282,52433,1,0,0:0:0:0:
255,197,52603,1,0,0:0:0:0:
121,379,52772,6,0,P|47:355|19:284,1,159.29999513855
32,228,53111,1,0,0:0:0:0:
211,343,53280,2,0,P|259:324|286:279,1,106.199996759033
227,77,53619,1,0,0:0:0:0:
113,282,53789,1,0,0:0:0:0:
336,154,53958,1,0,0:0:0:0:
100,73,54128,6,0,P|112:136|117:187,1,106.199996759033
211,343,54467,1,0,0:0:0:0:
304,145,54636,1,0,0:0:0:0:
430,325,54806,2,0,P|377:314|327:299,1,106.199996759033
215,111,55145,1,0,0:0:0:0:
401,202,55314,6,0,P|453:191|503:176,1,106.199996759033
350,64,55653,1,0,0:0:0:0:
265,237,55823,1,0,0:0:0:0:
452,89,55992,2,0,P|401:74|349:63,1,106.199996759033
191,137,56331,1,0,0:0:0:0:
327,299,56501,1,0,0:0:0:0:
309,145,56670,1,0,0:0:0:0:
177,348,56840,6,0,P|169:295|157:243,1,106.199996759033
108,74,57179,1,0,0:0:0:0:
263,221,57348,1,0,0:0:0:0:
68,226,57518,1,0,0:0:0:0:
232,91,57687,1,0,0:0:0:0:
177,348,57857,1,0,0:0:0:0:
401,154,58026,6,0,B|383:250|434:241|396:364,1,212.399993518067
460,92,58535,1,0,0:0:0:0:
256,193,58704,2,0,P|239:142|231:90,1,106.199996759033
354,13,59043,1,0,0:0:0:0:
124,86,59213,1,0,0:0:0:0:
321,116,59382,1,0,0:0:0:0:
119,300,59552,6,0,P|66:290|14:283,1,106.199996759033
149,110,59891,1,0,0:0:0:0:
269,286,60060,1,0,0:0:0:0:
46,207,60230,2,0,P|98:197|150:190,1,106.199996759033
274,372,60569,2,0,P|223:356|190:316,1,106.199996759033
426,325,60908,6,0,P|476:309|509:269,1,106.199996759033
512,67,61247,1,0,0:0:0:0:
429,232,61416,1,0,0:0:0:0:
306,56,61586,2,0,P|358:65|410:72,1,106.199996759033
313,240,61925,1,0,0:0:0:0:
455,150,62094,1,0,0:0:0:0:
212,71,62264,6,0,P|220:129|230:181,1,106.199996759033
269,360,62603,1,0,0:0:0:0:
331,142,62772,1,0,0:0:0:0:
124,246,62941,2,0,P|133:193|140:141,1,106.199996759033
358,283,63280,1,0,0:0:0:0:
178,354,63450,1,0,0:0:0:0:
358,248,63619,6,0,P|306:236|255:221,1,106.199996759033
47,168,63958,1,0,0:0:0:0:
269,91,64128,1,0,0:0:0:0:
111,318,64297,1,0,0:0:0:0:
72,68,64467,1,0,0:0:0:0:
167,237,64636,1,0,0:0:0:0:
255,121,64806,1,0,0:0:0:0:
393,231,64975,6,0,P|469:224|512:158,1,159.29999513855
488,56,65484,1,0,0:0:0:0:
348,154,65653,2,0,L|428:150,1,79.649997569275
330,36,65992,1,0,0:0:0:0:
255,121,66162,1,0,0:0:0:0:
117,28,66331,6,0,P|132:82|138:114,1,79.649997569275
152,223,66670,1,0,0:0:0:0:
255,121,66840,2,0,P|240:175|234:207,1,79.649997569275
236,301,67179,1,0,0:0:0:0:
154,254,67348,1,0,0:0:0:0:
84,314,67518,1,0,0:0:0:0:
13,151,67687,6,0,B|99:168|65:207|151:222,1,159.29999513855
255,121,68196,1,0,0:0:0:0:
390,232,68365,2,0,P|314:208|235:197,1,159.29999513855
353,127,68874,1,0,0:0:0:0:
469,273,69043,6,0,P|479:234|492:196,1,79.649997569275
303,288,69382,1,0,0:0:0:0:
353,127,69552,1,0,0:0:0:0:
367,349,69721,1,0,0:0:0:0:
171,294,69891,1,0,0:0:0:0:
335,108,70060,1,0,0:0:0:0:
281,374,70230,1,0,0:0:0:0:
112,219,70399,6,0,P|124:297|134:376,2,159.29999513855
90,78,71247,1,0,0:0:0:0:
267,180,71416,2,0,P|227:173|188:165,1,79.649997569275
392,34,71755,6,0,P|468:46|503:114,1,159.29999513855
490,210,72264,1,0,0:0:0:0:
334,127,72433,1,0,0:0:0:0:
421,314,72603,1,0,0:0:0:0:
420,115,72772,2,0,P|408:153|399:191,1,79.649997569275
288,351,73111,6,0,P|249:362|211:371,1,79.649997569275
59,255,73450,2,0,B|96:243|96:243|215:263,1,159.29999513855
115,336,73958,1,0,0:0:0:0:
238,113,74128,1,0,0:0:0:0:
293,245,74297,1,0,0:0:0:0:
142,94,74467,6,0,P|155:145|162:189,1,79.649997569275
60,50,74806,1,0,0:0:0:0:
264,108,74975,2,0,P|271:68|281:30,1,79.649997569275
359,170,75314,1,0,0:0:0:0:
422,60,75484,1,0,0:0:0:0:
512,249,75653,1,0,0:0:0:0:
512,249,75738,1,0,0:0:0:0:
511,248,75823,6,0,P|440:197|353:202,2,177
418,88,76670,1,0,0:0:0:0:
269,250,76840,1,0,0:0:0:0:
442,183,77009,1,0,0:0:0:0:
219,56,77179,5,0,0:0:0:0:
93,240,77348,2,0,P|32:216|6:157,1,132.75
156,110,77687,2,0,P|165:173|127:225,1,132.75
7,113,78026,2,0,P|37:82|80:72,1,88.5
255,200,78365,1,0,0:0:0:0:
255,200,78450,1,0,0:0:0:0:
255,199,78535,6,0,P|264:111|278:24,2,177
334,348,79382,2,0,P|319:337|294:327,1,44.25
421,263,79552,2,0,P|425:286|434:316,1,44.25
295,210,79721,2,0,P|310:198|335:188,1,44.25
456,147,79891,5,0,0:0:0:0:
278,29,80060,2,0,L|421:15,1,132.75
342,73,80399,2,0,L|199:59,1,132.75
279,116,80738,2,0,L|367:107,1,88.5
185,273,81077,1,0,0:0:0:0:
185,273,81162,1,0,0:0:0:0:
185,273,81247,6,0,B|87:286|127:231|14:243,2,177
62,138,82094,1,0,0:0:0:0:
41,346,82264,1,0,0:0:0:0:
156,187,82433,1,0,0:0:0:0:
310,365,82603,5,0,0:0:0:0:
440,213,82772,2,0,L|450:347,1,132.75
408,134,83111,2,0,L|398:268,1,132.75
442,61,83450,2,0,L|448:149,1,88.5
228,53,83789,1,0,0:0:0:0:
228,53,83874,1,0,0:0:0:0:
227,52,83958,6,0,P|143:25|55:33,1,177
219,243,84467,1,0,0:0:0:0:
329,51,84636,1,0,0:0:0:0:
82,191,84806,1,0,0:0:0:0:
358,295,84975,1,0,0:0:0:0:
227,52,85145,1,0,0:0:0:0:
293,339,85314,5,0,0:0:0:0:
315,83,85484,1,0,0:0:0:0:
165,371,85653,5,0,0:0:0:0:
129,94,85823,1,0,0:0:0:0:
268,237,85992,5,0,0:0:0:0:
354,162,86162,1,0,0:0:0:0:
461,274,86331,2,0,L|472:168,1,88.5
266,348,86670,6,0,B|164:356|196:314|93:317,1,177
6,243,87179,1,0,0:0:0:0:
171,236,87348,2,0,P|186:204|195:169,1,70.8
138,80,87687,1,0,0:0:0:0:
24,197,87857,6,0,P|8:165|0:130,1,70.8
150,110,88196,2,0,P|112:125|70:136,1,70.8
164,0,88535,2,0,P|197:9|230:23,1,70.8
339,112,88874,2,0,P|331:77|322:43,1,70.8
284,182,89213,1,0,0:0:0:0:
451,99,89382,6,0,P|438:151|427:240,1,141.6
425,350,89891,1,0,0:0:0:0:
241,287,90060,2,0,B|280:253|342:246|342:246|347:267|341:275,1,141.6
237,372,90569,2,0,P|203:362|173:342,1,70.8
158,168,90908,2,0,P|166:202|164:237,1,70.8
82,212,91247,1,0,0:0:0:0:
223,110,91416,1,0,0:0:0:0:
223,110,91586,2,0,P|194:89|160:80,1,70.8
266,203,91925,1,0,0:0:0:0:
266,203,92009,1,0,0:0:0:0:
265,203,92094,6,0,P|303:171|320:139,1,70.8
434,30,92433,2,0,B|347:33|389:71|301:72,1,141.6
153,37,92941,2,0,P|181:16|215:7,1,70.8
71,132,93280,6,0,P|66:84|61:55,1,70.8
203,186,93619,2,0,P|208:138|213:109,1,70.8
115,281,93958,2,0,P|110:233|105:204,1,70.8
250,336,94297,2,0,P|255:288|260:259,1,70.8
280,159,94636,1,0,0:0:0:0:
420,304,94806,6,0,P|486:290|512:227,1,141.6
499,94,95314,1,0,0:0:0:0:
340,209,95484,2,0,P|270:194|200:187,1,141.6
106,210,95992,1,0,0:0:0:0:
267,102,96162,6,0,P|218:95|186:88,1,70.8
357,227,96501,2,0,P|391:220|426:215,1,70.8
291,20,96840,1,0,0:0:0:0:
258,192,97009,1,0,0:0:0:0:
383,66,97179,1,0,0:0:0:0:
152,27,97348,6,0,P|64:55|45:145,1,194.700005941773
62,318,97857,1,0,0:0:0:0:
66,295,98196,1,0,0:0:0:0:
69,272,98535,1,0,0:0:0:0:
234,368,98704,6,0,B|356:360|296:320|417:310,1,194.700005941773
469,175,99213,1,0,0:0:0:0:
466,198,99552,1,0,0:0:0:0:
462,221,99891,1,0,0:0:0:0:
239,97,100060,6,0,P|308:31|403:32,1,194.700005941773
338,187,100569,1,0,0:0:0:0:
315,184,100908,1,0,0:0:0:0:
292,180,101247,1,0,0:0:0:0:
20,62,101586,6,0,P|78:61|203:37,1,177
308,5,102094,1,0,0:0:0:0:
231,192,102264,5,0,0:0:0:0:
185,228,102377,1,0,0:0:0:0:
126,233,102490,1,0,0:0:0:0:
69,216,102603,2,0,P|54:190|45:162,1,59
25,323,102828,1,0,0:0:0:0:
25,323,102941,6,0,B|122:311|87:363|196:349,2,177
126,133,103789,1,0,0:0:0:0:
185,228,103958,1,0,0:0:0:0:
49,84,104128,6,0,P|83:57|125:46,1,88.5
314,113,104467,2,0,P|279:85|237:74,1,88.5
367,263,104806,1,0,0:0:0:0:
432,89,104975,2,0,P|417:135|409:177,1,88.5
248,157,105314,2,0,P|263:203|271:245,1,88.5
493,366,105653,6,0,P|436:300|351:289,2,177
344,176,106501,1,0,0:0:0:0:
278,326,106670,1,0,0:0:0:0:
159,150,106840,1,0,0:0:0:0:
248,157,107009,5,0,0:0:0:0:
72,273,107179,1,0,0:0:0:0:
189,231,107348,1,0,0:0:0:0:
33,102,107518,1,0,0:0:0:0:
168,317,107687,2,0,P|177:273|188:230,1,88.5
138,63,108026,2,0,P|149:105|158:149,1,88.5
315,41,108365,6,0,P|338:27|363:19,1,44.25
263,153,108535,2,0,P|252:136|234:114,1,44.25
396,115,108704,2,0,P|381:134|370:156,1,44.25
320,265,108874,2,0,P|296:251|272:243,1,44.25
433,281,109043,1,0,0:0:0:0:
268,374,109213,1,0,0:0:0:0:
238,361,109552,6,0,P|153:339|65:334,1,177
200,161,110060,1,0,0:0:0:0:
23,253,110230,2,0,P|66:248|109:235,1,88.5
180,125,110569,1,0,0:0:0:0:
320,265,110738,2,0,P|276:260|233:247,1,88.5
90,148,111077,6,0,P|100:191|108:234,1,88.5
273,55,111416,2,0,P|194:19|107:25,1,177
287,183,111925,1,0,0:0:0:0:
367,22,112094,2,0,P|356:65|348:108,1,88.5
451,267,112433,5,0,0:0:0:0:
498,183,112603,1,0,0:0:0:0:
332,271,112772,1,0,0:0:0:0:
506,348,112941,1,0,0:0:0:0:
352,178,113111,5,0,0:0:0:0:
312,360,113280,1,0,0:0:0:0:
155,164,113450,1,0,0:0:0:0:
183,349,113619,1,0,0:0:0:0:
291,102,113789,6,0,P|314:85|342:71,1,44.25
211,218,113958,2,0,P|191:209|161:201,1,44.25
170,29,114128,2,0,P|179:54|183:84,1,44.25
57,132,114297,2,0,P|74:118|93:108,1,44.25
226,138,114467,1,0,0:0:0:0:
55,258,114636,1,0,0:0:0:0:
40,287,114975,6,0,B|142:291|99:334|206:336,1,177
302,167,115484,1,0,0:0:0:0:
373,349,115653,2,0,P|327:337|285:321,1,88.5
449,271,115992,1,0,0:0:0:0:
302,167,116162,1,0,0:0:0:0:
372,86,116331,1,0,0:0:0:0:
178,256,116501,6,0,P|224:244|266:228,1,88.5
393,73,116840,2,0,P|377:160|370:248,1,177
308,32,117348,1,0,0:0:0:0:
468,171,117518,1,0,0:0:0:0:
506,68,117687,1,0,0:0:0:0:
265,113,117857,5,0,0:0:0:0:
393,73,118026,1,0,0:0:0:0:
203,203,118196,1,0,0:0:0:0:
370,248,118365,1,0,0:0:0:0:
126,75,118535,5,0,0:0:0:0:
84,237,118704,1,0,0:0:0:0:
328,171,118874,1,0,0:0:0:0:
191,114,119043,1,0,0:0:0:0:
320,339,119213,6,0,P|328:295|340:252,1,88.5
117,343,119552,2,0,P|108:299|96:256,1,88.5
198,89,119891,1,0,0:0:0:0:
226,218,120060,1,0,0:0:0:0:
99,34,120230,1,0,0:0:0:0:
0,203,120399,6,0,P|49:160|114:145,1,132.75
143,191,120738,2,0,P|183:209|226:218,1,88.5
342,22,121077,2,0,P|298:30|258:49,1,88.5
337,218,121416,1,0,0:0:0:0:
430,48,121586,1,0,0:0:0:0:
317,110,121755,1,0,0:0:0:0:
495,243,121925,6,0,L|509:55,1,177
420,182,122433,1,0,0:0:0:0:
296,122,122603,1,0,0:0:0:0:
411,61,122772,1,0,0:0:0:0:
317,246,122941,1,0,0:0:0:0:
157,129,123111,6,0,P|95:91|-1:125,1,177
0,340,123619,1,0,0:0:0:0:
73,186,123789,1,0,0:0:0:0:
176,348,123958,2,0,P|132:343|89:331,1,88.5
257,185,124297,1,0,0:0:0:0:
310,337,124467,1,0,0:0:0:0:
406,134,124636,6,0,B|442:115|489:127|489:127|505:179|468:210,1,177
242,274,125145,1,0,0:0:0:0:
333,52,125314,1,0,0:0:0:0:
451,302,125484,1,0,0:0:0:0:
198,168,125653,1,0,0:0:0:0:
489,128,125823,1,0,0:0:0:0:
286,380,125992,1,0,0:0:0:0:
150,274,126162,6,0,P|88:240|18:238,2,141.6
244,88,127009,2,0,P|177:67|130:118,1,146.025004456329
198,168,127348,6,0,P|250:163|302:150,1,106.199996759033
452,310,127687,2,0,P|400:297|347:291,1,106.199996759033
470,52,128026,2,0,B|449:126|488:126|468:213,1,159.29999513855
440,225,128365,1,0,0:0:0:0:
272,48,128535,6,0,P|291:97|301:149,1,106.199996759033
216,316,128874,2,0,P|167:337|115:342,1,106.199996759033
351,283,129213,2,0,P|399:304|451:309,1,106.199996759033
146,249,129552,2,0,P|103:218|72:174,1,106.199996759033
295,339,129891,1,0,0:0:0:0:
467,208,130060,6,0,P|401:132|301:149,1,212.399993518067
424,42,130569,1,0,0:0:0:0:
368,229,130738,1,0,0:0:0:0:
512,113,130908,1,0,0:0:0:0:
277,55,131077,1,0,0:0:0:0:
103,187,131247,6,0,P|43:180|-8:164,1,106.199996759033
221,284,131586,2,0,P|165:307|113:319,1,106.199996759033
375,305,131925,2,0,P|338:353|299:389,1,106.199996759033
512,225,132264,2,0,P|504:285|489:336,1,106.199996759033
411,86,132603,1,0,0:0:0:0:
203,187,132772,6,0,P|126:180|88:114,1,159.29999513855
58,40,133111,2,0,P|110:34|161:19,1,106.199996759033
347,140,133450,2,0,P|296:125|243:119,1,106.199996759033
99,289,133789,2,0,P|149:274|202:268,1,106.199996759033
387,372,134128,6,0,P|480:366|514:293,1,159.29999513855
486,247,134467,2,0,P|487:193|493:141,1,106.199996759033
339,34,134806,2,0,P|344:86|346:139,1,106.199996759033
289,312,135145,1,0,0:0:0:0:
146,155,135314,6,0,P|191:127|243:119,1,106.199996759033
366,211,135653,1,0,0:0:0:0:
191,347,135823,2,0,P|138:338|93:311,1,106.199996759033
244,212,136162,1,0,0:0:0:0:
52,181,136331,1,0,0:0:0:0:
250,27,136501,1,0,0:0:0:0:
168,258,136670,1,0,0:0:0:0:
0,39,136840,1,0,0:0:0:0:
371,183,137687,5,0,0:0:0:0:
124,86,137857,1,0,0:0:0:0:
124,366,138026,1,0,0:0:0:0:
268,57,138196,6,0,P|266:110|259:162,1,106.199996759033
453,297,138535,1,0,0:0:0:0:
400,107,138704,1,0,0:0:0:0:
232,250,138874,2,0,P|169:243|126:232,1,106.199996759033
268,57,139213,1,0,0:0:0:0:
65,167,139382,6,0,P|77:115|82:62,1,106.199996759033
232,250,139721,1,0,0:0:0:0:
182,100,139891,1,0,0:0:0:0:
384,210,140060,2,0,P|371:158|366:105,1,106.199996759033
481,243,140399,1,0,0:0:0:0:
287,359,140569,1,0,0:0:0:0:
298,203,140738,1,0,0:0:0:0:
500,351,140908,6,0,P|448:363|395:368,1,106.199996759033
188,353,141247,1,0,0:0:0:0:
370,289,141416,1,0,0:0:0:0:
202,170,141586,1,0,0:0:0:0:
287,359,141755,1,0,0:0:0:0:
289,102,141925,1,0,0:0:0:0:
152,260,142094,6,0,P|115:222|100:171,1,106.199996759033
332,298,142433,2,0,P|368:260|383:209,1,106.199996759033
238,22,142772,1,0,0:0:0:0:
286,218,142941,1,0,0:0:0:0:
418,59,143111,2,0,P|366:71|313:76,1,106.199996759033
145,75,143450,1,0,0:0:0:0:
383,209,143619,6,0,P|434:221|487:226,1,106.199996759033
176,91,143958,1,0,0:0:0:0:
226,299,144128,1,0,0:0:0:0:
104,153,144297,2,0,P|52:140|0:135,1,106.199996759033
217,384,144636,2,0,P|267:370|303:332,1,106.199996759033
267,103,144975,6,0,P|270:157|279:221,1,106.199996759033
347,25,145314,1,0,0:0:0:0:
187,184,145484,1,0,0:0:0:0:
383,243,145653,2,0,P|435:237|487:225,1,106.199996759033
337,46,145992,1,0,0:0:0:0:
276,208,146162,1,0,0:0:0:0:
104,68,146331,6,0,P|145:35|196:23,1,106.199996759033
62,249,146670,1,0,0:0:0:0:
0,49,146840,1,0,0:0:0:0:
178,219,147009,2,0,L|182:112,1,106.199996759033
266,302,147348,1,0,0:0:0:0:
96,175,147518,1,0,0:0:0:0:
312,211,147687,6,0,P|370:201|415:180,1,106.199996759033
246,50,148026,1,0,0:0:0:0:
251,324,148196,1,0,0:0:0:0:
251,324,148280,1,0,0:0:0:0:
251,324,148365,1,0,0:0:0:0:
336,128,148535,1,0,0:0:0:0:
178,219,148704,1,0,0:0:0:0:
352,301,148874,1,0,0:0:0:0:
183,117,149043,6,0,B|105:117|120:170|37:170,1,159.29999513855
88,46,149552,1,0,0:0:0:0:
201,208,149721,2,0,P|236:191|276:184,1,79.649997569275
420,217,150060,1,0,0:0:0:0:
360,119,150230,1,0,0:0:0:0:
352,301,150399,6,0,P|312:293|276:277,1,79.649997569275
201,208,150738,1,0,0:0:0:0:
93,332,150908,2,0,P|132:324|168:308,1,79.649997569275
46,242,151247,1,0,0:0:0:0:
114,171,151416,1,0,0:0:0:0:
41,107,151586,1,0,0:0:0:0:
200,13,151755,6,0,P|279:27|358:29,1,159.29999513855
469,19,152264,1,0,0:0:0:0:
464,196,152433,2,0,P|424:129|348:110,1,159.29999513855
287,193,152941,1,0,0:0:0:0:
129,79,153111,6,0,P|141:123|146:164,1,79.649997569275
163,298,153450,1,0,0:0:0:0:
234,123,153619,1,0,0:0:0:0:
332,327,153789,1,0,0:0:0:0:
198,215,153958,1,0,0:0:0:0:
428,96,154128,1,0,0:0:0:0:
318,218,154297,1,0,0:0:0:0:
153,48,154467,6,0,P|78:21|0:19,2,159.29999513855
202,199,155314,1,0,0:0:0:0:
343,54,155484,2,0,P|307:36|268:26,1,79.649997569275
406,258,155823,6,0,B|425:179|394:181|409:99,1,159.29999513855
469,32,156331,1,0,0:0:0:0:
343,54,156501,1,0,0:0:0:0:
486,137,156670,1,0,0:0:0:0:
318,218,156840,2,0,P|279:208|243:190,1,79.649997569275
58,72,157179,6,0,P|70:109|77:148,1,79.649997569275
90,303,157518,1,0,0:0:0:0:
169,105,157687,1,0,0:0:0:0:
318,218,157857,2,0,P|325:178|337:141,1,79.649997569275
206,349,158196,1,0,0:0:0:0:
166,141,158365,1,0,0:0:0:0:
377,300,158535,5,0,0:0:0:0:
104,284,158704,1,0,0:0:0:0:
317,79,158874,1,0,0:0:0:0:
306,384,159043,1,0,0:0:0:0:
96,98,159213,1,0,0:0:0:0:
428,125,159382,1,0,0:0:0:0:
428,125,159467,1,0,0:0:0:0:
427,125,159552,2,0,P|447:119|464:110,1,39.8249987846375
281,91,159721,2,0,P|272:108|266:127,1,39.8249987846375
393,273,159891,6,0,P|437:263|475:250,1,79.649997569275
220,315,160230,2,0,P|176:305|138:292,1,79.649997569275
346,160,160569,1,0,0:0:0:0:
310,296,160738,1,0,0:0:0:0:
184,141,160908,1,0,0:0:0:0:
276,204,161077,1,0,0:0:0:0:
58,299,161247,6,0,P|66:262|70:220,1,79.649997569275
171,62,161586,2,0,P|175:101|183:140,1,79.649997569275
310,296,161925,1,0,0:0:0:0:
354,139,162094,1,0,0:0:0:0:
220,315,162264,1,0,0:0:0:0:
185,167,162433,1,0,0:0:0:0:
410,302,162603,6,0,P|445:285|470:254,1,79.649997569275
227,296,162941,2,0,P|191:279|166:248,1,79.649997569275
246,64,163280,1,0,0:0:0:0:
294,213,163450,1,0,0:0:0:0:
429,61,163619,1,0,0:0:0:0:
399,219,163789,1,0,0:0:0:0:
217,47,163958,6,0,P|138:33|58:31,1,159.29999513855
0,184,164467,1,0,0:0:0:0:
139,158,164636,1,0,0:0:0:0:
80,273,164806,1,0,0:0:0:0:
64,104,164975,1,0,0:0:0:0:
212,200,165145,1,0,0:0:0:0:
5,300,165314,6,0,P|40:282|79:272,1,79.649997569275
240,363,165653,2,0,P|201:352|165:335,1,79.649997569275
139,158,165992,1,0,0:0:0:0:
231,279,166162,1,0,0:0:0:0:
330,106,166331,1,0,0:0:0:0:
212,200,166501,1,0,0:0:0:0:
395,291,166670,6,0,P|430:308|469:318,1,79.649997569275
512,98,167009,2,0,P|473:108|437:125,1,79.649997569275
296,206,167348,1,0,0:0:0:0:
387,32,167518,1,0,0:0:0:0:
491,206,167687,1,0,0:0:0:0:
348,100,167857,1,0,0:0:0:0:
199,278,168026,6,0,P|207:239|212:199,1,79.649997569275
107,53,168365,2,0,P|115:91|120:131,1,79.649997569275
0,266,168704,1,0,0:0:0:0:
19,110,168874,1,0,0:0:0:0:
174,286,169043,1,0,0:0:0:0:
348,100,169213,6,0,B|429:97|402:151|496:147,1,159.29999513855
288,219,169721,2,0,P|245:211|210:199,1,79.649997569275
107,53,170060,2,0,P|144:40|183:34,1,79.649997569275
32,234,170399,1,0,0:0:0:0:
48,261,170738,6,0,P|60:298|67:338,1,79.649997569275
211,199,171077,2,0,P|198:236|191:276,1,79.649997569275
17,77,171416,2,0,P|29:114|36:154,1,79.649997569275
183,34,171755,2,0,P|170:71|163:111,1,79.649997569275
359,18,172094,6,0,P|435:30|464:100,1,159.29999513855
428,203,172603,1,0,0:0:0:0:
280,51,172772,2,0,P|292:88|299:128,1,79.649997569275
408,279,173111,2,0,P|415:239|428:202,1,79.649997569275
235,354,173450,6,0,B|147:361|178:310|83:321,1,159.29999513855
15,212,173958,1,0,0:0:0:0:
215,267,174128,2,0,P|260:258|295:244,1,79.649997569275
84,141,174467,2,0,P|39:132|4:118,1,79.649997569275
250,33,174806,6,0,P|242:79|238:119,1,79.649997569275
314,252,175145,1,0,0:0:0:0:
380,96,175314,1,0,0:0:0:0:
353,331,175484,2,0,P|276:333|227:274,1,159.29999513855
158,105,175992,1,0,0:0:0:0:
111,365,176162,5,0,0:0:0:0:
314,252,176331,1,0,0:0:0:0:
79,164,176501,1,0,0:0:0:0:
252,384,176670,1,0,0:0:0:0:
301,97,176840,1,0,0:0:0:0:
83,259,177009,1,0,0:0:0:0:
396,244,177179,1,0,0:0:0:0:
207,60,177348,1,0,0:0:0:0:
285,348,177518,5,0,0:0:0:0:
312,62,177687,1,0,0:0:0:0:
98,282,177857,1,0,0:0:0:0:
412,160,178026,1,0,0:0:0:0:
87,84,178196,1,0,0:0:0:0:
205,379,178365,1,0,0:0:0:0:
384,29,178535,1,0,0:0:0:0:
20,133,178704,1,0,0:0:0:0:
360,376,178874,5,0,0:0:0:0:
272,14,179043,1,0,0:0:0:0:
267,373,179213,5,0,0:0:0:0:
358,11,179382,1,0,0:0:0:0:
178,377,179552,5,0,0:0:0:0:
93,19,179721,1,0,0:0:0:0:
83,377,179891,5,0,0:0:0:0:
183,17,180060,1,0,0:0:0:0:
403,251,180230,5,0,0:0:0:0:
93,244,180399,2,0,P|65:229|46:214,1,48.6750014854432
275,200,180569,2,0,P|286:228|293:255,1,48.6750014854432
164,72,180738,2,0,P|184:57|211:46,1,48.6750014854432
212,320,180908,2,0,P|189:310|170:295,1,48.6750014854432
334,67,181077,2,0,P|327:90|317:112,1,48.6750014854432
84,134,181247,2,0,P|106:143|125:158,1,48.6750014854432
319,342,181416,1,0,0:0:0:0:
319,342,181501,1,0,0:0:0:0:
319,341,181586,6,0,P|371:332|420:314,1,106.199996759033
214,84,181925,2,0,P|266:93|315:111,1,106.199996759033
69,292,182264,2,0,P|79:213|83:133,1,159.29999513855
84,92,182603,1,0,0:0:0:0:
288,192,182772,6,0,P|340:182|389:164,1,106.199996759033
217,384,183111,2,0,P|199:319|193:268,1,106.199996759033
420,314,183450,2,0,P|438:249|444:198,1,106.199996759033
200,384,183789,2,0,P|182:319|176:268,1,106.199996759033
166,83,184128,1,0,0:0:0:0:
352,254,184297,6,0,P|449:227|474:129,1,212.399993518067
253,102,184806,1,0,0:0:0:0:
483,0,184975,1,0,0:0:0:0:
386,165,185145,1,0,0:0:0:0:
275,0,185314,1,0,0:0:0:0:
98,182,185484,6,0,P|40:164|-7:140,1,106.199996759033,0|0,3:0|3:0,3:0:0:0:
197,298,185823,2,0,P|137:310|84:313,1,106.199996759033,0|0,3:0|3:0,3:0:0:0:
386,182,186162,2,0,P|443:164|491:140,1,106.199996759033,0|0,3:0|3:0,3:0:0:0:
287,298,186501,2,0,P|346:310|399:313,1,106.199996759033,0|0,3:0|3:0,3:0:0:0:
233,84,186840,1,0,0:0:0:0:
25,246,187009,6,0,P|13:192|-2:142,1,106.199996759033
197,4,187348,2,0,P|190:78|185:225,1,212.399993518067
88,80,187857,1,0,0:0:0:0:
296,179,188026,2,0,P|308:125|323:75,1,106.199996759033
443,360,188365,6,0,B|318:352|387:300|243:304,2,212.399993518067
309,201,189213,1,0,0:0:0:0:
202,384,189382,1,0,0:0:0:0:
25,246,189552,6,0,P|66:212|117:200,1,106.199996759033
243,304,189891,1,0,0:0:0:0:
404,144,190060,2,0,P|362:110|311:98,1,106.199996759033
136,125,190399,1,0,0:0:0:0:
325,18,190569,1,0,0:0:0:0:
393,254,190738,1,0,0:0:0:0:
219,78,190908,1,0,0:0:0:0:
57,322,191077,6,0,P|128:287|207:276,1,159.29999513855
243,304,191416,1,0,0:0:0:0:
116,147,191586,2,0,P|66:130|14:121,1,106.199996759033
307,251,191925,2,0,P|359:241|409:224,1,106.199996759033
507,125,192264,1,0,0:0:0:0:
269,168,192433,6,0,P|198:137|182:62,1,159.29999513855
228,0,192772,2,0,P|278:17|330:27,1,106.199996759033
512,218,193111,2,0,P|458:130|356:118,1,212.399993518067
154,351,193619,6,0,P|105:372|53:377,1,106.199996759033
258,350,193958,2,0,P|306:371|358:376,1,106.199996759033
84,284,194297,2,0,P|41:253|10:209,1,106.199996759033
332,280,194636,2,0,P|375:249|406:205,1,106.199996759033
330,27,194975,1,0,0:0:0:0:
107,195,195145,6,0,B|237:192|172:140|306:136,1,212.399993518067
125,59,195653,1,0,0:0:0:0:
270,216,195823,1,0,0:0:0:0:
319,51,195992,1,0,0:0:0:0:
107,195,196162,1,0,0:0:0:0:
402,176,196331,6,0,P|357:148|305:135,1,106.199996759033
28,99,196670,2,0,P|72:71|124:58,1,106.199996759033
122,306,197009,2,0,P|70:293|25:265,1,106.199996759033
161,134,197348,1,0,0:0:0:0:
215,357,197518,1,0,0:0:0:0:
402,176,197687,6,0,P|410:228|423:279,1,106.199996759033
434,70,198026,1,0,0:0:0:0:
241,196,198196,2,0,P|254:144|262:92,1,106.199996759033
310,292,198535,2,0,P|259:308|207:308,1,106.199996759033
48,143,198874,2,0,P|100:142|150:159,1,106.199996759033
51,378,199213,6,0,B|60:262|18:288|24:168,1,212.399993518067
89,39,199721,1,0,0:0:0:0:
241,196,199891,2,0,P|293:190|346:181,1,106.199996759033
114,19,200230,1,0,0:0:0:0:
102,224,200399,1,0,0:0:0:0:
298,31,200569,6,0,P|375:27|424:87,1,159.29999513855
418,163,200908,2,0,P|426:215|439:266,1,106.199996759033
231,379,201247,2,0,P|243:327|252:275,1,106.199996759033
164,43,201586,1,0,0:0:0:0:
102,224,201755,1,0,0:0:0:0:
333,111,201925,5,0,0:0:0:0:
127,125,202094,1,0,0:0:0:0:
241,196,202264,1,0,0:0:0:0:
164,43,202433,1,0,0:0:0:0:
91,257,202603,1,0,0:0:0:0:
35,175,202772,1,0,0:0:0:0:
169,224,202941,1,0,0:0:0:0:
66,286,203111,1,0,0:0:0:0:
234,359,203280,6,0,P|309:364|368:310,1,159.29999513855
326,223,203789,1,0,0:0:0:0:
465,328,203958,2,0,L|472:233,1,79.649997569275
412,151,204297,1,0,0:0:0:0:
484,77,204467,1,0,0:0:0:0:
321,26,204636,6,0,P|357:10|396:2,1,79.649997569275
299,131,204975,1,0,0:0:0:0:
214,15,205145,2,0,P|212:54|206:94,1,79.649997569275
179,196,205484,1,0,0:0:0:0:
85,133,205653,1,0,0:0:0:0:
43,329,205823,1,0,0:0:0:0:
35,237,205992,6,0,B|123:242|97:288|180:292,1,159.29999513855
366,206,206501,1,0,0:0:0:0:
265,161,206670,2,0,P|280:239|289:318,1,159.29999513855
179,196,207179,1,0,0:0:0:0:
375,98,207348,6,0,P|327:90|289:81,1,79.649997569275
438,22,207687,1,0,0:0:0:0:
419,184,207857,1,0,0:0:0:0:
336,18,208026,1,0,0:0:0:0:
179,196,208196,1,0,0:0:0:0:
301,7,208365,1,0,0:0:0:0:
350,272,208535,1,0,0:0:0:0:
60,53,208704,6,0,P|67:99|79:233,2,177
179,196,209552,1,0,0:0:0:0:
306,44,209721,2,0,P|267:22|223:17,1,88.5
370,237,210060,6,0,P|449:205|474:123,2,177
207,169,210908,1,0,0:0:0:0:
115,357,211077,2,0,P|158:352|202:343,1,88.5
284,105,211416,6,0,P|248:79|205:69,1,88.5
103,262,211755,1,0,0:0:0:0:
49,102,211925,1,0,0:0:0:0:
223,252,212094,1,0,0:0:0:0:
78,177,212264,1,0,0:0:0:0:
284,105,212433,1,0,0:0:0:0:
234,338,212603,1,0,0:0:0:0:
126,73,212772,5,0,0:0:0:0:
386,124,212941,1,0,0:0:0:0:
96,217,213111,5,0,0:0:0:0:
364,206,213280,1,0,0:0:0:0:
157,354,213450,5,0,0:0:0:0:
203,94,213619,1,0,0:0:0:0:
374,312,213789,6,0,P|416:302|451:275,1,88.5
368,30,214128,6,0,B|350:108|385:110|363:205,1,177
220,18,214636,1,0,0:0:0:0:
104,194,214806,2,0,P|62:209|18:214,1,88.5
113,19,215145,2,0,P|156:23|198:39,1,88.5
363,205,215484,6,0,P|460:205|499:132,1,177
320,78,215992,1,0,0:0:0:0:
348,288,216162,1,0,0:0:0:0:
412,140,216331,1,0,0:0:0:0:
207,240,216501,2,0,P|175:209|160:168,1,88.5
392,373,216840,6,0,P|423:342|438:301,1,88.5
246,126,217179,1,0,0:0:0:0:
224,352,217348,1,0,0:0:0:0:
16,241,217518,2,0,P|60:238|107:229,1,88.5
316,172,217857,1,0,0:0:0:0:
158,42,218026,6,0,P|76:66|52:148,1,177
270,250,218535,2,0,P|226:241|182:238,1,88.5
345,81,218874,1,0,0:0:0:0:
361,309,219043,1,0,0:0:0:0:
234,81,219213,1,0,0:0:0:0:
182,238,219382,1,0,0:0:0:0:
433,106,219552,6,0,P|451:146|462:189,1,88.5
354,349,219891,1,0,0:0:0:0:
325,112,220060,1,0,0:0:0:0:
168,270,220230,2,0,P|126:283|82:290,1,88.5
220,73,220569,1,0,0:0:0:0:
306,226,220738,1,0,0:0:0:0:
456,23,220908,6,0,B|355:36|403:75|296:90,1,177
101,23,221416,1,0,0:0:0:0:
306,226,221586,2,0,P|349:219|391:205,1,88.5
146,101,221925,2,0,P|125:140|113:182,1,88.5
287,336,222264,6,0,P|245:322|201:315,1,88.5
33,300,222603,1,0,0:0:0:0:
225,167,222772,1,0,0:0:0:0:
143,384,222941,2,0,P|122:344|110:302,1,88.5
146,101,223280,1,0,0:0:0:0:
257,243,223450,1,0,0:0:0:0:
39,103,223619,6,0,P|79:26|162:3,1,177
327,66,224128,1,0,0:0:0:0:
229,289,224297,5,0,0:0:0:0:
213,66,224467,1,0,0:0:0:0:
367,301,224636,6,0,P|410:297|448:274,1,88.5
157,205,224975,2,0,P|180:290|195:377,1,177
263,137,225484,1,0,0:0:0:0:
64,225,225653,2,0,P|70:181|85:139,1,88.5
197,8,225992,1,0,0:0:0:0:
262,175,226162,1,0,0:0:0:0:
478,66,226331,6,0,P|416:7|330:9,1,177
262,213,226840,1,0,0:0:0:0:
455,150,227009,2,0,P|418:128|375:118,1,88.5
196,276,227348,1,0,0:0:0:0:
224,301,227687,6,0,B|330:307|295:265|393:261,1,177
204,140,228196,1,0,0:0:0:0:
84,320,228365,2,0,P|40:310|3:287,1,88.5
79,78,228704,1,0,0:0:0:0:
146,238,228874,1,0,0:0:0:0:
303,69,229043,6,0,P|292:111|285:155,1,88.5
251,357,229382,1,0,0:0:0:0:
128,151,229552,2,0,P|138:193|145:237,1,88.5
339,325,229891,2,0,P|345:281|356:238,1,88.5
461,136,230230,1,0,0:0:0:0:
229,32,230399,6,0,P|141:27|67:72,1,177
66,261,230908,1,0,0:0:0:0:
253,113,231077,2,0,P|242:155|235:199,1,88.5
228,377,231416,1,0,0:0:0:0:
378,151,231586,6,0,P|388:193|395:237,1,88.5
253,113,231925,1,0,0:0:0:0:
231,333,232094,1,0,0:0:0:0:
87,167,232264,1,0,0:0:0:0:
311,262,232433,2,0,P|354:254|395:237,1,88.5
166,88,232772,1,0,0:0:0:0:
143,314,232941,1,0,0:0:0:0:
321,59,233111,5,0,0:0:0:0:
357,335,233280,1,0,0:0:0:0:
162,57,233450,5,0,0:0:0:0:
126,333,233619,1,0,0:0:0:0:
337,31,233789,5,0,0:0:0:0:
380,363,233958,1,0,0:0:0:0:
145,28,234128,5,0,0:0:0:0:
102,360,234297,1,0,0:0:0:0:
365,144,234467,6,0,P|382:130|402:121,1,44.25
310,307,234636,2,0,P|290:297|272:284,1,44.25
221,79,234806,2,0,P|228:104|233:133,1,44.25
110,258,234975,2,0,P|114:236|120:215,1,44.25
141,103,235145,1,0,0:0:0:0:
383,384,235314,5,0,0:0:0:0:
235,50,235484,1,0,0:0:0:0:
87,384,235653,1,0,0:0:0:0:
272,284,235823,5,0,0:0:0:0:
36,45,236501,6,0,L|44:150,1,106.2
25,251,237179,2,0,P|66:219|119:214,1,106.2
186,263,237857,1,0,0:0:0:0:
393,350,238535,6,0,B|403:296|383:296|384:245,1,106.2
454,160,239213,2,0,P|401:151|351:134,1,106.2
308,50,239891,6,0,P|341:39|376:35,1,70.8
281,192,240569,2,0,P|245:188|212:177,1,70.8
58,45,241247,6,0,P|67:80|72:120,1,70.8
36,275,241925,2,0,P|58:236|124:205,1,106.2
178,241,242603,5,0,0:0:0:0:
254,90,243280,1,0,0:0:0:0:
