osu file format v14

[General]
AudioFilename: audio.mp3
AudioLeadIn: 0
PreviewTime: 97481
Countdown: 0
SampleSet: Soft
StackLeniency: 0.7
Mode: 0
LetterboxInBreaks: 0
WidescreenStoryboard: 0

[Editor]
Bookmarks: 2651,13498
DistanceSpacing: 1.1
BeatDivisor: 4
GridSize: 4
TimelineZoom: 2

[Metadata]
Title:Kimi ni Pierrot
TitleUnicode:君にピエロ
Artist:LiSA
ArtistUnicode:LiSA
Creator:A r M i N
Version:Sotarks' Emotions
Source:
Tags:risa oribe launcher Osatia JenHideo Waku Sotarks bite you death byd armin a_r_m_i_n Shunao ShogunMoon Garden SnowNiNo_ NiNo
BeatmapID:1630299
BeatmapSetID:775766

[Difficulty]
HPDrainRate:5
CircleSize:3.8
OverallDifficulty:9.3
ApproachRate:9.4
SliderMultiplier:1.82
SliderTickRate:1

[Events]
//Background and Video events
0,0,"BG.jpg",0,0
//Break Periods
//Storyboard Layer 0 (Background)
//Storyboard Layer 1 (Fail)
//Storyboard Layer 2 (Pass)
//Storyboard Layer 3 (Foreground)
//Storyboard Sound Samples

[TimingPoints]
2651,338.983050847458,4,2,22,32,1,0
2651,-138.888888888889,4,2,22,32,0,0
13498,-108.695652173913,4,2,22,62,0,0
42142,-138.888888888889,4,2,22,42,0,0
42989,-81.9672131147541,4,2,22,62,0,0
43244,-81.9672131147541,4,2,22,5,0,0
43328,-98.0392156862745,4,2,22,72,0,0
65023,-121.951219512195,4,2,22,52,0,0
69261,-108.695652173913,4,2,22,62,0,0
70447,-98.0392156862745,4,2,22,62,0,0
92142,-98.0392156862745,4,2,22,72,0,1
94854,-98.0392156862745,4,2,22,82,0,1
97566,-89.2857142857143,4,2,22,72,0,0
119261,-108.695652173913,4,2,22,52,0,0
124684,-98.0392156862745,4,2,22,62,0,0
151803,-192.307692307692,4,2,22,42,0,0
159939,-450.307692307692,4,2,22,32,0,0
164006,-450.307692307692,4,2,22,12,0,0
168074,-450.307692307692,4,2,22,5,0,0

[Colours]
Combo1 : 255,191,149
Combo2 : 255,162,251
Combo3 : 249,252,126
Combo4 : 255,147,147
SliderBorder : 255,226,226

[HitObjects]
76,104,2651,6,0,B|160:92|120:136|228:120,1,131.040003199219,2|0,0:0|0:0,0:0:0:0:
380,69,3159,2,0,P|324:37|265:60,1,131.040003199219,2|0,0:0|0:0,0:0:0:0:
254,197,3667,1,2,0:0:0:0:
319,136,3837,1,2,0:0:0:0:
301,270,4006,6,0,P|256:242|176:229,1,131.040003199219,2|0,0:0|0:0,0:0:0:0:
34,260,4515,2,0,P|83:225|77:134,1,131.040003199219,2|0,0:0|0:0,0:0:0:0:
71,33,5023,1,2,0:0:0:0:
20,103,5193,1,2,0:0:0:0:
183,33,5362,6,0,P|224:33|291:110,1,131.040003199219,2|0,0:0|0:0,0:0:0:0:
399,163,5871,2,0,B|315:151|355:195|247:179,1,131.040003199219,2|0,0:0|0:0,0:0:0:0:
196,123,6379,1,2,0:0:0:0:
180,213,6549,1,2,0:0:0:0:
49,127,6718,6,0,P|74:180|75:275,1,131.040003199219,2|0,0:0|0:0,0:0:0:0:
220,320,7227,1,2,0:0:0:0:
167,230,7396,1,0,0:0:0:0:
132,341,7566,1,2,0:0:0:0:
79,251,7735,2,0,P|73:188|66:171,1,65.5200015996094,2|0,0:0|0:0,0:0:0:0:
174,64,8074,6,0,P|222:33|295:59,1,131.040003199219,2|0,0:0|0:0,0:0:0:0:
358,153,8583,2,0,P|297:173|242:141,1,131.040003199219,2|0,0:0|0:0,0:0:0:0:
289,52,9091,1,2,0:0:0:0:
405,64,9261,1,2,0:0:0:0:
242,141,9430,6,0,L|105:109,1,131.040003199219,2|0,0:0|0:0,0:0:0:0:
23,233,9939,2,0,P|82:195|161:203,1,131.040003199219,2|0,0:0|0:0,0:0:0:0:
256,272,10447,2,0,P|214:268|187:243,1,65.5200015996094,2|0,0:0|0:0,0:0:0:0:
331,129,10786,6,0,L|350:271,1,131.040003199219,2|0,0:0|0:0,0:0:0:0:
451,337,11295,2,0,L|468:268,1,65.5200015996094,2|0,0:0|0:0,0:0:0:0:
417,193,11634,1,2,0:0:0:0:
348,258,11803,2,0,L|265:240,1,65.5200015996094,2|0,0:0|0:0,0:0:0:0:
402,78,12142,1,2,0:0:0:0:
110,28,12481,5,2,0:0:0:0:
173,150,12651,1,2,0:0:0:0:
173,150,13498,6,0,B|281:131|229:202|361:170,2,167.439994379151,6|10|2,1:0|0:0|1:0,0:0:0:0:
306,92,14345,1,2,1:0:0:0:
200,233,14515,1,8,0:0:0:0:
230,48,14684,2,0,P|289:9|384:54,1,167.439994379151,2|0,1:0|1:0,0:0:0:0:
440,182,15193,2,0,P|400:144|393:102,1,83.7199971895753,8|0,0:0|0:0,0:0:0:0:
401,255,15532,1,2,1:0:0:0:
478,107,15701,1,2,1:0:0:0:
473,296,15871,1,8,0:0:0:0:
440,182,16040,1,2,0:0:0:0:
360,324,16210,6,0,B|301:312|301:312|257:331|257:331|194:321,2,167.439994379151,0|8|2,1:0|0:0|1:0,0:0:0:0:
241,246,17057,1,0,1:0:0:0:
392,117,17227,1,8,0:0:0:0:
277,36,17396,2,0,L|295:131,1,83.7199971895753,0|2,1:0|0:0,0:0:0:0:
377,35,17735,1,0,1:0:0:0:
220,166,17905,2,0,B|130:143|144:209|57:184,1,167.439994379151,10|2,0:0|1:0,0:0:0:0:
188,246,18413,1,0,1:0:0:0:
89,103,18583,1,10,0:0:0:0:
22,257,18752,1,2,0:0:0:0:
198,79,18922,6,0,P|267:90|307:190,2,167.439994379151,4|10|0,1:0|0:0|1:0,0:0:0:0:
329,33,19769,1,0,1:0:0:0:
220,166,19939,1,10,0:0:0:0:
379,118,20108,2,0,B|440:95|488:133|488:133|494:173|465:199,1,167.439994379151,2|2,1:0|1:0,0:0:0:0:
335,302,20617,1,8,0:0:0:0:
361,206,20786,1,2,0:0:0:0:
390,364,20956,1,0,1:0:0:0:
275,232,21125,1,2,1:0:0:0:
143,363,21295,1,8,0:0:0:0:
247,327,21464,1,2,0:0:0:0:
70,234,21634,6,0,B|50:148|113:169|79:47,2,167.439994379151,2|8|2,1:0|0:0|1:0,0:0:0:0:
6,109,22481,1,0,1:0:0:0:
156,213,22651,2,0,P|199:181|254:175,1,83.7199971895753,8|0,0:0|0:0,0:0:0:0:
376,281,22989,1,2,1:0:0:0:
243,259,23159,1,0,1:0:0:0:
410,129,23328,1,8,0:0:0:0:
318,79,23498,1,0,0:0:0:0:
384,300,23667,5,10,0:0:0:0:
318,162,23837,1,2,1:0:0:0:
240,349,24006,1,10,0:0:0:0:
174,211,24176,1,2,1:0:0:0:
51,339,24345,6,0,P|76:290|80:249,1,83.7199971895753,6|0,1:0|1:0,0:0:0:0:
47,78,24684,2,0,P|55:118|76:154,1,83.7199971895753,10|0,0:0|0:0,0:0:0:0:
98,174,24939,1,8,0:0:0:0:
98,174,25023,1,10,0:0:0:0:
184,48,25193,2,0,P|233:30|277:31,1,83.7199971895753,2|0,1:0|0:0,0:0:0:0:
458,153,25532,6,0,B|351:158|415:211|296:217,1,167.439994379151,6|2,1:0|1:0,0:0:0:0:
155,164,26040,2,0,P|207:168|244:207,1,83.7199971895753,8|2,0:0|0:0,0:0:0:0:
309,300,26379,1,0,1:0:0:0:
310,130,26549,1,2,1:0:0:0:
225,314,26718,2,0,P|173:310|136:271,1,83.7199971895753,8|2,0:0|0:0,0:0:0:0:
123,89,27057,6,0,P|155:162|150:189,1,83.7199971895753,4|2,1:0|1:0,0:0:0:0:
58,298,27396,2,0,P|65:257|89:223,1,83.7199971895753,10|0,0:0|0:0,0:0:0:0:
225,314,27735,1,0,1:0:0:0:
154,163,27905,1,0,1:0:0:0:
51,324,28074,1,8,0:0:0:0:
167,247,28244,1,0,0:0:0:0:
29,106,28413,1,2,1:0:0:0:
89,224,28583,1,0,1:0:0:0:
237,65,28752,1,8,0:0:0:0:
180,325,28922,1,8,0:0:0:0:
154,163,29091,5,2,1:0:0:0:
300,236,29261,1,2,1:0:0:0:
89,224,29430,1,10,0:0:0:0:
267,149,29600,1,2,1:0:0:0:
180,325,29769,6,0,P|190:268|210:228,1,83.7199971895753,2|0,1:0|0:0,0:0:0:0:
147,46,30108,2,0,P|161:85|167:126,1,83.7199971895753,14|0,0:0|0:0,0:0:0:0:
154,163,30362,1,8,0:0:0:0:
154,163,30447,1,10,0:0:0:0:
267,52,30617,2,0,P|320:30|356:37,1,83.7199971895753,2|0,1:0|0:0,0:0:0:0:
475,157,30956,6,0,B|368:162|432:215|313:221,1,167.439994379151,6|2,1:0|1:0,0:0:0:0:
170,187,31464,2,0,P|227:205|250:241,1,83.7199971895753,8|2,0:0|0:0,0:0:0:0:
96,248,31803,2,0,P|75:201|75:183,1,41.8599985947876,8|8,0:0|0:0,0:0:0:0:
93,68,31973,2,0,P|85:87|73:104,1,41.8599985947876,10|8,0:0|0:0,0:0:0:0:
170,187,32142,2,0,P|188:138|201:126,1,41.8599985947876,8|8,0:0|0:0,0:0:0:0:
295,57,32312,2,0,P|275:65|255:69,1,41.8599985947876,10|8,0:0|0:0,0:0:0:0:
252,232,32481,6,0,P|317:163|420:167,2,167.439994379151,4|10|2,1:0|0:0|1:0,0:0:0:0:
181,147,33328,1,2,1:0:0:0:
119,319,33498,1,8,0:0:0:0:
110,212,33667,1,2,1:0:0:0:
204,364,33837,1,0,0:0:0:0:
37,277,34006,1,0,1:0:0:0:
283,207,34176,1,8,0:0:0:0:
64,73,34345,1,8,0:0:0:0:
194,253,34515,5,2,1:0:0:0:
258,91,34684,1,2,1:0:0:0:
302,289,34854,1,10,0:0:0:0:
366,127,35023,1,2,0:0:0:0:
179,268,35193,6,0,B|81:267|125:323|16:319,2,167.439994379151,6|10|2,1:0|0:0|1:0,0:0:0:0:
34,233,36040,1,2,1:0:0:0:
166,354,36210,1,8,0:0:0:0:
34,233,36379,2,0,L|58:53,1,167.439994379151,6|2,1:0|1:0,0:0:0:0:
194,175,36888,2,0,L|175:83,1,83.7199971895753,8|2,0:0|0:0,0:0:0:0:
333,236,37227,2,0,L|349:154,1,83.7199971895753,0|2,1:0|1:0,0:0:0:0:
472,259,37566,1,8,0:0:0:0:
443,168,37735,1,2,0:0:0:0:
372,323,37905,6,0,P|316:268|217:254,1,167.439994379151,2|8,1:0|0:0,0:0:0:0:
139,298,38413,1,2,0:0:0:0:
204,170,38583,2,0,P|196:102|174:70,1,83.7199971895753,0|0,1:0|1:0,0:0:0:0:
92,226,38922,1,10,0:0:0:0:
116,47,39091,2,0,P|176:10|270:60,1,167.439994379151,0|0,1:0|1:0,0:0:0:0:
330,188,39600,2,0,P|292:145|291:108,1,83.7199971895753,10|0,0:0|0:0,0:0:0:0:
418,209,39939,2,0,P|408:249|377:276,1,83.7199971895753,2|0,1:0|1:0,0:0:0:0:
388,113,40278,1,10,0:0:0:0:
502,227,40447,1,0,1:0:0:0:
191,148,40617,1,14,0:0:0:0:
191,148,40956,5,8,0:0:0:0:
293,347,41125,1,8,0:0:0:0:
393,88,41295,1,8,0:0:0:0:
103,181,41464,1,8,0:0:0:0:
389,355,41634,1,10,0:0:0:0:
343,17,41803,1,10,0:0:0:0:
109,324,41973,1,10,0:0:0:0:
163,234,42142,2,0,L|146:88,2,131.040003199219,0|0|0,1:0|1:0|1:0,0:0:0:0:
240,73,42989,6,0,P|293:37|348:126,1,166.529993139176,12|0,0:0|0:0,0:0:0:0:
328,171,43328,6,0,P|316:238|337:314,1,139.230000849792,6|0,1:0|0:0,0:0:0:0:
395,351,43667,2,0,P|412:298|410:253,1,92.8200005665283,10|0,0:0|0:0,0:0:0:0:
241,353,44006,2,0,P|175:316|133:309,1,92.8200005665283,2|0,1:0|0:0,0:0:0:0:
307,190,44345,1,10,0:0:0:0:
130,93,44515,2,0,P|86:107|47:133,1,92.8200005665283,2|0,0:0|1:0,0:0:0:0:
291,72,44854,2,0,P|252:45|208:31,1,92.8200005665283,2|8,0:0|0:0,0:0:0:0:
414,140,45193,2,0,P|405:94|384:53,1,92.8200005665283,2|0,0:0|1:0,0:0:0:0:
384,255,45532,1,2,0:0:0:0:
306,104,45701,1,8,0:0:0:0:
276,219,45871,1,2,0:0:0:0:
140,81,46040,6,0,P|91:62|24:148,1,139.230000849792,0|0,1:0|0:0,0:0:0:0:
26,188,46379,1,8,0:0:0:0:
132,321,46549,1,2,0:0:0:0:
145,163,46718,1,2,1:0:0:0:
13,346,46888,1,2,0:0:0:0:
26,188,47057,1,10,0:0:0:0:
230,350,47227,2,0,P|247:287|291:234,1,92.8200005665283,2|0,0:0|1:0,0:0:0:0:
203,66,47566,2,0,P|225:106|234:151,1,92.8200005665283,2|8,0:0|0:0,0:0:0:0:
359,322,47905,2,0,P|376:259|420:206,1,92.8200005665283,2|0,0:0|1:0,0:0:0:0:
315,70,48244,1,2,0:0:0:0:
271,239,48413,1,8,0:0:0:0:
414,132,48583,1,2,0:0:0:0:
234,151,48752,6,0,B|154:146|187:196|93:198,1,139.230000849792,4|0,1:0|0:0,0:0:0:0:
43,159,49091,2,0,P|40:100|130:52,1,139.230000849792,10|0,0:0|0:0,0:0:0:0:
175,65,49430,2,0,L|283:49,1,92.8200005665283,0|0,1:0|0:0,0:0:0:0:
412,170,49769,2,0,L|320:156,1,92.8200005665283,10|0,0:0|0:0,0:0:0:0:
506,84,50108,2,0,L|494:252,1,139.230000849792,2|0,1:0|0:0,0:0:0:0:
456,289,50447,2,0,P|391:274|341:294,1,92.8200005665283,8|0,0:0|0:0,0:0:0:0:
215,334,50786,2,0,P|258:349|304:343,1,92.8200005665283,2|0,1:0|0:0,0:0:0:0:
166,259,51125,1,10,0:0:0:0:
302,120,51295,6,0,P|345:104|391:110,1,92.8200005665283,2|0,0:0|1:0,0:0:0:0:
507,228,51634,1,2,0:0:0:0:
451,56,51803,2,0,P|402:159|418:266,1,185.640001133057,10|0,0:0|1:0,0:0:0:0:
283,128,52312,1,2,1:0:0:0:
198,324,52481,1,10,0:0:0:0:
76,94,52651,1,2,1:0:0:0:
316,244,52820,1,10,0:0:0:0:
76,94,53667,5,8,0:0:0:0:
187,305,53837,1,8,0:0:0:0:
76,94,54006,1,8,0:0:0:0:
99,322,54176,6,0,L|121:205,1,92.8200005665283,6|0,1:0|0:0,0:0:0:0:
211,107,54515,1,10,0:0:0:0:
274,287,54684,1,8,0:0:0:0:
325,119,54854,2,0,L|307:27,1,92.8200005665283,2|0,1:0|1:0,0:0:0:0:
246,203,55193,1,10,0:0:0:0:
113,101,55362,2,0,L|130:9,1,92.8200005665283,2|0,1:0|0:0,0:0:0:0:
184,150,55701,1,2,1:0:0:0:
307,27,55871,1,8,0:0:0:0:
346,225,56040,2,0,L|363:316,1,92.8200005665283,10|0,0:0|1:0,0:0:0:0:
407,163,56379,1,2,1:0:0:0:
279,286,56549,1,10,0:0:0:0:
439,347,56718,1,2,0:0:0:0:
205,254,56888,6,0,L|94:216,1,92.8200005665283,0|0,1:0|1:0,0:0:0:0:
260,193,57227,1,8,0:0:0:0:
33,244,57396,1,10,0:0:0:0:
205,254,57566,1,2,1:0:0:0:
117,223,57735,1,2,1:0:0:0:
338,170,57905,1,10,0:0:0:0:
119,95,58074,2,0,L|31:64,1,92.8200005665283,2|0,1:0|0:0,0:0:0:0:
316,89,58413,2,0,L|403:58,1,92.8200005665283,2|8,1:0|0:0,0:0:0:0:
176,207,58752,2,0,L|88:176,1,92.8200005665283,10|0,0:0|1:0,0:0:0:0:
373,201,59091,1,2,1:0:0:0:
208,118,59261,1,8,0:0:0:0:
398,216,59431,6,0,L|486:185,1,92.8200005665283,2|2,0:0|1:0,0:0:0:0:
268,261,59769,1,2,1:0:0:0:
272,58,59939,1,10,0:0:0:0:
145,294,60108,2,0,L|57:263,1,92.8200005665283,8|0,0:0|1:0,0:0:0:0:
132,192,60447,1,0,1:0:0:0:
240,351,60617,2,0,L|328:320,1,92.8200005665283,10|0,0:0|1:0,0:0:0:0:
438,174,60956,2,0,L|350:143,1,92.8200005665283,2|0,0:0|1:0,0:0:0:0:
446,280,61295,1,8,0:0:0:0:
434,75,61464,1,8,0:0:0:0:
335,232,61634,2,0,L|247:201,1,92.8200005665283,2|0,1:0|1:0,0:0:0:0:
67,298,61973,1,8,0:0:0:0:
128,191,62142,1,2,0:0:0:0:
329,326,62312,6,0,L|417:295,1,92.8200005665283,0|0,1:0|0:0,0:0:0:0:
212,284,62651,1,8,0:0:0:0:
352,144,62820,2,0,L|440:175,1,92.8200005665283,8|0,0:0|1:0,0:0:0:0:
320,56,63159,1,0,1:0:0:0:
212,284,63328,1,10,0:0:0:0:
181,195,63498,1,2,1:0:0:0:
119,317,63667,2,0,L|31:348,1,92.8200005665283,2|0,0:0|1:0,0:0:0:0:
92,226,64006,1,10,0:0:0:0:
297,322,64176,5,10,0:0:0:0:
297,322,64261,1,8,0:0:0:0:
297,322,64345,2,0,L|385:291,1,92.8200005665283,8|2,0:0|1:0,0:0:0:0:
212,284,64684,1,4,3:0:0:0:
462,292,64854,1,4,3:0:0:0:
234,192,65023,6,0,B|138:177|193:240|62:221,1,149.240002277222,6|0,1:0|0:0,0:0:0:0:
120,132,65532,1,0,0:0:0:0:
218,273,65701,2,0,P|257:226|347:183,1,149.240002277222,8|2,0:0|0:0,0:0:0:0:
417,232,66210,1,2,0:0:0:0:
294,88,66379,1,2,1:0:0:0:
229,196,66549,2,0,P|183:170|143:165,1,74.6200011386109,8|2,0:0|0:0,0:0:0:0:
64,294,66888,1,2,1:0:0:0:
88,122,67057,2,0,P|66:74|63:38,2,74.6200011386109,8|2|2,0:0|0:0|0:0,0:0:0:0:
157,55,67566,1,2,0:0:0:0:
250,209,67735,6,0,L|271:59,1,149.240002277222,2|0,1:0|0:0,0:0:0:0:
343,169,68244,1,0,1:0:0:0:
415,32,68413,2,0,L|432:128,1,74.6200011386109,8|0,0:0|0:0,0:0:0:0:
341,284,68752,2,0,L|354:210,1,74.6200011386109,10|2,0:0|0:0,0:0:0:0:
408,349,69091,1,2,1:0:0:0:
256,251,69261,2,0,P|215:235|149:232,1,83.7199971895753,8|2,0:0|1:0,0:0:0:0:
358,170,69600,1,2,1:0:0:0:
173,96,69769,1,8,0:0:0:0:
256,251,69939,1,2,1:0:0:0:
275,15,70108,1,8,0:0:0:0:
239,147,70278,1,2,0:0:0:0:
416,33,70447,6,0,P|394:104|386:216,2,185.640001133057,4|8|2,1:0|0:0|1:0,0:0:0:0:
471,182,71295,1,0,1:0:0:0:
311,80,71464,1,8,0:0:0:0:
270,163,71634,1,0,0:0:0:0:
146,40,71803,2,0,P|83:25|-1:127,2,185.640001133057,2|10|2,1:0|0:0|1:0,0:0:0:0:
144,200,72651,1,0,1:0:0:0:
312,83,72820,1,10,0:0:0:0:
348,177,72989,1,0,0:0:0:0:
146,40,73159,5,2,1:0:0:0:
228,140,73328,1,0,0:0:0:0:
52,221,73498,1,8,0:0:0:0:
348,177,73667,1,8,0:0:0:0:
200,130,73837,1,0,1:0:0:0:
288,269,74006,1,0,1:0:0:0:
411,55,74176,1,8,0:0:0:0:
449,212,74345,1,0,1:0:0:0:
228,35,74515,5,10,0:0:0:0:
149,266,74684,1,0,1:0:0:0:
371,132,74854,5,8,0:0:0:0:
109,37,75023,1,0,1:0:0:0:
226,311,75193,5,8,0:0:0:0:
325,66,75362,2,0,L|304:6,1,46.4100002832642,10|8,0:0|0:0,0:0:0:0:
142,139,75532,2,0,L|126:182,1,46.4100002832642,10|8,0:0|0:0,0:0:0:0:
293,243,75701,2,0,L|277:199,1,46.4100002832642,10|8,0:0|0:0,0:0:0:0:
109,340,75871,6,0,P|63:332|25:306,1,92.8200005665283,4|0,1:0|0:0,0:0:0:0:
293,243,76210,2,0,P|366:209|405:215,1,92.8200005665283,10|0,0:0|0:0,0:0:0:0:
126,182,76549,5,10,0:0:0:0:
226,311,76718,1,0,1:0:0:0:
235,143,76888,1,10,0:0:0:0:
135,272,77057,1,2,1:0:0:0:
169,92,77227,5,8,0:0:0:0:
300,188,77396,1,2,1:0:0:0:
142,169,77566,1,8,0:0:0:0:
273,73,77735,1,2,1:0:0:0:
102,42,77905,1,8,0:0:0:0:
235,143,78074,1,2,1:0:0:0:
38,188,78244,1,8,0:0:0:0:
169,92,78413,1,2,1:0:0:0:
178,287,78583,6,0,P|150:222|151:167,1,92.8200005665283,12|2,0:0|1:0,0:0:0:0:
265,56,78922,2,0,P|256:101|234:142,1,92.8200005665283,8|0,0:0|1:0,0:0:0:0:
413,54,79261,5,10,0:0:0:0:
336,196,79430,1,0,1:0:0:0:
338,16,79600,1,8,0:0:0:0:
432,198,79769,6,0,P|336:148|221:141,1,185.640001133057,4|0,1:0|1:0,0:0:0:0:
88,235,80278,1,8,0:0:0:0:
171,84,80447,6,0,B|137:201|213:149|170:302,1,185.640001133057,2|0,1:0|1:0,0:0:0:0:
339,278,80956,1,10,0:0:0:0:
257,138,81125,1,2,0:0:0:0:
124,338,81295,6,0,P|71:309|12:306,1,92.8200005665283,10|0,0:0|0:0,0:0:0:0:
339,278,81634,2,0,P|392:249|451:246,1,92.8200005665283,10|0,0:0|0:0,0:0:0:0:
178,182,81973,5,10,0:0:0:0:
257,330,82142,1,0,1:0:0:0:
295,108,82312,1,10,0:0:0:0:
216,256,82481,1,2,1:0:0:0:
222,63,82651,5,8,0:0:0:0:
365,149,82820,1,2,1:0:0:0:
152,194,82989,1,8,0:0:0:0:
295,108,83158,1,2,1:0:0:0:
367,235,83328,1,8,0:0:0:0:
224,149,83497,1,2,1:0:0:0:
239,353,83667,1,10,0:0:0:0:
293,195,83836,1,2,1:0:0:0:
158,322,84006,6,0,P|102:306|43:310,1,92.8200005665283,10|0,0:0|0:0,0:0:0:0:
323,284,84345,2,0,P|379:268|438:272,1,92.8200005665283,10|0,0:0|0:0,0:0:0:0:
128,233,84684,5,10,0:0:0:0:
293,195,84854,1,0,1:0:0:0:
71,144,85023,5,10,0:0:0:0:
244,308,85193,2,0,L|262:86,1,185.640001133057,6|0,1:0|1:0,0:0:0:0:
115,28,85701,5,10,0:0:0:0:
157,227,85871,1,0,0:0:0:0:
280,103,86040,1,2,1:0:0:0:
100,54,86210,1,0,1:0:0:0:
155,248,86379,1,10,0:0:0:0:
442,29,86718,6,0,P|414:97|412:141,1,92.8200005665283,14|0,0:0|0:0,0:0:0:0:
323,307,87057,2,0,P|313:261|292:220,1,92.8200005665283,8|0,0:0|0:0,0:0:0:0:
138,71,87396,5,8,0:0:0:0:
302,118,87566,1,0,1:0:0:0:
102,256,87735,1,10,0:0:0:0:
195,133,87905,1,0,1:0:0:0:
267,325,88074,1,8,0:0:0:0:
267,325,88413,6,0,P|224:269|190:253,1,92.8200005665283,10|0,0:0|1:0,0:0:0:0:
256,66,88752,2,0,P|218:92|194:132,1,92.8200005665283,10|0,0:0|1:0,0:0:0:0:
342,279,89091,2,0,P|351:208|338:173,1,92.8200005665283,10|0,0:0|1:0,0:0:0:0:
144,56,89430,5,10,0:0:0:0:
262,199,89600,1,0,1:0:0:0:
56,246,89769,1,10,0:0:0:0:
144,143,89939,1,0,1:0:0:0:
262,286,90108,1,8,0:0:0:0:
146,246,90278,1,0,1:0:0:0:
351,160,90447,1,10,0:0:0:0:
235,120,90617,1,0,1:0:0:0:
361,335,90786,6,0,P|370:266|397:212,1,92.8200005665283,8|0,0:0|1:0,0:0:0:0:
333,69,91125,2,0,P|346:113|350:159,1,92.8200005665283,10|0,0:0|1:0,0:0:0:0:
179,50,91464,2,0,P|120:31|75:36,1,92.8200005665283,10|0,0:0|1:0,0:0:0:0:
19,183,91803,2,0,P|78:164|123:169,1,92.8200005665283,10|2,0:0|1:0,0:0:0:0:
390,312,92142,5,12,0:0:0:0:
124,249,92312,1,2,1:0:0:0:
409,109,92481,5,8,0:0:0:0:
108,165,92651,1,2,1:0:0:0:
439,240,92820,5,12,0:0:0:0:
208,65,92990,1,2,1:0:0:0:
215,275,93159,5,8,0:0:0:0:
393,25,93329,1,2,1:0:0:0:
279,334,93498,5,12,0:0:0:0:
51,103,93667,1,2,1:0:0:0:
365,111,93837,5,8,0:0:0:0:
97,295,94006,1,2,1:0:0:0:
164,4,94176,5,12,0:0:0:0:
383,242,94345,1,2,1:0:0:0:
41,207,94515,5,8,0:0:0:0:
290,0,94684,1,2,1:0:0:0:
119,327,94854,5,12,0:0:0:0:
50,18,95023,1,0,1:0:0:0:
40,336,95193,5,12,0:0:0:0:
180,54,95362,1,0,1:0:0:0:
251,346,95532,5,12,0:0:0:0:
92,31,95701,1,0,1:0:0:0:
150,370,95871,5,12,0:0:0:0:
298,8,96040,1,0,1:0:0:0:
424,361,96210,5,14,0:0:0:0:
179,163,96379,1,0,1:0:0:0:
179,163,96464,1,0,1:0:0:0:
179,163,96549,2,0,L|110:150,1,46.4100002832642,8|0,0:0|0:0,0:0:0:0:
292,305,96718,2,0,L|361:292,1,46.4100002832642,0|0,1:0|1:0,0:0:0:0:
275,97,96888,2,0,L|262:168,1,46.4100002832642,8|0,0:0|0:0,0:0:0:0:
196,339,97057,2,0,L|187:293,1,46.4100002832642,0|0,1:0|1:0,0:0:0:0:
14,99,97227,2,0,L|27:170,1,46.4100002832642,8|8,0:0|0:0,0:0:0:0:
93,341,97396,2,0,L|101:295,1,46.4100002832642,8|8,0:0|0:0,0:0:0:0:
224,22,97566,6,0,P|303:19|367:91,1,152.880001866211,6|0,1:0|0:0,0:0:0:0:
355,144,97905,2,0,P|334:196|335:251,1,101.920001244141,10|0,0:0|0:0,0:0:0:0:
163,103,98244,2,0,P|184:155|183:210,1,101.920001244141,2|0,1:0|0:0,0:0:0:0:
46,70,98583,1,10,0:0:0:0:
19,266,98752,2,0,P|56:194|93:167,1,101.920001244141,2|0,0:0|1:0,0:0:0:0:
212,288,99091,1,2,0:0:0:0:
64,352,99261,1,8,0:0:0:0:
184,200,99430,2,0,P|252:157|298:153,1,101.920001244141,2|0,0:0|1:0,0:0:0:0:
396,269,99769,1,2,0:0:0:0:
452,92,99939,1,8,0:0:0:0:
345,195,100108,1,2,0:0:0:0:
265,48,100278,6,0,B|170:53|224:113|103:114,1,152.880001866211,0|0,1:0|0:0,0:0:0:0:
64,79,100617,1,8,0:0:0:0:
165,211,100786,2,0,P|184:268|183:326,1,101.920001244141,2|2,0:0|1:0,0:0:0:0:
272,153,101125,1,2,0:0:0:0:
332,313,101295,1,10,0:0:0:0:
348,113,101464,2,0,P|350:62|368:14,1,101.920001244141,2|0,0:0|1:0,0:0:0:0:
414,171,101803,1,2,0:0:0:0:
275,44,101973,1,8,0:0:0:0:
178,212,102142,2,0,P|125:180|68:176,1,101.920001244141,2|0,0:0|1:0,0:0:0:0:
274,306,102481,2,0,P|327:274|384:270,1,101.920001244141,2|8,0:0|0:0,0:0:0:0:
124,358,102820,6,0,P|71:326|14:322,1,101.920001244141,2|4,0:0|1:0,0:0:0:0:
178,212,103159,1,0,0:0:0:0:
256,376,103328,2,0,P|259:278|292:184,1,152.880001866211,10|0,0:0|0:0,0:0:0:0:
303,156,103667,2,0,P|301:94|282:45,1,101.920001244141,0|0,1:0|0:0,0:0:0:0:
111,144,104006,2,0,P|96:192|96:243,1,101.920001244141,10|0,0:0|0:0,0:0:0:0:
181,64,104345,2,0,P|282:27|358:31,1,152.880001866211,2|0,1:0|0:0,0:0:0:0:
396,61,104684,2,0,P|423:123|425:171,1,101.920001244141,8|0,0:0|0:0,0:0:0:0:
273,251,105023,2,0,P|280:200|302:155,1,101.920001244141,2|0,1:0|0:0,0:0:0:0:
377,312,105362,1,10,0:0:0:0:
193,202,105532,6,0,P|121:178|77:182,1,101.920001244141,2|0,0:0|1:0,0:0:0:0:
3,300,105871,1,2,0:0:0:0:
46,88,106040,2,0,P|75:178|88:295,1,203.840002488281,10|0,0:0|1:0,0:0:0:0:
178,106,106549,1,2,1:0:0:0:
267,286,106718,1,10,0:0:0:0:
162,198,106888,1,2,1:0:0:0:
334,80,107057,2,0,P|395:58|439:56,1,101.920001244141,2|0,1:0|0:0,0:0:0:0:
237,29,107396,1,8,0:0:0:0:
366,187,107566,2,0,P|388:248|390:292,1,101.920001244141,8|0,0:0|0:0,0:0:0:0:
269,136,107905,1,0,1:0:0:0:
185,307,108074,1,8,0:0:0:0:
279,236,108244,1,0,0:0:0:0:
161,92,108413,6,0,P|92:60|17:98,1,152.880001866211,6|0,1:0|0:0,0:0:0:0:
17,163,108752,2,0,P|35:227|32:271,1,101.920001244141,10|0,0:0|0:0,0:0:0:0:
214,153,109091,2,0,P|214:102|230:54,1,101.920001244141,2|0,1:0|0:0,0:0:0:0:
342,232,109430,1,10,0:0:0:0:
418,29,109600,2,0,P|434:77|434:127,1,101.920001244141,2|0,0:0|1:0,0:0:0:0:
356,261,109939,1,2,0:0:0:0:
299,123,110108,1,8,0:0:0:0:
223,307,110278,2,0,P|162:260|127:256,1,101.920001244141,2|0,0:0|1:0,0:0:0:0:
8,146,110617,2,0,P|56:130|91:95,1,101.920001244141,2|8,0:0|0:0,0:0:0:0:
26,267,110956,1,2,0:0:0:0:
197,120,111125,6,0,B|318:97|267:195|424:158,1,203.840002488281,0|8,1:0|0:0,0:0:0:0:
234,204,111634,1,2,0:0:0:0:
354,81,111803,1,2,1:0:0:0:
234,204,111973,1,2,0:0:0:0:
167,43,112142,1,10,0:0:0:0:
131,267,112312,2,0,P|142:199|126:144,1,101.920001244141,2|0,0:0|1:0,0:0:0:0:
328,311,112651,2,0,P|317:243|333:188,1,101.920001244141,2|8,0:0|0:0,0:0:0:0:
106,325,112989,2,0,P|99:256|69:207,1,101.920001244141,2|0,0:0|1:0,0:0:0:0:
253,352,113328,1,2,0:0:0:0:
222,188,113498,1,8,0:0:0:0:
420,344,113667,6,0,P|426:275|456:226,1,101.920001244141,2|4,0:0|1:0,0:0:0:0:
268,334,114006,1,2,0:0:0:0:
363,135,114176,2,0,P|356:66|263:20,1,152.880001866211,10|0,0:0|0:0,0:0:0:0:
229,63,114515,2,0,P|171:83|92:68,1,101.920001244141,0|0,1:0|0:0,0:0:0:0:
10,198,114854,2,0,P|57:216|107:216,1,101.920001244141,10|0,0:0|0:0,0:0:0:0:
335,190,115193,2,0,P|268:207|213:302,1,152.880001866211,2|0,1:0|0:0,0:0:0:0:
255,341,115532,2,0,P|310:315|372:309,1,101.920001244141,8|0,0:0|0:0,0:0:0:0:
450,191,115871,2,0,P|395:165|333:159,1,101.920001244141,2|0,1:0|0:0,0:0:0:0:
184,197,116210,1,8,0:0:0:0:
277,78,116379,1,2,0:0:0:0:
178,280,116549,6,0,P|157:201|99:124,1,152.880001866211,0|0,1:0|0:0,0:0:0:0:
46,112,116888,2,0,P|53:48|150:34,1,152.880001866211,10|0,0:0|0:0,0:0:0:0:
194,64,117227,2,0,P|253:77|314:60,1,101.920001244141,0|0,1:0|0:0,0:0:0:0:
481,7,117566,1,10,0:0:0:0:
363,121,117735,1,2,0:0:0:0:
492,278,117905,5,6,1:0:0:0:
445,90,118074,1,8,0:0:0:0:
276,266,118244,1,2,1:0:0:0:
465,182,118413,1,10,0:0:0:0:
304,31,118583,1,8,0:0:0:0:
350,203,118752,1,4,3:0:0:0:
200,103,118922,1,4,3:0:0:0:
325,116,119091,1,4,3:0:0:0:
189,262,119261,6,0,P|134:213|44:186,1,167.439994379151,6|0,1:0|0:0,0:0:0:0:
106,110,119769,1,0,0:0:0:0:
40,301,119939,2,0,L|10:110,1,167.439994379151,8|2,0:0|0:0,0:0:0:0:
34,41,120447,1,2,0:0:0:0:
139,195,120617,1,2,1:0:0:0:
214,90,120786,2,0,P|268:73|320:67,1,83.7199971895753,8|2,0:0|0:0,0:0:0:0:
407,262,121125,1,2,1:0:0:0:
305,199,121295,2,0,P|251:182|199:176,2,83.7199971895753,8|2|2,0:0|0:0|0:0,0:0:0:0:
124,303,121803,1,10,0:0:0:0:
167,119,121973,6,0,P|195:191|205:286,1,167.439994379151,2|0,1:0|0:0,0:0:0:0:
305,199,122481,1,0,1:0:0:0:
434,342,122651,2,0,P|409:267|411:238,1,83.7199971895753,8|0,0:0|0:0,0:0:0:0:
326,80,122989,2,0,P|319:121|300:158,1,83.7199971895753,10|2,0:0|0:0,0:0:0:0:
435,29,123328,1,2,1:0:0:0:
227,93,123498,2,0,P|166:62|114:66,1,83.7199971895753,8|2,0:0|1:0,0:0:0:0:
304,193,123837,1,2,1:0:0:0:
82,252,124006,1,8,0:0:0:0:
154,152,124176,1,2,1:0:0:0:
275,334,124345,1,8,0:0:0:0:
326,80,124515,1,2,0:0:0:0:
139,303,124684,6,0,P|126:225|57:110,2,185.640001133057,4|8|2,1:0|0:0|1:0,0:0:0:0:
222,169,125532,1,0,1:0:0:0:
325,340,125701,2,0,P|312:277|324:215,1,92.8200005665283,8|0,0:0|0:0,0:0:0:0:
451,56,126040,2,0,B|363:66|423:114|292:127,1,139.230000849792,2|0,1:0|0:0,0:0:0:0:
269,75,126379,2,0,P|218:50|157:54,1,92.8200005665283,10|0,0:0|0:0,0:0:0:0:
52,162,126718,2,0,P|103:137|164:141,1,92.8200005665283,2|0,1:0|1:0,0:0:0:0:
233,259,127057,2,0,P|182:234|121:238,1,92.8200005665283,10|0,0:0|0:0,0:0:0:0:
303,342,127396,5,6,1:0:0:0:
374,165,127566,1,0,1:0:0:0:
198,366,127735,1,10,0:0:0:0:
420,300,127905,1,8,0:0:0:0:
256,194,128074,1,0,1:0:0:0:
303,342,128244,1,0,1:0:0:0:
183,141,128413,5,10,0:0:0:0:
119,324,128583,1,2,1:0:0:0:
129,67,128752,5,10,0:0:0:0:
200,271,128922,1,0,1:0:0:0:
288,94,129091,5,10,0:0:0:0:
77,178,129261,1,2,1:0:0:0:
362,160,129430,5,8,0:0:0:0:
129,67,129600,1,2,1:0:0:0:
304,220,129769,2,0,P|375:192|411:187,1,92.8200005665283,10|0,0:0|0:0,1:0:0:0:
129,302,130108,6,0,P|114:229|62:165,1,139.230000849792,4|0,1:0|0:0,0:0:0:0:
15,131,130447,1,8,0:0:0:0:
181,185,130617,2,0,P|244:146|294:144,2,92.8200005665283,8|2|0,0:0|1:0|1:0,0:0:0:0:
359,248,131125,1,8,0:0:0:0:
327,81,131295,2,0,P|276:193|279:268,1,185.640001133057,2|0,1:0|1:0,0:0:0:0:
227,75,131803,1,8,0:0:0:0:
144,256,131973,2,0,P|162:311|169:357,2,92.8200005665283,8|2|0,0:0|1:0|1:0,0:0:0:0:
333,355,132481,2,0,P|341:309|356:265,1,92.8200005665283,10|0,0:0|0:0,0:0:0:0:
227,75,132820,6,0,P|242:118|250:164,1,92.8200005665283,2|0,1:0|1:0,0:0:0:0:
322,23,133159,1,8,0:0:0:0:
146,107,133328,1,8,0:0:0:0:
324,210,133498,2,0,P|385:187|425:184,1,92.8200005665283,2|0,1:0|1:0,0:0:0:0:
209,288,133837,1,10,0:0:0:0:
281,117,134006,2,0,P|298:196|295:335,1,185.640001133057,0|0,1:0|1:0,0:0:0:0:
182,131,134515,1,10,0:0:0:0:
101,335,134684,1,8,0:0:0:0:
109,182,134854,2,0,P|88:121|64:86,1,92.8200005665283,2|0,1:0|0:0,0:0:0:0:
193,321,135193,2,0,P|206:276|228:236,1,92.8200005665283,10|2,0:0|0:0,0:0:0:0:
461,340,135532,6,0,P|447:295|425:255,1,92.8200005665283,4|0,1:0|1:0,0:0:0:0:
363,67,135871,1,8,0:0:0:0:
315,255,136040,2,0,P|309:300|314:346,2,92.8200005665283,8|2|0,0:0|1:0|1:0,0:0:0:0:
154,348,136549,1,8,0:0:0:0:
169,186,136718,2,0,P|221:280|231:380,1,185.640001133057,2|0,1:0|1:0,0:0:0:0:
265,171,137227,1,8,0:0:0:0:
154,348,137396,1,8,0:0:0:0:
79,200,137566,2,0,P|65:143|72:96,1,92.8200005665283,2|0,1:0|0:0,0:0:0:0:
287,51,137905,2,0,P|289:97|276:141,1,92.8200005665283,8|0,0:0|0:0,0:0:0:0:
400,39,138244,5,2,1:0:0:0:
455,163,138413,1,0,1:0:0:0:
287,51,138583,1,8,0:0:0:0:
250,267,138752,1,8,0:0:0:0:
362,152,138922,1,0,1:0:0:0:
188,126,139091,1,0,1:0:0:0:
280,336,139261,1,10,0:0:0:0:
275,141,139430,1,2,1:0:0:0:
163,337,139600,5,10,0:0:0:0:
218,89,139769,1,0,1:0:0:0:
302,338,139939,5,10,0:0:0:0:
162,150,140108,1,2,1:0:0:0:
334,339,140278,5,8,0:0:0:0:
62,226,140447,1,2,1:0:0:0:
299,150,140617,2,0,P|360:97|448:93,1,139.230000849792,10|0,0:0|0:0,0:0:0:0:
460,151,140956,6,0,B|443:228|496:205|468:323,1,139.230000849792,6|0,1:0|0:0,0:0:0:0:
412,336,141295,1,8,0:0:0:0:
299,150,141464,2,0,P|291:87|302:47,2,92.8200005665283,8|2|0,0:0|1:0|1:0,0:0:0:0:
201,282,141973,1,8,0:0:0:0:
163,108,142142,2,0,P|247:159|281:259,1,185.640001133057,2|0,1:0|1:0,0:0:0:0:
392,89,142651,1,8,0:0:0:0:
335,301,142820,1,8,0:0:0:0:
327,144,142989,1,2,1:0:0:0:
358,260,143158,1,0,1:0:0:0:
250,105,143328,2,0,P|203:71|103:77,1,139.230000849792,8|0,0:0|0:0,0:0:0:0:
61,111,143667,6,0,P|30:158|26:210,1,92.8200005665283,2|0,1:0|1:0,0:0:0:0:
193,336,144006,1,8,0:0:0:0:
144,164,144176,1,8,0:0:0:0:
95,344,144345,2,0,P|104:298|131:261,1,92.8200005665283,0|0,1:0|1:0,0:0:0:0:
237,146,144684,1,10,0:0:0:0:
224,243,144854,1,2,1:0:0:0:
125,137,145023,2,0,P|110:85|117:33,1,92.8200005665283,2|0,0:0|1:0,0:0:0:0:
99,238,145362,1,10,0:0:0:0:
259,130,145532,2,0,P|274:78|267:26,1,92.8200005665283,10|0,0:0|1:0,0:0:0:0:
333,184,145871,1,2,0:0:0:0:
193,77,146040,1,8,0:0:0:0:
211,210,146210,1,2,0:0:0:0:
362,70,146379,6,0,P|423:46|459:47,1,92.8200005665283,4|0,1:0|0:0,0:0:0:0:
235,175,146718,2,0,P|280:179|322:199,1,92.8200005665283,10|8,0:0|0:0,0:0:0:0:
85,97,147057,2,0,P|126:76|172:72,1,92.8200005665283,2|0,1:0|1:0,0:0:0:0:
86,216,147396,1,10,0:0:0:0:
245,34,147566,2,0,P|206:154|207:240,1,185.640001133057,2|0,1:0|1:0,0:0:0:0:
351,338,148074,1,8,0:0:0:0:
343,150,148244,2,0,P|332:93|334:43,2,92.8200005665283,8|0|0,0:0|1:0|1:0,0:0:0:0:
193,303,148752,2,0,P|203:258|204:212,1,92.8200005665283,8|0,0:0|0:0,0:0:0:0:
31,74,149091,5,12,0:0:0:0:
91,260,149261,1,0,1:0:0:0:
259,99,149430,5,8,0:0:0:0:
193,303,149600,1,0,1:0:0:0:
281,17,149769,5,8,0:0:0:0:
354,245,149939,1,0,1:0:0:0:
142,27,150108,5,12,0:0:0:0:
61,280,150278,1,0,1:0:0:0:
275,132,150447,6,0,P|332:110|344:109,1,46.4100002832642,8|8,0:0|0:0,0:0:0:0:
135,208,150617,2,0,P|113:200|92:188,1,46.4100002832642,8|8,0:0|0:0,0:0:0:0:
297,220,150786,2,0,P|344:275|349:289,1,46.4100002832642,8|8,0:0|0:0,0:0:0:0:
155,89,150956,2,0,P|155:61|160:33,2,46.4100002832642,8|8|0,0:0|0:0|1:0,0:0:0:0:
233,295,151295,5,8,0:0:0:0:
52,81,151464,1,8,0:0:0:0:
321,328,151634,1,8,0:0:0:0:
212,177,151803,6,0,P|224:132|270:90,1,94.6399994223633,2|0,0:0|0:0,0:0:0:0:
144,248,152481,2,0,P|120:207|118:160,1,94.6399994223633,2|0,0:0|0:0,0:0:0:0:
393,248,153159,6,0,P|416:207|413:145,1,94.6399994223633,2|0,0:0|0:0,0:0:0:0:
390,346,153837,2,0,P|435:333|469:301,1,94.6399994223633,2|0,0:0|0:0,0:0:0:0:
203,113,154515,6,0,P|170:80|109:66,1,94.6399994223633,2|0,0:0|0:0,0:0:0:0:
296,141,155193,2,0,P|295:94|273:52,1,94.6399994223633,2|0,0:0|0:0,0:0:0:0:
127,238,155871,5,2,0:0:0:0:
197,296,156210,1,0,0:0:0:0:
276,256,156549,2,0,B|386:244|345:315|467:302,1,189.279998844727,2|0,0:0|0:0,0:0:0:0:
278,81,157905,6,0,P|234:61|179:70,1,94.6399994223633,2|0,0:0|0:0,0:0:0:0:
53,185,158583,6,0,P|129:203|223:133,1,189.279998844727,2|0,0:0|0:0,0:0:0:0:
264,313,159939,6,0,B|243:283|239:249|252:214|280:192|319:184|342:210|388:127|389:73|362:1|294:-2|239:11|222:56|219:65|219:65|214:57|186:11|130:24|92:22|38:80|46:177|116:203|174:165|206:201|146:306|120:314|89:311|53:307|13:260|29:214|63:183,1,970.003446807813,2|0,0:0|0:0,0:0:0:0:
