osu file format v14

[General]
AudioFilename: audio.mp3
AudioLeadIn: 0
PreviewTime: 97481
Countdown: 0
SampleSet: Soft
StackLeniency: 0.2
Mode: 0
LetterboxInBreaks: 0
WidescreenStoryboard: 0

[Editor]
Bookmarks: 2651,13498,149091
DistanceSpacing: 1
BeatDivisor: 4
GridSize: 16
TimelineZoom: 2

[Metadata]
Title:Kimi ni Pierrot
TitleUnicode:君にピエロ
Artist:LiSA
ArtistUnicode:LiSA
Creator:A r M i N
Version:NiNo's Light Insane
Source:
Tags:risa oribe launcher Osatia JenHideo Waku Sotarks bite you death byd armin a_r_m_i_n Shunao ShogunMoon Garden SnowNiNo_ NiNo
BeatmapID:1639936
BeatmapSetID:775766

[Difficulty]
HPDrainRate:5
CircleSize:4
OverallDifficulty:8
ApproachRate:9
SliderMultiplier:1.8
SliderTickRate:1

[Events]
//Background and Video events
0,0,"BG.jpg",0,0
//Break Periods
//Storyboard Layer 0 (Background)
//Storyboard Layer 1 (Fail)
//Storyboard Layer 2 (Pass)
//Storyboard Layer 3 (Foreground)
//Storyboard Sound Samples

[TimingPoints]
2651,338.983050847458,4,2,22,32,1,0
2989,-200,4,2,22,32,0,0
13498,-100,4,2,22,62,0,0
42142,-100,4,2,22,42,0,0
42989,-100,4,2,22,62,0,0
43244,-100,4,2,22,5,0,0
43328,-100,4,2,22,72,0,1
65023,-100,4,2,22,52,0,0
69261,-100,4,2,22,62,0,0
92142,-100,4,2,22,72,0,0
94854,-100,4,2,22,82,0,0
97566,-100,4,2,22,72,0,1
119261,-100,4,2,22,52,0,0
124684,-100,4,2,22,62,0,0
151803,-100,4,2,22,42,0,0
159939,-100,4,2,22,32,0,0
164006,-100,4,2,22,12,0,0
168074,-100,4,2,22,5,0,0

[Colours]
Combo1 : 255,191,149
Combo2 : 255,162,251
Combo3 : 249,252,126
Combo4 : 255,147,147
SliderBorder : 255,226,226

[HitObjects]
256,192,2651,5,2,0:0:0:0:
256,192,2989,2,0,L|151:185,1,90,0|0,0:0|0:0,0:0:0:0:
99,124,3498,1,0,0:0:0:0:
99,124,3667,1,2,0:0:0:0:
138,44,3837,2,0,L|227:49,1,90,2|0,0:0|0:0,0:0:0:0:
345,186,4515,2,0,L|255:191,1,90,2|0,0:0|0:0,0:0:0:0:
99,283,5193,6,0,P|114:238|88:154,1,135,2|0,0:0|0:0,0:0:0:0:
217,29,6040,2,0,L|322:35,1,90,0|2,0:0|0:0,0:0:0:0:
397,39,6549,2,0,P|379:70|377:143,1,90,2|0,0:0|0:0,0:0:0:0:
372,123,7396,1,0,0:0:0:0:
426,195,7566,1,2,0:0:0:0:
426,195,7905,6,0,L|419:300,1,90,0|0,0:0|0:0,0:0:0:0:
365,356,8413,1,0,0:0:0:0:
365,356,8752,2,0,L|303:349,1,45,0|0,0:0|0:0,0:0:0:0:
254,289,9091,1,2,0:0:0:0:
254,289,9261,2,0,L|160:299,1,90,2|0,0:0|0:0,0:0:0:0:
1,376,9939,2,0,P|13:342|16:274,1,90,2|0,0:0|0:0,0:0:0:0:
10,108,10617,1,0,0:0:0:0:
70,174,10786,6,0,L|178:166,1,90,2|0,0:0|0:0,0:0:0:0:
311,69,11464,2,0,L|203:61,1,90,2|2,0:0|0:0,0:0:0:0:
243,241,12142,2,0,L|249:191,1,45,2|0,0:0|0:0,0:0:0:0:
338,204,12481,2,0,L|388:210,1,45,2|2,0:0|0:0,0:0:0:0:
472,221,12820,1,0,0:0:0:0:
472,221,12989,1,0,0:0:0:0:
383,64,13328,1,0,0:0:0:0:
301,25,13498,6,0,L|208:21,1,90,6|0,1:0|0:0,0:0:0:0:
120,15,13837,2,0,P|131:60|119:117,1,90,10|0,0:0|0:0,0:0:0:0:
62,168,14176,1,2,1:0:0:0:
148,190,14345,2,0,L|256:184,1,90,2|8,1:0|0:0,0:0:0:0:
318,145,14684,6,0,P|277:173|317:291,1,180,2|0,1:0|1:0,0:0:0:0:
392,291,15193,2,0,B|435:292|435:292|488:264,1,90,8|0,0:0|0:0,0:0:0:0:
498,182,15532,1,2,1:0:0:0:
470,96,15701,2,0,B|355:85,1,90,2|8,1:0|0:0,0:0:0:0:
308,33,16040,1,2,0:0:0:0:
308,33,16210,6,0,B|193:44,1,90,0|0,1:0|0:0,0:0:0:0:
128,51,16549,2,0,P|153:91|144:151,1,90,8|0,0:0|0:0,0:0:0:0:
174,219,16888,1,2,1:0:0:0:
87,196,17057,2,0,P|62:156|71:96,1,90,0|8,1:0|0:0,0:0:0:0:
128,51,17396,6,0,B|179:90|179:90|309:61,1,180,0|0,1:0|1:0,0:0:0:0:
382,75,17905,2,0,P|405:116|399:168,1,90,10|0,0:0|0:0,0:0:0:0:
336,218,18244,2,0,P|313:177|319:125,1,90,2|0,1:0|1:0,0:0:0:0:
421,246,18583,1,10,0:0:0:0:
421,246,18752,1,2,0:0:0:0:
355,307,18922,6,0,L|234:296,1,90,4|0,1:0|0:0,0:0:0:0:
175,292,19261,2,0,P|187:240|176:194,1,90,10|0,0:0|0:0,0:0:0:0:
130,129,19600,1,0,1:0:0:0:
205,79,19769,2,0,L|311:88,1,90,0|10,1:0|0:0,0:0:0:0:
384,73,20108,6,0,P|334:89|328:210,1,180,2|2,1:0|1:0,0:0:0:0:
355,285,20617,2,0,L|265:292,1,90,8|2,0:0|0:0,0:0:0:0:
195,349,20956,1,0,1:0:0:0:
138,279,21125,2,0,L|148:180,1,90,2|8,1:0|0:0,0:0:0:0:
156,100,21464,1,2,0:0:0:0:
229,153,21634,6,0,L|336:164,1,90,2|0,1:0|0:0,0:0:0:0:
386,221,21973,2,0,L|493:210,1,90,8|0,0:0|0:0,0:0:0:0:
486,122,22312,2,0,P|488:72|466:26,1,90,2|0,1:0|1:0,0:0:0:0:
384,15,22651,1,8,0:0:0:0:
384,15,22820,1,0,0:0:0:0:
352,98,22989,6,0,P|309:114|258:108,1,90,2|0,1:0|1:0,0:0:0:0:
205,43,23328,2,0,P|163:26|110:35,1,90,8|0,0:0|0:0,0:0:0:0:
62,102,23667,1,10,0:0:0:0:
152,115,23837,1,2,1:0:0:0:
95,187,24006,1,10,0:0:0:0:
185,200,24176,1,2,1:0:0:0:
128,272,24345,6,0,P|83:276|42:259,1,90,6|0,1:0|1:0,0:0:0:0:
95,187,24684,2,0,L|100:84,1,90,10|0,0:0|0:0,0:0:0:0:
76,57,24939,1,8,0:0:0:0:
76,57,25023,1,10,0:0:0:0:
156,17,25193,1,2,1:0:0:0:
156,17,25532,6,0,L|343:28,1,180,6|2,1:0|1:0,0:0:0:0:
425,37,26040,2,0,L|434:130,1,90,8|2,0:0|0:0,0:0:0:0:
386,203,26379,1,0,1:0:0:0:
317,144,26549,1,2,1:0:0:0:
270,221,26718,2,0,P|218:242|169:235,1,90,8|2,0:0|0:0,0:0:0:0:
113,184,27057,6,0,L|121:86,1,90,4|2,1:0|1:0,0:0:0:0:
127,4,27396,2,0,L|225:12,1,90,10|0,0:0|0:0,0:0:0:0:
296,52,27735,1,0,1:0:0:0:
220,101,27905,1,0,1:0:0:0:
300,142,28074,2,0,L|398:134,1,90,8|0,0:0|0:0,0:0:0:0:
476,158,28413,6,0,P|505:197|504:250,1,90,2|0,1:0|1:0,0:0:0:0:
453,309,28752,1,8,0:0:0:0:
417,227,28922,1,8,0:0:0:0:
363,299,29091,2,0,L|261:289,1,90,2|2,1:0|1:0,0:0:0:0:
222,215,29430,2,0,L|120:225,1,90,10|2,0:0|1:0,0:0:0:0:
57,274,29769,6,0,P|99:238|81:120,1,180,2|14,1:0|0:0,0:0:0:0:
12,69,30278,1,0,0:0:0:0:
12,69,30362,1,8,0:0:0:0:
12,69,30447,1,10,0:0:0:0:
97,34,30617,2,0,L|198:39,1,90,2|0,1:0|0:0,0:0:0:0:
228,118,30956,6,0,L|442:107,1,180,2|2,1:0|1:0,0:0:0:0:
497,105,31464,2,0,P|488:153|497:199,1,90,8|2,0:0|0:0,0:0:0:0:
489,283,31803,1,8,0:0:0:0:
467,289,31887,1,8,0:0:0:0:
444,290,31972,1,10,0:0:0:0:
422,288,32057,1,8,0:0:0:0:
401,281,32142,2,0,L|354:269,3,45,8|8|10|8,0:0|0:0|0:0|0:0,0:0:0:0:
342,351,32481,6,0,L|242:361,1,90,4|0,1:0|0:0,0:0:0:0:
162,365,32820,2,0,P|174:311|166:260,1,90,10|0,0:0|0:0,0:0:0:0:
90,236,33159,2,0,P|78:182|86:131,1,90,2|2,1:0|1:0,0:0:0:0:
109,61,33498,1,8,0:0:0:0:
195,89,33667,6,0,L|295:94,1,90,2|0,1:0|0:0,0:0:0:0:
375,98,34006,1,0,1:0:0:0:
371,188,34176,2,0,L|366:288,1,90,8|8,0:0|0:0,0:0:0:0:
321,356,34515,1,2,1:0:0:0:
276,278,34684,1,2,1:0:0:0:
231,357,34854,1,10,0:0:0:0:
186,279,35023,1,2,0:0:0:0:
141,358,35193,6,0,P|96:370|46:360,1,90,6|0,1:0|0:0,0:0:0:0:
28,276,35532,2,0,L|40:165,1,90,10|0,0:0|0:0,0:0:0:0:
47,97,35871,1,2,1:0:0:0:
118,151,36040,2,0,P|162:175|216:171,1,90,2|8,1:0|0:0,0:0:0:0:
280,132,36379,6,0,B|233:170|233:170|257:297,1,180,6|2,1:0|1:0,0:0:0:0:
302,364,36888,2,0,P|356:363|398:338,1,90,8|2,0:0|0:0,0:0:0:0:
429,267,37227,1,0,1:0:0:0:
347,229,37396,1,2,1:0:0:0:
389,149,37566,2,0,P|395:104|386:60,1,90,8|2,0:0|0:0,0:0:0:0:
304,22,37905,6,0,B|265:67|265:67|144:46,1,180,2|8,1:0|0:0,0:0:0:0:
56,41,38413,2,0,P|34:83|41:140,1,90,2|0,0:0|1:0,0:0:0:0:
45,214,38752,1,0,1:0:0:0:
117,160,38922,1,10,0:0:0:0:
127,250,39091,6,0,L|319:263,1,180,0|0,1:0|1:0,0:0:0:0:
397,267,39600,2,0,P|385:222|397:177,1,90,10|0,0:0|0:0,0:0:0:0:
409,91,39939,2,0,L|313:79,1,90,2|0,1:0|1:0,0:0:0:0:
260,11,40278,2,0,L|164:23,1,90,10|0,0:0|1:0,0:0:0:0:
80,16,40617,6,0,B|143:46|143:46|125:172,1,180,14|8,0:0|0:0,0:0:0:0:
115,244,41125,1,8,0:0:0:0:
198,210,41295,1,8,0:0:0:0:
127,155,41464,1,8,0:0:0:0:
210,121,41634,1,10,0:0:0:0:
139,66,41803,1,10,0:0:0:0:
198,210,41973,5,10,0:0:0:0:
198,210,42820,5,0,1:0:0:0:
248,284,42989,2,0,L|351:290,1,90,12|0,0:0|0:0,0:0:0:0:
427,296,43328,6,0,P|417:238|430:183,1,90,6|0,1:0|0:0,0:0:0:0:
490,150,43667,2,0,P|500:92|487:37,1,90,10|0,0:0|0:0,0:0:0:0:
419,13,44006,2,0,L|232:27,1,180,2|10,1:0|0:0,0:0:0:0:
150,42,44515,2,0,P|128:80|133:136,1,90,2|0,0:0|1:0,0:0:0:0:
195,186,44854,6,0,P|217:148|212:92,1,90,2|8,0:0|0:0,0:0:0:0:
108,212,45193,2,0,P|129:250|180:273,1,90,2|0,0:0|1:0,0:0:0:0:
129,125,45532,2,0,P|85:124|39:157,1,90,2|8,0:0|0:0,0:0:0:0:
195,186,45871,1,2,0:0:0:0:
216,103,46040,6,0,L|207:9,1,90,0|0,1:0|0:0,0:0:0:0:
282,164,46379,2,0,L|273:258,1,90,8|2,0:0|0:0,0:0:0:0:
267,343,46718,2,0,P|312:364|361:354,2,90,2|2|10,1:0|0:0|0:0,0:0:0:0:
273,253,47227,6,0,P|233:232|189:237,1,90,2|0,0:0|1:0,0:0:0:0:
99,248,47566,2,0,P|114:200|101:148,1,90,2|8,0:0|0:0,0:0:0:0:
82,74,47905,2,0,P|119:56|178:60,1,90,2|0,0:0|1:0,0:0:0:0:
230,121,48244,2,0,P|267:139|326:135,1,90,2|8,0:0|0:0,0:0:0:0:
384,81,48583,1,2,0:0:0:0:
441,149,48752,6,0,L|430:330,1,180,4|10,1:0|0:0,0:0:0:0:
346,363,49261,1,0,0:0:0:0:
346,363,49430,2,0,P|300:343|246:344,1,90,0|0,1:0|0:0,0:0:0:0:
210,266,49769,2,0,P|164:286|110:285,1,90,10|0,0:0|0:0,0:0:0:0:
36,268,50108,6,0,B|85:228|85:228|61:104,1,180,2|8,1:0|0:0,0:0:0:0:
23,31,50617,1,0,0:0:0:0:
112,39,50786,2,0,L|216:50,1,90,2|0,1:0|0:0,0:0:0:0:
254,121,51125,1,10,0:0:0:0:
343,113,51295,6,0,L|447:102,1,90,2|0,0:0|1:0,0:0:0:0:
501,161,51634,1,2,0:0:0:0:
432,218,51803,2,0,L|343:209,1,90,10|0,0:0|0:0,0:0:0:0:
284,277,52142,1,0,1:0:0:0:
343,345,52312,2,0,L|432:335,2,90,2|10|2,1:0|0:0|1:0,0:0:0:0:
225,209,52820,5,10,0:0:0:0:
225,209,53667,5,8,0:0:0:0:
136,190,53837,1,8,0:0:0:0:
47,171,54006,1,8,0:0:0:0:
107,103,54176,6,0,L|294:91,1,180,6|10,1:0|0:0,0:0:0:0:
363,44,54684,1,8,0:0:0:0:
390,129,54854,2,0,P|367:177|371:224,1,90,2|0,1:0|1:0,0:0:0:0:
434,273,55193,1,10,0:0:0:0:
348,299,55362,6,0,L|249:292,1,90,2|0,1:0|0:0,0:0:0:0:
168,286,55701,2,0,P|188:234|181:188,1,90,2|8,1:0|0:0,0:0:0:0:
128,130,56040,2,0,P|126:85|145:44,1,90,10|0,0:0|1:0,0:0:0:0:
234,29,56379,2,0,L|333:36,1,90,2|10,1:0|0:0,0:0:0:0:
413,24,56718,1,2,0:0:0:0:
413,24,56888,6,0,B|357:63|357:63|379:188,1,180,0|8,1:0|0:0,0:0:0:0:
389,262,57396,1,10,0:0:0:0:
305,228,57566,2,0,L|199:222,2,90,2|2|10,1:0|1:0|0:0,0:0:0:0:
376,173,58074,6,0,L|482:167,1,90,2|0,1:0|0:0,0:0:0:0:
463,77,58413,2,0,L|373:82,1,90,2|8,1:0|0:0,0:0:0:0:
297,130,58752,2,0,L|207:124,1,90,10|0,0:0|1:0,0:0:0:0:
143,61,59091,2,0,L|53:66,1,90,2|8,1:0|0:0,0:0:0:0:
25,151,59430,1,2,0:0:0:0:
53,236,59600,6,0,L|142:241,1,90,4|2,1:0|1:0,0:0:0:0:
224,202,59939,1,10,0:0:0:0:
149,151,60108,1,8,0:0:0:0:
231,112,60278,2,0,L|320:117,1,90,0|0,1:0|1:0,0:0:0:0:
410,121,60617,2,0,P|391:172|401:224,1,90,10|0,0:0|1:0,0:0:0:0:
457,271,60956,6,0,P|413:245|328:335,1,180,2|8,0:0|0:0,0:0:0:0:
252,368,61464,1,8,0:0:0:0:
200,294,61634,2,0,L|208:189,1,90,2|0,1:0|1:0,0:0:0:0:
279,150,61973,2,0,L|271:45,1,90,8|2,0:0|0:0,0:0:0:0:
193,15,62312,6,0,B|100:4|100:4|8:55,1,180,0|8,1:0|0:0,0:0:0:0:
5,134,62820,1,8,0:0:0:0:
79,183,62989,2,0,L|172:188,1,90,0|0,1:0|1:0,0:0:0:0:
247,232,63328,1,10,0:0:0:0:
168,277,63498,1,2,1:0:0:0:
247,322,63667,6,0,L|340:327,1,90,2|0,0:0|1:0,0:0:0:0:
427,331,64006,1,10,0:0:0:0:
439,248,64176,1,10,0:0:0:0:
439,248,64261,1,8,0:0:0:0:
439,248,64345,1,8,0:0:0:0:
436,151,64515,1,2,1:0:0:0:
346,146,64684,2,0,L|256:141,1,90,4|4,3:0|3:0,0:0:0:0:
168,118,65023,6,0,P|207:142|184:259,1,180,6|0,1:0|0:0,0:0:0:0:
104,294,65532,1,0,0:0:0:0:
56,217,65701,2,0,L|71:29,1,180,8|2,0:0|0:0,0:0:0:0:
160,29,66210,1,2,0:0:0:0:
168,118,66379,6,0,L|160:207,1,90,2|8,1:0|0:0,0:0:0:0:
152,297,66718,1,2,0:0:0:0:
232,257,66888,2,0,P|281:248|331:270,1,90,2|8,1:0|0:0,0:0:0:0:
389,315,67227,1,2,0:0:0:0:
399,225,67396,2,0,L|397:127,1,90,2|2,0:0|0:0,0:0:0:0:
362,53,67735,6,0,P|345:114|225:126,1,180,2|0,1:0|0:0,0:0:0:0:
168,83,68244,1,0,1:0:0:0:
117,157,68413,2,0,L|111:251,1,90,8|0,0:0|0:0,0:0:0:0:
106,336,68752,1,10,0:0:0:0:
106,336,68922,1,2,0:0:0:0:
186,297,69091,5,2,1:0:0:0:
111,246,69261,1,8,0:0:0:0:
21,237,69430,1,2,0:0:0:0:
32,148,69600,2,0,L|121:156,1,90,2|8,1:0|0:0,0:0:0:0:
173,82,69939,2,0,L|262:73,1,90,2|8,1:0|0:0,0:0:0:0:
352,65,70278,1,2,0:0:0:0:
442,57,70447,6,0,L|450:146,1,90,4|0,1:0|0:0,0:0:0:0:
508,215,70786,2,0,L|499:304,1,90,8|0,0:0|0:0,0:0:0:0:
426,357,71125,2,0,P|373:364|324:347,1,90,2|0,1:0|1:0,0:0:0:0:
273,291,71464,2,0,L|264:201,1,90,8|0,0:0|0:0,0:0:0:0:
174,196,71803,6,0,L|192:0,1,180,2|10,1:0|0:0,0:0:0:0:
281,20,72312,1,0,0:0:0:0:
274,109,72481,2,0,L|257:288,1,180,2|10,1:0|0:0,0:0:0:0:
204,361,72989,1,0,0:0:0:0:
167,278,73159,6,0,P|123:259|66:261,1,90,2|0,1:0|0:0,0:0:0:0:
18,193,73498,2,0,P|56:164|83:114,1,90,8|8,0:0|0:0,0:0:0:0:
166,106,73837,2,0,P|171:153|201:201,2,90,0|0|8,1:0|1:0|0:0,0:0:0:0:
224,38,74345,1,0,1:0:0:0:
254,123,74515,5,10,0:0:0:0:
166,106,74684,1,0,1:0:0:0:
312,55,74854,1,8,0:0:0:0:
224,38,75023,1,0,1:0:0:0:
342,140,75193,1,8,0:0:0:0:
254,123,75362,1,10,0:0:0:0:
237,138,75446,1,8,0:0:0:0:
226,157,75531,1,10,0:0:0:0:
220,179,75616,1,8,0:0:0:0:
219,201,75700,1,10,0:0:0:0:
225,223,75785,1,8,0:0:0:0:
236,243,75871,6,0,P|286:280|334:281,1,90,4|0,1:0|0:0,0:0:0:0:
402,287,76210,2,0,L|406:181,1,90,10|0,0:0|0:0,0:0:0:0:
452,119,76549,2,0,L|448:13,1,90,10|0,0:0|1:0,0:0:0:0:
359,31,76888,1,10,0:0:0:0:
359,31,77058,1,2,1:0:0:0:
362,122,77227,6,0,L|272:125,1,90,8|2,0:0|1:0,0:0:0:0:
182,128,77566,2,0,L|185:217,1,90,8|2,0:0|1:0,0:0:0:0:
188,306,77905,2,0,L|277:302,1,90,8|2,0:0|1:0,0:0:0:0:
368,300,78244,2,0,L|364:210,1,90,8|2,0:0|1:0,0:0:0:0:
362,122,78583,5,12,0:0:0:0:
272,125,78752,1,2,1:0:0:0:
275,213,78922,2,0,L|278:302,1,90,8|0,0:0|1:0,0:0:0:0:
188,306,79261,1,10,0:0:0:0:
185,216,79430,1,0,1:0:0:0:
275,213,79600,1,8,0:0:0:0:
109,264,79769,6,0,P|60:247|48:116,1,180,4|0,1:0|1:0,0:0:0:0:
73,50,80278,2,0,L|175:56,1,90,8|2,0:0|1:0,0:0:0:0:
247,87,80617,1,4,0:0:0:0:
177,143,80786,1,0,1:0:0:0:
262,175,80956,1,10,0:0:0:0:
192,231,81125,1,2,0:0:0:0:
277,263,81295,6,0,L|379:269,1,90,10|0,0:0|0:0,0:0:0:0:
456,272,81634,2,0,P|444:217|454:174,1,90,10|0,0:0|0:0,0:0:0:0:
506,114,81973,2,0,P|518:59|508:16,1,90,10|0,0:0|1:0,0:0:0:0:
423,9,82312,1,10,0:0:0:0:
423,9,82481,6,0,P|376:26|331:21,1,90,2|8,1:0|0:0,0:0:0:0:
267,80,82820,2,0,P|220:63|175:68,1,90,2|8,1:0|0:0,0:0:0:0:
104,114,83159,2,0,L|113:207,1,90,2|8,1:0|0:0,0:0:0:0:
173,269,83498,1,2,1:0:0:0:
200,183,83667,1,10,0:0:0:0:
261,249,83837,1,2,1:0:0:0:
288,163,84006,6,0,P|336:150|380:160,1,90,10|0,0:0|0:0,0:0:0:0:
444,214,84345,2,0,L|438:331,1,90,10|0,0:0|0:0,0:0:0:0:
373,365,84684,2,0,P|332:340|283:343,1,90,10|0,0:0|1:0,0:0:0:0:
208,376,85023,1,10,0:0:0:0:
172,293,85193,6,0,L|186:79,1,180,6|0,1:0|1:0,0:0:0:0:
191,23,85701,2,0,P|240:10|279:18,1,90,10|0,0:0|0:0,0:0:0:0:
320,97,86040,2,0,P|369:110|408:102,1,90,2|0,1:0|1:0,0:0:0:0:
493,76,86379,2,0,P|489:120|502:175,1,90,10|0,0:0|0:0,0:0:0:0:
510,254,86718,6,0,P|483:206|348:223,1,180,14|8,0:0|0:0,0:0:0:0:
333,284,87227,1,0,0:0:0:0:
279,212,87396,2,0,L|276:115,1,90,8|0,0:0|1:0,0:0:0:0:
269,32,87735,2,0,P|226:50|175:45,1,90,10|0,0:0|1:0,0:0:0:0:
98,18,88074,6,0,B|54:50|54:50|75:183,1,180,8|10,0:0|0:0,0:0:0:0:
91,263,88583,1,0,1:0:0:0:
158,203,88752,2,0,P|207:185|261:194,1,90,10|0,0:0|1:0,0:0:0:0:
301,257,89091,2,0,P|350:275|404:266,1,90,10|0,0:0|1:0,0:0:0:0:
465,228,89430,6,0,L|456:128,1,90,10|0,0:0|1:0,0:0:0:0:
473,49,89769,2,0,B|442:107|442:107|327:90,1,180,10|8,0:0|0:0,0:0:0:0:
251,43,90278,1,0,1:0:0:0:
237,131,90447,2,0,L|247:241,1,90,10|0,0:0|1:0,0:0:0:0:
289,300,90786,6,0,P|263:256|139:273,1,180,8|10,0:0|0:0,0:0:0:0:
69,308,91295,1,0,1:0:0:0:
23,230,91464,2,0,L|28:137,1,90,10|0,0:0|1:0,0:0:0:0:
33,50,91803,1,10,0:0:0:0:
33,50,91973,1,2,1:0:0:0:
108,101,92142,6,0,L|217:109,1,90,12|2,0:0|1:0,0:0:0:0:
255,176,92481,2,0,L|364:168,1,90,8|2,0:0|1:0,0:0:0:0:
435,163,92820,2,0,P|426:217|440:272,1,90,12|2,0:0|1:0,0:0:0:0:
446,340,93159,2,0,L|337:332,1,90,8|2,0:0|1:0,0:0:0:0:
285,276,93498,6,0,L|176:284,1,90,12|2,0:0|1:0,0:0:0:0:
105,289,93837,2,0,P|111:232|94:177,1,90,8|2,0:0|1:0,0:0:0:0:
25,155,94176,2,0,P|19:98|36:43,1,90,12|2,0:0|1:0,0:0:0:0:
97,11,94515,2,0,L|196:21,1,90,8|2,0:0|1:0,0:0:0:0:
258,74,94854,5,12,0:0:0:0:
258,74,95023,1,0,0:1:0:0:
175,108,95193,1,12,0:0:0:0:
175,108,95362,1,0,0:1:0:0:
247,162,95532,1,12,0:0:0:0:
247,162,95701,1,0,0:1:0:0:
164,196,95871,1,12,0:0:0:0:
164,196,96040,1,0,0:1:0:0:
175,108,96210,5,14,0:0:0:0:
247,162,96379,1,0,1:0:0:0:
253,183,96463,1,0,1:0:0:0:
255,205,96548,1,8,0:0:0:0:
251,227,96633,1,0,0:0:0:0:
241,247,96717,1,0,1:0:0:0:
226,264,96802,1,0,1:0:0:0:
208,277,96888,2,0,L|139:284,7,45,8|0|0|0|8|8|8|8,0:0|0:0|1:0|1:0|0:0|0:0|0:0|0:0,0:0:0:0:
272,329,97566,6,0,L|385:338,1,90,6|0,1:0|0:0,0:0:0:0:
451,348,97905,2,0,P|441:285|454:247,1,90,10|0,0:0|0:0,0:0:0:0:
478,175,98244,2,0,P|448:214|320:177,1,180,2|10,1:0|0:0,0:0:0:0:
313,108,98752,2,0,P|265:85|214:92,1,90,2|0,0:0|1:0,0:0:0:0:
146,121,99091,6,0,L|156:214,1,90,2|8,0:0|0:0,0:0:0:0:
240,241,99430,2,0,L|230:334,1,90,2|0,0:0|1:0,0:0:0:0:
307,377,99769,2,0,P|362:349|407:356,1,90,2|8,0:0|0:0,0:0:0:0:
478,359,100108,1,2,0:0:0:0:
478,359,100278,6,0,L|473:255,1,90,0|0,1:0|0:0,0:0:0:0:
398,219,100617,2,0,L|403:115,1,90,8|2,0:0|0:0,0:0:0:0:
355,51,100956,2,0,P|322:36|257:45,1,90,2|2,1:0|0:0,0:0:0:0:
179,30,101295,1,10,0:0:0:0:
216,112,101464,6,0,P|249:127|314:118,1,90,2|0,0:0|1:0,0:0:0:0:
391,127,101803,2,0,L|394:235,1,90,2|8,0:0|0:0,0:0:0:0:
476,253,102142,2,0,L|473:361,1,90,2|0,0:0|1:0,0:0:0:0:
386,366,102481,2,0,P|343:340|293:346,1,90,2|8,0:0|0:0,0:0:0:0:
219,372,102820,1,2,0:0:0:0:
191,286,102989,6,0,L|201:87,1,180,4|10,1:0|0:0,0:0:0:0:
207,15,103498,1,0,0:0:0:0:
280,67,103667,2,0,P|329:80|380:74,1,90,0|0,1:0|0:0,0:0:0:0:
457,65,104006,2,0,P|447:123|464:163,1,90,10|0,0:0|0:0,0:0:0:0:
484,237,104345,6,0,P|429:178|329:205,1,180,2|8,1:0|0:0,0:0:0:0:
279,263,104854,1,0,0:0:0:0:
252,177,105023,2,0,L|246:74,1,90,2|0,1:0|0:0,0:0:0:0:
198,11,105362,1,10,0:0:0:0:
158,91,105532,6,0,L|163:180,1,90,2|0,0:0|1:0,0:0:0:0:
121,260,105871,1,2,0:0:0:0:
74,183,106040,2,0,B|67:55|67:55|109:13,1,180,10|0,0:0|1:0,0:0:0:0:
198,11,106549,1,2,1:0:0:0:
158,91,106718,1,10,0:0:0:0:
247,87,106888,1,2,1:0:0:0:
207,167,107057,6,0,P|190:217|200:268,1,90,2|0,1:0|0:0,0:0:0:0:
183,342,107396,1,8,0:0:0:0:
266,307,107566,2,0,P|283:257|273:206,1,90,8|0,0:0|0:0,0:0:0:0:
207,167,107905,2,0,P|190:117|200:66,1,90,0|8,1:0|0:0,0:0:0:0:
244,5,108244,1,0,0:0:0:0:
282,86,108413,6,0,P|320:109|380:108,1,90,6|0,1:0|0:0,0:0:0:0:
420,40,108752,2,0,P|464:42|502:66,1,90,10|0,0:0|0:0,0:0:0:0:
498,156,109091,2,0,L|505:266,1,90,2|0,1:0|0:0,0:0:0:0:
510,335,109430,1,10,0:0:0:0:
429,295,109600,6,0,P|389:275|327:278,1,90,2|0,0:0|1:0,0:0:0:0:
255,289,109939,2,0,P|262:233|257:198,1,90,2|8,0:0|0:0,0:0:0:0:
186,144,110278,2,0,P|179:88|184:53,1,90,2|0,0:0|1:0,0:0:0:0:
261,8,110617,2,0,L|365:20,1,90,2|8,0:0|0:0,0:0:0:0:
439,29,110956,1,2,0:0:0:0:
385,100,111125,6,0,B|340:132|340:132|362:272,1,180,0|8,1:0|0:0,0:0:0:0:
369,345,111634,1,2,0:0:0:0:
286,310,111803,2,0,L|171:301,2,90,2|2|10,1:0|0:0|0:0,0:0:0:0:
359,255,112312,6,0,L|474:246,1,90,2|0,0:0|1:0,0:0:0:0:
505,177,112651,2,0,P|486:126|487:78,1,90,2|8,0:0|0:0,0:0:0:0:
474,1,112989,2,0,L|384:8,1,90,2|0,0:0|1:0,0:0:0:0:
322,74,113328,2,0,L|232:66,1,90,2|8,0:0|0:0,0:0:0:0:
151,26,113667,1,2,0:0:0:0:
100,100,113837,6,0,L|109:199,1,90,4|2,1:0|0:0,0:0:0:0:
187,232,114176,2,0,L|178:331,1,90,10|0,0:0|0:0,0:0:0:0:
107,376,114515,2,0,P|52:365|22:339,1,90,0|0,1:0|0:0,0:0:0:0:
25,254,114854,2,0,L|33:164,1,90,10|0,0:0|0:0,0:0:0:0:
34,74,115193,6,0,P|56:134|182:127,1,180,2|8,1:0|0:0,0:0:0:0:
218,77,115701,1,0,0:0:0:0:
247,162,115871,2,0,L|255:261,1,90,2|0,1:0|0:0,0:0:0:0:
256,341,116210,2,0,P|301:326|360:333,1,90,8|2,0:0|0:0,0:0:0:0:
428,355,116549,6,0,P|387:334|407:204,1,180,0|10,1:0|0:0,0:0:0:0:
466,167,117057,1,0,0:0:0:0:
386,124,117227,2,0,L|294:118,1,90,0|0,1:0|0:0,0:0:0:0:
210,145,117566,1,10,0:0:0:0:
274,206,117735,1,2,0:0:0:0:
296,118,117905,5,6,1:0:0:0:
188,233,118074,2,0,L|86:226,1,90,8|2,0:0|1:0,0:0:0:0:
8,216,118413,2,0,P|33:165|33:120,1,90,10|8,0:0|0:0,0:0:0:0:
12,45,118752,1,4,3:0:0:0:
98,70,118922,1,4,3:0:0:0:
34,132,119091,1,4,3:0:0:0:
120,157,119261,6,0,L|336:171,1,180,6|0,1:0|0:0,0:0:0:0:
375,218,119769,1,0,0:0:0:0:
295,260,119939,2,0,L|115:247,1,180,8|2,0:0|0:0,0:0:0:0:
39,198,120447,1,2,0:0:0:0:
120,157,120617,5,2,1:0:0:0:
44,108,120786,2,0,P|32:58|43:8,1,90,8|2,0:0|0:0,0:0:0:0:
128,19,121125,2,0,L|224:32,1,90,2|8,1:0|0:0,0:0:0:0:
274,101,121464,1,2,0:0:0:0:
184,114,121634,1,2,0:0:0:0:
241,184,121803,1,10,0:0:0:0:
151,197,121973,6,0,P|92:225|97:354,1,180,2|0,1:0|0:0,0:0:0:0:
158,289,122481,1,0,1:0:0:0:
234,236,122651,2,0,L|240:112,1,90,8|0,0:0|0:0,0:0:0:0:
280,66,122989,1,10,0:0:0:0:
328,141,123159,1,2,0:0:0:0:
370,61,123328,5,2,1:0:0:0:
418,136,123498,2,0,L|411:246,1,90,8|2,0:0|1:0,0:0:0:0:
398,315,123837,2,0,P|352:294|307:301,1,90,2|8,1:0|0:0,0:0:0:0:
252,364,124176,2,0,P|207:367|167:347,1,90,2|8,1:0|0:0,0:0:0:0:
105,281,124515,1,2,0:0:0:0:
192,260,124684,6,0,B|216:143|216:143|165:87,1,180,4|8,1:0|0:0,0:0:0:0:
111,34,125193,1,0,0:0:0:0:
198,12,125362,2,0,L|302:20,1,90,2|0,1:0|1:0,0:0:0:0:
330,98,125701,2,0,L|434:90,1,90,8|0,0:0|0:0,0:0:0:0:
509,80,126040,6,0,P|496:140|506:181,1,90,2|0,1:0|0:0,0:0:0:0:
511,257,126379,2,0,L|421:263,1,90,10|0,0:0|0:0,0:0:0:0:
369,337,126718,2,0,L|183:322,1,180,2|10,1:0|0:0,0:0:0:0:
115,270,127227,1,0,0:0:0:0:
198,233,127396,6,0,P|213:185|208:134,1,90,6|0,1:0|1:0,0:0:0:0:
162,69,127735,1,10,0:0:0:0:
121,149,127905,1,8,0:0:0:0:
211,146,128074,2,0,L|320:141,1,90,0|0,1:0|1:0,0:0:0:0:
379,97,128413,1,10,0:0:0:0:
300,52,128583,1,2,1:0:0:0:
379,186,128752,5,10,0:0:0:0:
379,97,128921,1,0,1:0:0:0:
300,230,129091,1,10,0:0:0:0:
300,141,129260,1,2,1:0:0:0:
379,275,129430,1,8,0:0:0:0:
379,186,129599,1,2,1:0:0:0:
300,319,129769,2,0,P|255:339|206:332,1,90,10|0,0:0|1:0,0:0:0:0:
134,296,130108,6,0,L|139:191,1,90,4|0,1:0|0:0,0:0:0:0:
132,116,130447,1,8,0:0:0:0:
57,166,130617,1,8,0:0:0:0:
138,206,130786,2,0,L|233:200,1,90,2|0,1:0|1:0,0:0:0:0:
271,121,131125,2,0,L|366:127,1,90,8|2,0:0|1:0,0:0:0:0:
450,137,131464,6,0,P|434:192|445:239,1,90,0|0,1:0|1:0,0:0:0:0:
485,300,131803,1,8,0:0:0:0:
394,301,131973,1,8,0:0:0:0:
303,302,132142,2,0,L|213:302,1,90,2|0,1:0|1:0,0:0:0:0:
122,298,132481,2,0,P|139:241|129:198,1,90,10|0,0:0|0:0,0:0:0:0:
60,160,132820,6,0,P|43:103|53:60,1,90,2|0,1:0|1:0,0:0:0:0:
116,14,133159,1,8,0:0:0:0:
132,104,133328,1,8,0:0:0:0:
201,45,133498,2,0,P|253:30|305:46,1,90,2|0,1:0|1:0,0:0:0:0:
377,30,133837,1,10,0:0:0:0:
338,111,134006,6,0,P|286:126|234:110,1,90,0|0,1:0|0:0,0:0:0:0:
201,45,134345,1,0,1:0:0:0:
161,126,134515,1,10,0:0:0:0:
111,52,134684,1,8,0:0:0:0:
71,133,134854,2,0,P|56:189|65:232,1,90,2|0,1:0|0:0,0:0:0:0:
114,292,135193,2,0,L|212:279,1,90,10|2,0:0|0:0,0:0:0:0:
255,206,135532,6,0,L|353:219,1,90,4|0,1:0|1:0,0:0:0:0:
432,197,135871,1,8,0:0:0:0:
371,131,136040,1,8,0:0:0:0:
344,217,136210,2,0,L|352:315,1,90,2|0,1:0|1:0,0:0:0:0:
289,372,136549,1,8,0:0:0:0:
226,307,136718,6,0,P|177:291|131:302,1,90,2|0,1:0|1:0,0:0:0:0:
73,358,137057,1,0,1:0:0:0:
55,269,137227,1,8,0:0:0:0:
140,297,137396,1,8,0:0:0:0:
122,208,137566,2,0,L|126:106,1,90,2|0,1:0|0:0,0:0:0:0:
129,27,137905,2,0,P|179:46|230:38,1,90,8|0,0:0|0:0,0:0:0:0:
302,23,138244,6,0,P|298:81|323:121,1,90,2|0,1:0|1:0,0:0:0:0:
394,147,138583,1,8,0:0:0:0:
385,56,138752,1,8,0:0:0:0:
311,108,138922,2,0,P|272:124|215:114,1,90,0|0,1:0|1:0,0:0:0:0:
153,63,139261,1,10,0:0:0:0:
153,63,139430,1,2,1:0:0:0:
105,139,139600,6,0,L|102:236,1,90,10|0,0:0|1:0,0:0:0:0:
152,303,139939,1,10,0:0:0:0:
192,222,140108,1,2,1:0:0:0:
292,372,140278,1,8,0:0:0:0:
242,297,140447,1,2,1:0:0:0:
332,291,140617,2,0,P|382:309|428:300,1,90,10|0,0:0|0:0,0:0:0:0:
478,237,140956,6,0,L|470:140,1,90,6|0,1:0|0:0,0:0:0:0:
426,68,141295,1,8,0:0:0:0:
380,145,141464,1,8,0:0:0:0:
336,66,141634,2,0,P|283:45|239:54,1,90,2|0,1:0|1:0,0:0:0:0:
179,103,141973,1,8,0:0:0:0:
261,139,142142,6,0,L|270:237,1,90,2|0,1:0|1:0,0:0:0:0:
277,318,142481,1,0,1:0:0:0:
187,326,142651,1,8,0:0:0:0:
178,236,142820,1,8,0:0:0:0:
269,228,142989,2,0,P|321:238|360:283,1,90,2|0,1:0|1:0,0:0:0:0:
356,351,143328,2,0,P|311:344|276:317,1,90,8|0,0:0|0:0,0:0:0:0:
430,299,143667,6,0,P|482:315|512:342,1,90,2|0,1:0|1:0,0:0:0:0:
356,351,144006,1,8,0:0:0:0:
348,261,144176,1,8,0:0:0:0:
340,171,144345,2,0,L|332:65,1,90,0|0,1:0|1:0,0:0:0:0:
265,21,144684,1,10,0:0:0:0:
248,109,144854,1,2,1:0:0:0:
180,49,145023,6,0,P|136:38|86:55,1,90,2|0,0:0|1:0,0:0:0:0:
47,126,145362,1,10,0:0:0:0:
96,203,145532,2,0,P|127:170|137:118,1,90,10|0,0:0|1:0,0:0:0:0:
4,206,145871,2,0,P|16:249|56:284,1,90,2|8,0:0|0:0,0:0:0:0:
137,283,146210,1,2,0:0:0:0:
96,203,146379,6,0,L|92:98,1,90,4|0,1:0|0:0,0:0:0:0:
89,23,146718,2,0,P|144:43|191:37,1,90,10|8,0:0|0:0,0:0:0:0:
263,26,147057,2,0,L|266:115,1,90,2|0,1:0|1:0,0:0:0:0:
299,199,147396,1,10,0:0:0:0:
352,127,147566,6,0,P|311:110|261:118,1,90,2|0,1:0|0:0,0:0:0:0:
214,188,147905,2,0,P|255:205|305:197,1,90,0|8,1:0|0:0,0:0:0:0:
177,105,148244,1,8,0:0:0:0:
123,178,148413,2,0,L|132:286,1,90,0|0,1:0|1:0,0:0:0:0:
222,278,148752,2,0,L|214:188,1,90,8|0,0:0|0:0,0:0:0:0:
177,105,149091,5,12,0:0:0:0:
123,178,149260,1,0,1:0:0:0:
269,115,149430,1,8,0:0:0:0:
215,188,149599,1,0,1:0:0:0:
361,125,149770,1,8,0:0:0:0:
307,198,149939,1,0,1:0:0:0:
453,135,150108,1,12,0:0:0:0:
399,208,150277,1,0,1:0:0:0:
507,62,150447,5,8,0:0:0:0:
487,51,150531,1,8,0:0:0:0:
465,45,150616,1,8,0:0:0:0:
443,45,150701,1,8,0:0:0:0:
421,51,150786,2,0,L|368:68,1,45,8|8,0:0|0:0,0:0:0:0:
316,131,150956,2,0,L|263:114,1,45,8|8,0:0|0:0,0:0:0:0:
206,51,151125,1,0,1:0:0:0:
206,184,151295,6,0,L|210:232,1,45,8|0,0:0|0:0,0:0:0:0:
302,287,151464,2,0,L|306:239,1,45,8|0,0:0|0:0,0:0:0:0:
184,184,151634,2,0,L|188:232,1,45,8|0,0:0|0:0,0:0:0:0:
280,287,151803,5,2,0:0:0:0:
