osu file format v14

[General]
AudioFilename: audio.mp3
AudioLeadIn: 0
PreviewTime: 97481
Countdown: 0
SampleSet: Soft
StackLeniency: 0.7
Mode: 0
LetterboxInBreaks: 0
WidescreenStoryboard: 0

[Editor]
Bookmarks: 97566
DistanceSpacing: 1.8
BeatDivisor: 4
GridSize: 4
TimelineZoom: 1.7

[Metadata]
Title:Kimi ni Pierrot
TitleUnicode:君にピエロ
Artist:LiSA
ArtistUnicode:LiSA
Creator:A r M i N
Version:Garden's Extra
Source:
Tags:risa oribe launcher Osatia JenHideo Waku Sotarks bite you death byd armin a_r_m_i_n Shunao ShogunMoon Garden SnowNiNo_ NiNo
BeatmapID:1656971
BeatmapSetID:775766

[Difficulty]
HPDrainRate:6
CircleSize:4
OverallDifficulty:8.5
ApproachRate:9.1
SliderMultiplier:1.6
SliderTickRate:1

[Events]
//Background and Video events
0,0,"BG.jpg",0,0
//Break Periods
//Storyboard Layer 0 (Background)
//Storyboard Layer 1 (Fail)
//Storyboard Layer 2 (Pass)
//Storyboard Layer 3 (Foreground)
//Storyboard Sound Samples

[TimingPoints]
2651,338.983050847458,4,2,22,32,1,0
2651,-125,4,2,22,32,0,0
13498,-100,4,2,22,62,0,0
24345,-83.3333333333333,4,2,22,62,0,0
25532,-100,4,2,22,62,0,0
29769,-83.3333333333333,4,2,22,62,0,0
30956,-100,4,2,22,62,0,0
35193,-83.3333333333333,4,2,22,62,0,0
35532,-100,4,2,22,62,0,0
42142,-100,4,2,22,42,0,0
42989,-71.4285714285714,4,2,22,62,0,0
43244,-100,4,2,22,5,0,0
43328,-100,4,2,22,72,0,1
52820,-100,4,2,22,72,0,0
54176,-100,4,2,22,72,0,1
65023,-111.111111111111,4,2,22,52,0,0
69261,-111.111111111111,4,2,22,62,0,0
70447,-100,4,2,22,62,0,0
74515,-83.3333333333333,4,2,22,62,0,0
75871,-83.3333333333333,4,2,22,62,0,0
76210,-100,4,2,22,62,0,0
92142,-100,4,2,22,72,0,1
94854,-83.3333333333333,4,2,22,82,0,1
96210,-100,4,2,22,82,0,0
97481,-100,4,2,22,82,0,0
97566,-90.9090909090909,4,2,22,72,0,1
108328,-90.9090909090909,4,2,22,72,0,0
108413,-76.9230769230769,4,2,22,72,0,1
108752,-90.9090909090909,4,2,22,72,0,1
119261,-111.111111111111,4,2,22,52,0,0
124684,-100,4,2,22,62,0,0
130108,-100,4,2,22,62,0,0
149091,-83.3333333333333,4,2,22,62,0,0
151803,-200,4,2,22,42,0,0
159939,-100,4,2,22,32,0,0
160023,-100,4,2,22,22,0,0
164006,-100,4,2,22,12,0,0
168074,-100,4,2,22,5,0,0

[Colours]
Combo1 : 255,165,121
Combo2 : 255,128,128
Combo3 : 255,255,128
Combo4 : 255,176,255
SliderBorder : 255,226,226

[HitObjects]
133,123,2651,6,0,P|145:185|154:249,1,128,2|0,0:0|0:0,0:0:0:0:
237,144,3159,1,2,0:0:0:0:
237,144,3498,2,0,P|240:112|244:80,1,64,0|2,0:0|0:0,0:0:0:0:
330,121,3837,1,2,0:0:0:0:
330,121,4006,6,0,P|409:108|475:100,1,128,2|0,0:0|0:0,0:0:0:0:
512,246,4515,2,0,P|471:199|410:204,1,128,2|0,0:0|0:0,0:0:0:0:
347,263,5023,2,0,P|353:297|359:333,1,64,2|2,0:0|0:0,0:0:0:0:
285,369,5362,5,2,0:0:0:0:
134,250,5701,1,0,0:0:0:0:
134,250,5871,1,2,0:0:0:0:
188,384,6210,1,0,0:0:0:0:
188,384,6379,2,0,P|193:352|198:320,1,64,2|2,0:0|0:0,0:0:0:0:
261,248,6718,6,0,B|230:213|230:213|227:171|261:125,1,128,2|0,0:0|0:0,0:0:0:0:
392,94,7227,1,2,0:0:0:0:
391,94,7566,2,0,P|360:85|329:76,1,64,2|2,0:0|0:0,0:0:0:0:
257,20,7905,1,0,0:0:0:0:
257,20,8074,6,0,P|187:29|121:36,1,128,2|0,0:0|0:0,0:0:0:0:
0,119,8583,2,0,B|32:133|67:155|67:155|86:143|118:121,1,128,2|0,0:0|0:0,0:0:0:0:
264,154,9091,2,0,P|230:149|200:143,1,64,2|2,0:0|0:0,0:0:0:0:
35,236,9430,6,0,B|11:280|11:280|18:324|57:359,1,128,2|0,0:0|0:0,0:0:0:0:
167,227,9939,2,0,P|119:187|110:126,1,128,2|0,0:0|0:0,0:0:0:0:
196,5,10447,2,0,P|188:36|182:67,1,64,2|0,0:0|0:0,0:0:0:0:
264,154,10786,5,2,0:0:0:0:
426,60,11125,1,0,0:0:0:0:
426,60,11295,1,2,0:0:0:0:
349,186,11634,1,0,0:0:0:0:
348,185,11803,2,0,P|351:153|356:121,1,64,0|0,0:0|0:0,0:0:0:0:
296,55,12142,6,0,B|261:60|220:38|220:38|202:65|166:71,1,128,2|2,0:0|0:0,0:0:0:0:
182,67,12651,1,2,0:0:0:0:
3,159,13498,6,0,B|77:131|77:131|116:141,1,120,6|0,1:0|0:0,0:0:0:0:
145,151,13837,2,0,P|138:190|132:229,1,80,10|0,0:0|0:0,0:0:0:0:
239,204,14176,1,2,1:0:0:0:
111,334,14345,2,0,P|161:323|198:315,1,80,2|8,1:0|0:0,0:0:0:0:
359,261,14684,6,0,B|340:213|295:186|295:186|229:206,1,160,2|0,1:0|1:0,0:0:0:0:
145,151,15193,1,8,0:0:0:0:
145,151,15532,1,2,1:0:0:0:
247,19,15701,2,0,P|238:58|230:97,1,80,2|8,1:0|0:0,0:0:0:0:
342,85,16040,1,2,0:0:0:0:
342,85,16125,1,2,0:0:0:0:
342,85,16210,6,0,P|415:94|481:42,1,160,0|8,1:0|0:0,0:0:0:0:
480,43,16888,2,0,P|471:82|463:121,1,80,2|0,1:0|1:0,0:0:0:0:
311,278,17227,1,8,0:0:0:0:
458,207,17396,6,0,B|431:205|407:188|407:188|364:210|364:210|337:191|303:192,1,160,0|0,1:0|1:0,0:0:0:0:
135,271,17905,2,0,P|95:266|55:262,1,80,10|0,0:0|0:0,0:0:0:0:
209,152,18244,2,0,P|213:191|221:231,1,80,2|0,1:0|1:0,0:0:0:0:
414,292,18583,1,10,0:0:0:0:
414,292,18922,6,0,B|343:277|343:277|287:310,1,120,4|0,1:0|0:0,0:0:0:0:
279,319,19261,2,0,P|233:332|182:326,1,80,10|0,0:0|0:0,0:0:0:0:
221,231,19600,1,0,1:0:0:0:
97,384,19769,2,0,P|102:344|106:304,1,80,0|10,1:0|0:0,0:0:0:0:
19,111,20108,6,0,B|56:146|51:211|51:211|11:245,1,160,2|2,1:0|1:0,0:0:0:0:
221,231,20617,2,0,P|255:222|313:211,1,80,8|2,0:0|0:0,0:0:0:0:
144,155,20956,1,0,1:0:0:0:
105,304,21125,1,2,1:0:0:0:
150,132,21295,2,0,P|142:97|124:39,1,80,8|2,0:0|0:0,0:0:0:0:
271,89,21634,6,0,P|351:100|409:34,2,160,2|8|2,1:0|0:0|1:0,0:0:0:0:
271,89,22481,1,0,1:0:0:0:
433,173,22651,2,0,P|472:166|512:160,1,80,8|0,0:0|0:0,0:0:0:0:
360,322,22989,6,0,B|342:287|342:287|351:247,1,80,2|0,1:0|1:0,0:0:0:0:
271,89,23328,2,0,L|265:169,1,80,8|0,0:0|0:0,0:0:0:0:
173,29,23667,1,10,0:0:0:0:
382,83,23837,1,2,1:0:0:0:
156,180,24006,1,10,0:0:0:0:
400,78,24176,1,2,1:0:0:0:
155,26,24345,6,0,B|101:13|101:13|15:48,1,143.999995605469,6|0,1:0|0:0,0:0:0:0:
10,73,24684,2,0,P|39:104|36:165,1,95.9999970703126,10|0,0:0|0:0,0:0:0:0:
24,188,24939,1,8,0:0:0:0:
24,188,25023,1,10,0:0:0:0:
271,89,25193,1,2,1:0:0:0:
271,89,25532,6,0,B|371:52|423:151,1,160,6|2,1:0|1:0,0:0:0:0:
490,244,26040,2,0,P|496:205|505:166,1,80,8|2,0:0|0:0,0:0:0:0:
323,176,26379,1,0,1:0:0:0:
462,53,26549,1,2,1:0:0:0:
305,191,26718,2,0,P|292:236|286:275,1,80,8|0,0:0|0:0,0:0:0:0:
152,181,27057,6,0,P|183:100|149:30,2,160,4|10|0,1:0|0:0|1:0,0:0:0:0:
10,126,27905,2,0,P|61:116|101:107,1,80,0|8,1:0|0:0,0:0:0:0:
326,35,28244,1,0,0:0:0:0:
326,35,28328,1,0,0:0:0:0:
326,35,28413,6,0,P|283:14|230:26,1,80,2|0,1:0|1:0,0:0:0:0:
152,181,28752,1,8,0:0:0:0:
372,126,28922,1,8,0:0:0:0:
265,111,29091,2,0,P|258:162|254:203,1,80,2|2,1:0|1:0,0:0:0:0:
103,345,29430,2,0,P|99:303|92:256,1,80,10|2,0:0|1:0,0:0:0:0:
224,316,29769,6,0,B|243:329|268:339|268:339|307:318|350:282,1,143.999995605469,2|0,1:0|0:0,0:0:0:0:
345,257,30108,2,0,P|392:262|440:267,1,95.9999970703126,14|0,0:0|0:0,0:0:0:0:
477,267,30362,1,8,0:0:0:0:
477,267,30447,1,10,0:0:0:0:
255,190,30617,1,2,1:0:0:0:
255,190,30956,6,0,P|263:115|279:-5,1,160,6|2,1:0|1:0,0:0:0:0:
444,134,31464,2,0,P|404:142|366:152,1,80,8|2,0:0|0:0,0:0:0:0:
161,248,31803,1,8,0:0:0:0:
189,233,31888,1,8,0:0:0:0:
220,226,31973,1,10,0:0:0:0:
252,227,32057,1,8,0:0:0:0:
282,237,32142,1,8,0:0:0:0:
309,254,32227,1,8,0:0:0:0:
331,278,32312,2,0,L|326:333,1,40,10|8,0:0|0:0,0:0:0:0:
178,342,32481,6,0,P|103:325|65:257,1,160,4|10,1:0|0:0,0:0:0:0:
150,81,33159,1,2,1:0:0:0:
0,160,33328,2,0,P|41:155|90:149,1,80,2|8,1:0|0:0,0:0:0:0:
218,321,33667,1,2,1:0:0:0:
218,321,33752,1,0,0:0:0:0:
218,321,33837,5,0,0:0:0:0:
50,253,34006,1,0,1:0:0:0:
244,182,34176,1,8,0:0:0:0:
128,357,34345,1,8,0:0:0:0:
382,286,34515,2,0,P|345:277|298:269,1,80,2|2,1:0|1:0,0:0:0:0:
371,95,34854,2,0,P|358:142|349:186,1,80,10|2,0:0|0:0,0:0:0:0:
451,368,35193,6,0,B|475:280|475:280|452:230,1,143.999995605469,6|0,1:0|0:0,0:0:0:0:
434,204,35532,2,0,P|473:211|512:217,1,80,10|0,0:0|0:0,0:0:0:0:
454,18,35871,1,2,1:0:0:0:
371,95,36040,2,0,P|332:87|292:79,1,80,2|8,1:0|0:0,0:0:0:0:
103,138,36379,6,0,B|153:107|153:107|206:119|240:177,1,160,6|2,1:0|1:0,0:0:0:0:
334,269,36888,1,8,0:0:0:0:
233,342,37057,2,0,P|228:300|221:252,1,80,2|0,0:0|1:0,0:0:0:0:
357,95,37396,2,0,P|351:134|346:174,1,80,2|8,1:0|0:0,0:0:0:0:
460,135,37735,1,2,0:0:0:0:
293,9,37905,6,0,P|211:19|126:30,2,160,2|8|0,1:0|0:0|1:0,0:0:0:0:
431,73,38752,2,0,P|391:76|356:95,1,80,0|10,1:0|0:0,0:0:0:0:
260,261,39091,6,0,B|296:217|296:217|290:170|241:112,1,160,0|0,1:0|1:0,0:0:0:0:
143,31,39600,2,0,P|136:79|130:132,1,80,10|0,0:0|0:0,0:0:0:0:
156,218,39939,1,2,1:0:0:0:
39,79,40108,1,0,1:0:0:0:
167,234,40278,2,0,P|125:227|69:223,1,80,10|0,0:0|1:0,0:0:0:0:
326,81,40617,1,14,0:0:0:0:
326,81,40956,5,8,0:0:0:0:
498,210,41125,1,8,0:0:0:0:
259,271,41295,1,8,0:0:0:0:
411,146,41464,1,8,0:0:0:0:
163,113,41634,1,10,0:0:0:0:
335,211,41803,1,10,0:0:0:0:
180,17,41973,1,10,0:0:0:0:
149,213,42142,5,0,0:0:0:0:
149,213,42481,5,0,1:0:0:0:
149,213,42820,5,0,1:0:0:0:
59,317,42989,6,0,P|55:275|41:139,1,167.999994873047,12|0,0:0|0:0,0:0:0:0:
149,213,43328,6,0,B|197:244|197:244|248:238|305:196,2,160,6|10|2,1:0|0:0|1:0,0:0:0:0:
41,149,44176,1,0,0:0:0:0:
242,65,44345,1,10,0:0:0:0:
130,24,44515,6,0,P|135:70|141:125,1,80,2|0,0:0|1:0,0:0:0:0:
340,114,44854,2,0,B|380:117|380:117|419:92,1,80,2|8,0:0|0:0,0:0:0:0:
305,284,45193,2,0,L|290:205,1,80,2|0,0:0|1:0,0:0:0:0:
242,65,45532,1,2,0:0:0:0:
391,215,45701,1,8,0:0:0:0:
197,307,45871,1,2,0:0:0:0:
197,307,45956,1,2,0:0:0:0:
197,307,46040,6,0,P|128:275|45:284,1,160,0|8,1:0|0:0,0:0:0:0:
196,197,46549,1,2,0:0:0:0:
112,137,46718,2,0,P|103:108|99:57,1,80,2|2,1:0|0:0,0:0:0:0:
196,197,47057,1,10,0:0:0:0:
288,146,47227,6,0,L|371:135,1,80,2|0,0:0|1:0,0:0:0:0:
512,45,47566,2,0,B|472:40|472:40|432:55,1,80,2|8,0:0|0:0,0:0:0:0:
474,240,47905,2,0,L|477:151,1,80,2|0,0:0|1:0,0:0:0:0:
331,38,48244,1,2,0:0:0:0:
251,219,48413,1,8,0:0:0:0:
376,143,48583,1,2,0:0:0:0:
376,143,48667,1,2,0:0:0:0:
376,143,48752,6,0,P|318:137|205:135,1,160,4|10,1:0|0:0,0:0:0:0:
9,360,49430,1,0,1:0:0:0:
186,235,49600,1,0,0:0:0:0:
113,359,49769,2,0,P|105:325|97:270,1,80,10|0,0:0|0:0,0:0:0:0:
219,360,50108,6,0,B|266:384|266:384|384:360,2,160,2|8|2,1:0|0:0|1:0,0:0:0:0:
98,280,50956,1,0,0:0:0:0:
271,198,51125,1,10,0:0:0:0:
89,99,51295,6,0,P|97:197|103:276,1,160,2|2,0:0|0:0,0:0:0:0:
296,293,51803,2,0,B|380:256|380:256|407:288|453:288,1,160,10|0,0:0|1:0,0:0:0:0:
271,198,52312,1,2,1:0:0:0:
438,287,52481,1,10,0:0:0:0:
219,360,52651,1,2,1:0:0:0:
297,96,52820,5,10,0:0:0:0:
297,96,53667,5,8,0:0:0:0:
97,191,53837,1,8,0:0:0:0:
162,0,54006,1,8,0:0:0:0:
271,198,54176,6,0,P|310:191|350:186,1,80,6|0,1:0|0:0,0:0:0:0:
426,18,54515,2,0,P|418:68|413:106,1,80,10|8,0:0|0:0,0:0:0:0:
497,267,54854,2,0,B|507:156|507:156|491:190|443:192,1,160,2|10,1:0|0:0,0:0:0:0:
296,286,55362,6,0,B|259:279|259:279|220:296,1,80,2|0,1:0|0:0,0:0:0:0:
494,291,55701,1,2,1:0:0:0:
350,186,55871,1,8,0:0:0:0:
385,384,56040,2,0,L|393:304,1,80,10|0,0:0|1:0,0:0:0:0:
341,106,56379,2,0,L|349:185,1,80,2|10,1:0|0:0,0:0:0:0:
220,296,56718,1,2,0:0:0:0:
220,296,56803,1,2,0:0:0:0:
220,296,56888,6,0,P|142:256|56:272,1,160,0|8,1:0|0:0,0:0:0:0:
272,198,57396,2,0,P|326:195|356:181,1,80,10|2,0:0|1:0,0:0:0:0:
126,352,57735,1,2,1:0:0:0:
320,291,57905,1,10,0:0:0:0:
198,126,58074,6,0,B|163:172|163:172|181:276,1,160,2|2,1:0|1:0,0:0:0:0:
272,198,58583,1,8,0:0:0:0:
124,56,58752,2,0,L|44:66,1,80,10|0,0:0|1:0,0:0:0:0:
272,198,59091,2,0,L|351:187,1,80,2|8,1:0|0:0,0:0:0:0:
469,136,59430,1,2,0:0:0:0:
469,136,59515,1,2,0:0:0:0:
469,136,59600,6,0,B|486:98|486:98|480:45,1,80,4|0,1:0|0:0,0:0:0:0:
351,187,59939,1,10,0:0:0:0:
512,270,60108,1,8,0:0:0:0:
388,75,60278,1,0,1:0:0:0:
388,75,60447,1,0,1:0:0:0:
272,198,60617,2,0,L|351:187,1,80,10|0,0:0|1:0,0:0:0:0:
512,270,60956,6,0,B|468:242|468:242|413:259|382:311,1,160,2|8,0:0|0:0,0:0:0:0:
178,226,61464,1,8,0:0:0:0:
282,357,61634,2,0,P|279:288|271:194,2,160,2|8|0,1:0|0:0|1:0,0:0:0:0:
178,226,62481,1,0,0:0:0:0:
56,326,62651,2,0,P|100:319|145:311,1,80,8|8,0:0|0:0,0:0:0:0:
359,154,62989,2,0,P|303:102|226:111,1,160,0|10,1:0|0:0,0:0:0:0:
349,18,63498,1,2,1:0:0:0:
349,18,63837,5,0,1:0:0:0:
271,197,64006,1,10,0:0:0:0:
458,117,64176,1,10,0:0:0:0:
458,117,64261,1,8,0:0:0:0:
458,117,64345,1,8,0:0:0:0:
224,111,64515,1,2,1:0:0:0:
402,284,64684,1,4,3:0:0:0:
359,154,64854,1,4,3:0:0:0:
206,349,65023,6,0,P|136:354|82:309,1,143.999995605469,6|0,1:0|0:0,0:0:0:0:
271,197,65532,2,0,P|264:241|260:279,1,71.9999978027344,0|8,0:0|0:0,0:0:0:0:
3,87,66040,2,0,P|38:80|73:72,1,71.9999978027344,2|2,0:0|0:0,0:0:0:0:
159,18,66379,5,2,1:0:0:0:
159,18,66549,2,0,P|224:62|310:41,1,143.999995605469,8|2,0:0|1:0,0:0:0:0:
462,101,67057,2,0,B|452:93|415:69|415:69|384:94|351:129,1,143.999995605469,8|2,0:0|0:0,0:0:0:0:
351,129,67566,1,2,0:0:0:0:
288,209,67735,6,0,P|300:284|310:358,1,143.999995605469,2|0,1:0|0:0,0:0:0:0:
398,282,68244,2,0,P|443:291|476:294,1,71.9999978027344,0|8,1:0|0:0,0:0:0:0:
215,374,68752,2,0,P|179:366|144:361,1,71.9999978027344,10|2,0:0|0:0,0:0:0:0:
67,224,69091,5,2,1:0:0:0:
9,361,69261,2,0,B|58:331|58:331|67:244,1,143.999995605469,8|2,0:0|1:0,0:0:0:0:
162,116,69769,2,0,L|154:187,1,71.9999978027344,8|2,0:0|1:0,0:0:0:0:
72,64,70108,1,8,0:0:0:0:
72,64,70447,6,0,B|169:36|137:104|243:76,2,160,4|8|2,1:0|0:0|1:0,0:0:0:0:
72,64,71295,1,0,1:0:0:0:
154,187,71464,2,0,P|199:182|242:178,1,80,8|0,0:0|0:0,0:0:0:0:
424,138,71803,6,0,B|349:146|349:146|311:122,1,120,2|0,1:0|0:0,0:0:0:0:
290,100,72142,2,0,P|293:61|297:15,1,80,10|0,0:0|0:0,0:0:0:0:
424,138,72481,1,2,1:0:0:0:
281,275,72651,1,0,1:0:0:0:
454,239,72820,2,0,P|414:233|374:230,1,80,10|0,0:0|0:0,0:0:0:0:
191,324,73159,5,2,1:0:0:0:
374,230,73328,1,0,0:0:0:0:
181,143,73498,1,8,0:0:0:0:
282,380,73667,1,8,0:0:0:0:
93,326,73837,1,0,1:0:0:0:
281,275,74006,1,0,1:0:0:0:
120,72,74176,2,0,B|87:141|87:141|114:193,1,120,8|0,0:0|0:0,0:0:0:0:
181,143,74515,6,0,P|222:137|293:131,1,95.9999970703126,10|0,0:0|1:0,0:0:0:0:
94,325,74854,2,0,P|47:331|0:341,1,95.9999970703126,8|0,0:0|1:0,0:0:0:0:
281,275,75193,1,8,0:0:0:0:
177,227,75362,1,10,0:0:0:0:
168,274,75447,1,8,0:0:0:0:
175,321,75532,1,10,0:0:0:0:
203,360,75617,1,8,0:0:0:0:
216,340,75701,1,10,0:0:0:0:
212,316,75786,1,8,0:0:0:0:
198,295,75871,6,0,L|55:314,1,143.999995605469,4|0,1:0|0:0,0:0:0:0:
0,262,76210,2,0,L|89:270,1,80,10|0,0:0|0:0,0:0:0:0:
158,113,76549,1,10,0:0:0:0:
198,295,76718,2,0,P|205:255|214:216,1,80,0|10,1:0|0:0,0:0:0:0:
142,34,77057,1,2,1:0:0:0:
142,34,77142,1,0,0:0:0:0:
142,34,77227,6,0,P|150:72|158:114,1,80,8|2,0:0|1:0,0:0:0:0:
294,53,77566,2,0,P|283:91|274:130,1,80,8|2,0:0|1:0,0:0:0:0:
409,224,77905,2,0,P|447:214|487:206,1,80,8|2,0:0|1:0,0:0:0:0:
352,326,78244,2,0,P|398:333|445:343,1,80,8|2,0:0|1:0,0:0:0:0:
258,247,78583,6,0,B|218:287|202:334|202:334|238:398,1,160,12|8,0:0|0:0,0:0:0:0:
430,340,79091,1,0,1:0:0:0:
363,246,79261,2,0,P|370:223|381:168,1,80,10|0,0:0|1:0,0:0:0:0:
224,60,79600,1,8,0:0:0:0:
377,144,79769,6,0,P|297:150|217:157,1,160,4|0,1:0|1:0,0:0:0:0:
63,0,80278,1,8,0:0:0:0:
224,60,80447,1,2,1:0:0:0:
224,60,80786,1,0,1:0:0:0:
125,201,80956,2,0,P|118:161|111:122,1,80,10|2,0:0|0:0,0:0:0:0:
220,258,81295,6,0,P|270:248|308:242,1,80,10|0,0:0|0:0,0:0:0:0:
77,346,81634,2,0,P|124:351|169:357,1,80,10|0,0:0|0:0,0:0:0:0:
414,252,81973,2,0,P|422:218|437:159,1,80,10|0,0:0|1:0,0:0:0:0:
464,353,82312,1,10,0:0:0:0:
307,251,82481,1,2,1:0:0:0:
307,251,82566,1,2,0:0:0:0:
307,251,82651,6,0,P|317:299|323:339,1,80,8|2,0:0|1:0,0:0:0:0:
201,198,82989,2,0,P|161:207|122:215,1,80,8|2,0:0|1:0,0:0:0:0:
395,196,83328,2,0,P|434:198|474:202,1,80,8|2,0:0|1:0,0:0:0:0:
301,135,83667,2,0,P|307:96|315:57,1,80,10|2,0:0|1:0,0:0:0:0:
104,0,84006,5,10,0:0:0:0:
215,87,84176,1,0,0:0:0:0:
8,209,84345,1,10,0:0:0:0:
200,106,84515,1,0,0:0:0:0:
241,302,84684,1,10,0:0:0:0:
117,190,84854,1,0,1:0:0:0:
51,381,85023,1,10,0:0:0:0:
289,224,85193,6,0,P|281:306|274:396,1,160,6|0,1:0|1:0,0:0:0:0:
453,225,85701,1,10,0:0:0:0:
509,309,85871,2,0,P|433:328|370:283,1,160,4|0,0:0|1:0,0:0:0:0:
226,142,86379,2,0,P|266:133|314:122,1,80,10|0,0:0|0:0,0:0:0:0:
417,19,86718,6,0,B|401:79|401:79|417:118|417:118|400:171,2,160,14|8|8,0:0|0:0|0:0,0:0:0:0:
511,63,87566,1,0,1:0:0:0:
304,124,87735,2,0,P|260:117|205:112,1,80,10|0,0:0|1:0,0:0:0:0:
160,28,88074,5,8,0:0:0:0:
160,28,88413,1,10,0:0:0:0:
32,132,88583,1,0,1:0:0:0:
127,219,88752,2,0,P|128:179|131:139,1,80,10|0,0:0|1:0,0:0:0:0:
258,0,89091,2,0,P|253:41|247:97,1,80,10|0,0:0|1:0,0:0:0:0:
340,274,89430,6,0,P|391:264|440:256,1,80,10|0,0:0|1:0,0:0:0:0:
258,203,89769,2,0,B|219:168|219:168|163:172|121:224,1,160,10|8,0:0|0:0,0:0:0:0:
340,274,90278,1,0,1:0:0:0:
224,384,90447,2,0,P|228:351|237:290,1,80,10|0,0:0|1:0,0:0:0:0:
353,165,90786,5,8,0:0:0:0:
353,165,91125,2,0,P|358:123|365:72,1,80,10|0,0:0|1:0,0:0:0:0:
418,259,91464,2,0,P|378:265|339:273,1,80,10|0,0:0|1:0,0:0:0:0:
171,346,91803,2,0,P|210:347|250:348,1,80,10|2,0:0|1:0,0:0:0:0:
353,165,92142,5,12,0:0:0:0:
408,360,92312,1,2,1:0:0:0:
353,165,92481,1,8,0:0:0:0:
408,360,92651,1,2,1:0:0:0:
171,346,92820,5,12,0:0:0:0:
381,266,92989,1,2,1:0:0:0:
171,346,93159,1,8,0:0:0:0:
381,266,93328,1,2,1:0:0:0:
265,45,93498,5,12,0:0:0:0:
201,259,93667,1,2,1:0:0:0:
265,45,93837,1,8,0:0:0:0:
201,259,94006,1,2,1:0:0:0:
77,44,94176,5,12,0:0:0:0:
354,115,94345,1,2,1:0:0:0:
77,44,94515,1,8,0:0:0:0:
354,115,94684,1,2,1:0:0:0:
102,210,94854,6,0,P|169:161|244:167,1,143.999995605469,12|0,0:0|0:0,0:0:0:0:
263,174,95193,2,0,P|251:228|241:285,1,95.9999970703126,12|0,0:0|1:0,0:0:0:0:
483,384,95532,1,12,0:0:0:0:
366,213,95701,1,0,1:0:0:0:
210,374,95871,2,0,P|261:362|310:356,1,95.9999970703126,12|0,0:0|1:0,0:0:0:0:
413,108,96210,5,14,0:0:0:0:
487,197,96379,1,0,1:0:0:0:
460,214,96464,1,0,1:0:0:0:
429,223,96549,1,8,0:0:0:0:
396,224,96634,1,0,0:0:0:0:
366,213,96718,1,0,1:0:0:0:
338,196,96803,1,0,1:0:0:0:
316,172,96888,5,8,0:0:0:0:
367,182,96973,1,0,0:0:0:0:
396,224,97057,1,0,1:0:0:0:
390,275,97142,1,0,1:0:0:0:
344,301,97227,5,8,0:0:0:0:
279,297,97312,1,8,0:0:0:0:
215,293,97396,1,8,0:0:0:0:
150,288,97481,1,8,0:0:0:0:
87,285,97566,1,6,1:0:0:0:
87,285,97905,6,0,P|127:228|99:131,1,176.000005371094,10|2,0:0|1:0,0:0:0:0:
271,0,98413,1,0,0:0:0:0:
224,157,98583,1,10,0:0:0:0:
44,60,98752,2,0,P|89:54|155:46,1,88.000002685547,2|0,0:0|1:0,0:0:0:0:
333,196,99091,2,0,B|345:155|345:155|328:113,1,88.000002685547,2|8,0:0|0:0,0:0:0:0:
125,204,99430,2,0,B|116:247|116:247|148:301,1,88.000002685547,2|0,0:0|1:0,0:0:0:0:
363,331,99769,1,2,0:0:0:0:
227,231,99939,1,8,0:0:0:0:
85,361,100108,1,2,0:0:0:0:
85,361,100193,1,2,0:0:0:0:
85,361,100278,6,0,B|139:320|139:320|203:333|251:384,1,176.000005371094,0|8,1:0|0:0,0:0:0:0:
381,244,100786,1,2,0:0:0:0:
381,244,100956,2,0,P|367:306|359:350,1,88.000002685547,2|2,1:0|0:0,0:0:0:0:
470,186,101295,1,10,0:0:0:0:
248,170,101464,6,0,P|297:162|356:148,1,88.000002685547,2|0,0:0|1:0,0:0:0:0:
449,317,101803,2,0,P|412:321|342:334,1,88.000002685547,2|8,0:0|0:0,0:0:0:0:
116,281,102142,2,0,P|159:275|203:268,1,88.000002685547,2|0,0:0|1:0,0:0:0:0:
449,317,102481,1,2,0:0:0:0:
334,154,102651,1,8,0:0:0:0:
279,356,102820,1,2,0:0:0:0:
279,356,102905,1,2,0:0:0:0:
279,356,102989,6,0,P|287:312|294:266,1,88.000002685547,4|0,1:0|0:0,0:0:0:0:
383,74,103328,2,0,P|315:119|216:110,1,176.000005371094,10|0,0:0|1:0,0:0:0:0:
61,50,103837,1,2,0:0:0:0:
61,50,103922,1,2,0:0:0:0:
61,50,104006,2,0,P|102:43|159:35,1,88.000002685547,10|0,0:0|0:0,0:0:0:0:
173,211,104345,6,0,P|101:223|-6:241,2,176.000005371094,2|8|2,1:0|0:0|1:0,0:0:0:0:
173,211,105193,1,0,0:0:0:0:
272,283,105362,2,0,P|323:301|376:288,1,88.000002685547,10|2,0:0|0:0,0:0:0:0:
486,122,105701,5,0,1:0:0:0:
330,195,105871,1,2,0:0:0:0:
429,362,106040,2,0,B|463:309|463:309|428:193,1,176.000005371094,10|0,0:0|1:0,0:0:0:0:
353,20,106549,1,2,1:0:0:0:
330,195,106718,1,10,0:0:0:0:
486,122,106888,1,2,1:0:0:0:
232,152,107057,6,0,L|78:144,1,132.00000402832,2|0,1:0|0:0,0:0:0:0:
67,143,107396,1,8,0:0:0:0:
325,110,107566,2,0,B|339:151|339:151|330:195,1,88.000002685547,8|0,0:0|0:0,0:0:0:0:
102,246,107905,2,0,L|205:252,1,88.000002685547,0|8,1:0|0:0,0:0:0:0:
383,372,108244,1,0,0:0:0:0:
443,298,108413,6,0,B|394:264|394:264|334:273|287:309,1,155.999992858887,6|0,1:0|0:0,0:0:0:0:
283,322,108752,2,0,P|242:355|201:365,1,88.000002685547,10|0,0:0|0:0,0:0:0:0:
52,338,109091,2,0,P|64:250|77:163,1,176.000005371094,2|10,1:0|0:0,0:0:0:0:
11,0,109600,6,0,P|5:50|-2:101,1,88.000002685547,2|0,0:0|1:0,0:0:0:0:
186,173,109939,2,0,B|232:180|232:180|286:157,1,88.000002685547,2|8,0:0|0:0,0:0:0:0:
65,250,110278,2,0,L|77:163,1,88.000002685547,2|0,0:0|1:0,0:0:0:0:
215,71,110617,1,2,0:0:0:0:
0,87,110786,1,8,0:0:0:0:
186,173,110956,1,2,0:0:0:0:
186,173,111040,1,2,0:0:0:0:
186,173,111125,6,0,B|279:195|265:120|357:151,1,176.000005371094,0|8,1:0|0:0,0:0:0:0:
215,71,111634,1,2,0:0:0:0:
321,245,111803,2,0,P|368:251|415:231,1,88.000002685547,2|2,1:0|0:0,0:0:0:0:
279,342,112142,1,10,0:0:0:0:
353,149,112312,6,0,B|346:59,1,88.000002685547,2|0,0:0|1:0,0:0:0:0:
500,187,112651,2,0,B|514:230|514:230|505:278,1,88.000002685547,2|8,0:0|0:0,0:0:0:0:
279,342,112989,2,0,L|371:332,1,88.000002685547,2|0,0:0|1:0,0:0:0:0:
395,344,113244,1,0,0:0:0:0:
395,344,113328,1,2,0:0:0:0:
321,245,113498,1,8,0:0:0:0:
171,384,113667,1,2,0:0:0:0:
171,384,113752,1,2,0:0:0:0:
171,384,113837,6,0,L|177:284,1,88.000002685547,4|0,1:0|0:0,0:0:0:0:
52,139,114176,2,0,B|32:201|18:249|18:249|43:286|85:289,1,176.000005371094,10|0,0:0|1:0,0:0:0:0:
150,114,114684,1,0,0:0:0:0:
288,185,114854,2,0,P|245:189|200:196,1,88.000002685547,10|0,0:0|0:0,0:0:0:0:
72,42,115193,6,0,P|164:33|247:22,1,176.000005371094,2|8,1:0|0:0,0:0:0:0:
246,22,115701,1,0,0:0:0:0:
362,140,115871,2,0,P|451:139|509:57,1,176.000005371094,2|8,1:0|0:0,0:0:0:0:
409,52,116379,1,2,0:0:0:0:
267,196,116549,6,0,P|259:126|246:22,2,176.000005371094,0|10|0,1:0|0:0|1:0,0:0:0:0:
456,252,117396,1,0,0:0:0:0:
362,360,117566,2,0,P|355:317|350:264,1,88.000002685547,10|2,0:0|0:0,0:0:0:0:
456,252,117905,5,6,1:0:0:0:
257,370,118074,2,0,B|212:380|212:380|158:357,1,88.000002685547,8|2,0:0|1:0,0:0:0:0:
45,197,118413,1,10,0:0:0:0:
224,272,118583,1,8,0:0:0:0:
9,382,118752,1,4,3:0:0:0:
106,281,118922,1,4,3:0:0:0:
9,382,119091,1,4,3:0:0:0:
45,197,119261,6,0,P|41:141|30:43,1,143.999995605469,6|0,1:0|0:0,0:0:0:0:
150,189,119769,2,0,P|185:195|221:198,1,71.9999978027344,0|8,0:0|0:0,0:0:0:0:
415,64,120278,2,0,P|379:58|343:54,1,71.9999978027344,2|2,0:0|0:0,0:0:0:0:
213,111,120617,5,2,1:0:0:0:
213,111,120786,2,0,B|296:96|265:167|366:147,1,143.999995605469,8|2,0:0|1:0,0:0:0:0:
512,53,121295,2,0,L|501:147,1,71.9999978027344,8|2,0:0|0:0,0:0:0:0:
418,271,121634,2,0,L|429:200,1,71.9999978027344,2|10,0:0|0:0,0:0:0:0:
512,370,121973,6,0,B|454:361|454:361|426:378|426:378|374:369,1,143.999995605469,6|0,1:0|0:0,0:0:0:0:
237,274,122481,2,0,L|307:286,1,71.9999978027344,0|8,1:0|0:0,0:0:0:0:
116,384,122989,2,0,P|126:349|134:314,1,71.9999978027344,10|2,0:0|0:0,0:0:0:0:
0,229,123328,5,2,1:0:0:0:
0,229,123498,2,0,B|42:255|42:255|97:242|132:197,1,143.999995605469,8|2,0:0|1:0,0:0:0:0:
285,144,124006,2,0,P|246:140|204:133,1,71.9999978027344,8|2,0:0|1:0,0:0:0:0:
116,109,124345,1,8,0:0:0:0:
219,235,124515,1,2,0:0:0:0:
143,16,124684,6,0,P|65:26|15:100,2,160,4|8|2,1:0|0:0|1:0,0:0:0:0:
317,40,125532,1,0,1:0:0:0:
213,134,125701,2,0,L|222:50,1,80,8|0,0:0|0:0,0:0:0:0:
444,150,126040,6,0,B|415:130|415:130|365:138|316:173,1,120,2|0,1:0|0:0,0:0:0:0:
309,181,126379,2,0,P|319:235|324:280,1,80,10|0,0:0|0:0,0:0:0:0:
278,369,126718,1,2,1:0:0:0:
424,251,126888,1,0,1:0:0:0:
278,369,127057,2,0,P|325:361|366:357,1,80,10|0,0:0|0:0,0:0:0:0:
155,338,127396,6,0,B|133:321|115:304|115:304|134:198,1,160,6|10,1:0|0:0,0:0:0:0:
305,141,127905,1,8,0:0:0:0:
214,19,128074,2,0,L|199:114,1,80,0|0,1:0|1:0,0:0:0:0:
133,198,128413,1,10,0:0:0:0:
305,141,128583,1,2,1:0:0:0:
98,52,128752,1,10,0:0:0:0:
98,52,129091,5,10,0:0:0:0:
305,141,129261,1,2,1:0:0:0:
134,198,129430,1,8,0:0:0:0:
280,254,129600,1,2,1:0:0:0:
134,198,129769,2,0,L|35:191,1,80,10|0,0:0|1:0,0:0:0:0:
259,363,130108,6,0,B|349:332|349:332|380:359|434:347,1,160,4|8,1:0|0:0,0:0:0:0:
153,384,130617,1,8,0:0:0:0:
280,254,130786,1,2,1:0:0:0:
280,254,130956,1,0,1:0:0:0:
101,149,131125,2,0,L|82:326,1,160,8|2,0:0|1:0,0:0:0:0:
83,308,131634,5,0,1:0:0:0:
1,189,131803,1,8,0:0:0:0:
1,189,131973,1,8,0:0:0:0:
201,268,132142,2,0,L|294:251,1,80,2|0,1:0|1:0,0:0:0:0:
190,101,132481,2,0,B|155:73|116:47|116:47|78:58|31:68,1,160,10|2,0:0|1:0,0:0:0:0:
101,149,132989,5,0,0:0:0:0:
283,59,133159,1,8,0:0:0:0:
283,59,133328,1,8,0:0:0:0:
195,180,133498,2,0,P|193:145|188:90,1,80,2|0,1:0|1:0,0:0:0:0:
290,218,133837,1,10,0:0:0:0:
372,159,134006,6,0,P|456:155|522:222,1,160,0|0,1:0|1:0,0:0:0:0:
498,384,134515,1,10,0:0:0:0:
498,384,134684,1,8,0:0:0:0:
418,252,134854,2,0,P|408:299|400:348,1,80,2|0,1:0|0:0,0:0:0:0:
372,159,135193,2,0,P|379:99|386:39,1,120,10|0,0:0|0:0,0:0:0:0:
353,27,135532,6,0,B|304:50|304:50|247:48|197:-2,1,160,4|8,1:0|0:0,0:0:0:0:
69,182,136040,1,8,0:0:0:0:
225,126,136210,1,2,1:0:0:0:
225,126,136379,1,0,1:0:0:0:
110,6,136549,2,0,P|102:56|97:106,1,80,8|2,0:0|1:0,0:0:0:0:
205,262,136888,6,0,B|247:230|247:230|242:188|224:125,1,160,2|8,1:0|0:0,0:0:0:0:
99,280,137396,1,8,0:0:0:0:
274,340,137566,1,2,1:0:0:0:
274,340,137735,1,0,0:0:0:0:
99,280,137905,2,0,L|11:274,1,80,8|0,0:0|0:0,0:0:0:0:
281,263,138244,6,0,B|289:300|289:300|274:340,1,80,2|0,1:0|0:0,0:0:0:0:
224,125,138583,1,8,0:0:0:0:
224,125,138752,1,8,0:0:0:0:
180,222,138922,2,0,P|270:216|323:166,1,160,0|10,1:0|0:0,0:0:0:0:
319,172,139430,1,2,1:0:0:0:
129,81,139600,1,10,0:0:0:0:
129,81,139939,5,10,0:0:0:0:
234,45,140108,2,0,P|228:85|223:124,1,80,2|8,1:0|0:0,0:0:0:0:
334,6,140447,1,2,1:0:0:0:
507,122,140617,2,0,B|422:131|422:131|377:105,1,120,10|0,0:0|0:0,0:0:0:0:
359,100,140956,6,0,P|405:157|393:256,1,160,6|8,1:0|0:0,0:0:0:0:
268,373,141464,1,8,0:0:0:0:
432,338,141634,2,0,L|333:326,1,80,2|0,1:0|1:0,0:0:0:0:
193,182,141973,1,8,0:0:0:0:
193,182,142142,6,0,L|170:350,1,160,2|0,1:0|0:0,0:0:0:0:
53,207,142651,1,8,0:0:0:0:
0,297,142820,2,0,P|54:308|147:254,1,160,8|0,0:0|1:0,0:0:0:0:
281,182,143328,2,0,L|185:168,1,80,8|0,0:0|0:0,0:0:0:0:
53,207,143667,5,2,1:0:0:0:
53,207,143837,1,0,0:0:0:0:
247,274,144006,1,8,0:0:0:0:
111,116,144176,2,0,P|100:193|142:260,1,160,8|0,0:0|1:0,0:0:0:0:
281,182,144684,2,0,L|177:168,1,80,10|2,0:0|1:0,0:0:0:0:
23,65,145023,5,2,0:0:0:0:
23,65,145362,1,10,0:0:0:0:
114,10,145532,2,0,L|199:21,1,80,10|0,0:0|1:0,0:0:0:0:
350,82,145871,2,0,P|434:93|498:32,1,160,2|0,0:0|0:0,0:0:0:0:
294,4,146379,6,0,P|302:85|309:178,1,160,4|10,1:0|0:0,0:0:0:0:
478,187,146888,1,8,0:0:0:0:
397,307,147057,2,0,P|392:266|387:203,1,80,2|0,1:0|1:0,0:0:0:0:
312,360,147396,1,10,0:0:0:0:
312,360,147566,6,0,P|255:313|147:329,1,160,2|0,1:0|1:0,0:0:0:0:
62,356,148074,1,8,0:0:0:0:
192,206,148244,1,8,0:0:0:0:
62,356,148413,2,0,P|68:317|72:272,1,80,0|0,1:0|1:0,0:0:0:0:
39,89,148752,2,0,P|0:132|0:191,1,120,8|0,0:0|0:0,0:0:0:0:
0,191,149091,6,0,L|101:174,1,95.9999970703126,12|0,0:0|1:0,0:0:0:0:
357,62,149430,2,0,L|262:77,1,95.9999970703126,8|0,0:0|1:0,0:0:0:0:
24,204,149769,2,0,L|125:187,1,95.9999970703126,8|0,0:0|1:0,0:0:0:0:
336,37,150108,2,0,L|241:52,1,95.9999970703126,12|0,0:0|1:0,0:0:0:0:
201,231,150447,5,8,0:0:0:0:
206,201,150532,1,8,0:0:0:0:
205,171,150617,1,8,0:0:0:0:
194,143,150701,1,8,0:0:0:0:
178,118,150786,1,8,0:0:0:0:
161,93,150871,1,8,0:0:0:0:
151,65,150956,1,8,0:0:0:0:
151,36,151040,1,8,0:0:0:0:
159,7,151125,5,0,1:0:0:0:
118,188,151295,1,8,0:0:0:0:
388,125,151464,1,8,0:0:0:0:
388,125,151634,1,8,0:0:0:0:
241,52,151803,5,2,0:0:0:0:
241,52,152481,2,0,P|234:144|230:220,2,160,2|2|2,0:0|0:0|0:0,0:0:0:0:
177,134,154515,2,0,P|249:150|330:103,1,160,2|2,0:0|0:0,0:0:0:0:
322,111,155871,2,0,B|361:87|397:84|397:84|419:121|463:125,2,160,2|2|0,0:0|0:0|0:0,0:0:0:0:
322,111,157905,5,2,0:0:0:0:
366,203,158583,2,0,P|359:301|356:367,1,160,2|2,0:0|0:0,0:0:0:0:
256,192,159939,1,2,0:0:0:0:
