osu file format v14

[General]
AudioFilename: audio.mp3
AudioLeadIn: 0
PreviewTime: 97481
Countdown: 0
SampleSet: Soft
StackLeniency: 0.7
Mode: 0
LetterboxInBreaks: 0
WidescreenStoryboard: 0

[Editor]
DistanceSpacing: 1
BeatDivisor: 4
GridSize: 4
TimelineZoom: 1

[Metadata]
Title:Kimi ni Pierrot
TitleUnicode:君にピエロ
Artist:LiSA
ArtistUnicode:LiSA
Creator:A r M i N
Version:Extreme
Source:
Tags:risa oribe launcher Osatia JenHideo Waku Sotarks bite you death byd armin a_r_m_i_n Shunao ShogunMoon Garden SnowNiNo_ NiNo
BeatmapID:1630100
BeatmapSetID:775766

[Difficulty]
HPDrainRate:6
CircleSize:4
OverallDifficulty:9
ApproachRate:9.2
SliderMultiplier:1.8
SliderTickRate:1

[Events]
//Background and Video events
0,0,"flower.jpg",0,0
//Break Periods
//Storyboard Layer 0 (Background)
//Storyboard Layer 1 (Fail)
//Storyboard Layer 2 (Pass)
//Storyboard Layer 3 (Foreground)
//Storyboard Sound Samples

[TimingPoints]
2651,338.983050847458,4,2,22,32,1,0
2651,-142.857142857143,4,2,22,32,0,0
13498,-100,4,2,22,62,0,0
42142,-100,4,2,22,42,0,0
42989,-100,4,2,22,62,0,0
43244,-100,4,2,22,5,0,0
43328,-83.3333333333333,4,2,22,72,0,1
52820,-83.3333333333333,4,2,22,72,0,0
54176,-83.3333333333333,4,2,22,72,0,1
65023,-125,4,2,22,52,0,0
69261,-125,4,2,22,62,0,0
70447,-83.3333333333333,4,2,22,62,0,0
92142,-83.3333333333333,4,2,22,72,0,1
94854,-83.3333333333333,4,2,22,82,0,1
96210,-83.3333333333333,4,2,22,82,0,0
97481,-83.3333333333333,4,2,22,82,0,0
97566,-83.3333333333333,4,2,22,72,0,1
108328,-83.3333333333333,4,2,22,72,0,0
108413,-83.3333333333333,4,2,22,72,0,1
119261,-125,4,2,22,52,0,0
124684,-83.3333333333333,4,2,22,62,0,0
130108,-100,4,2,22,62,0,0
151803,-142.857142857143,4,2,22,42,0,0
159939,-142.857142857143,4,2,22,32,0,0
164006,-100,4,2,22,12,0,0
168074,-100,4,2,22,5,0,0

[Colours]
Combo1 : 135,71,122
Combo2 : 255,210,233
Combo3 : 81,85,253
Combo4 : 255,128,192
SliderBorder : 255,226,226

[HitObjects]
57,252,2651,6,0,P|112:243|184:225,1,125.999996154785,2|0,0:0|0:0,0:0:0:0:
291,345,3159,2,0,P|228:334|167:319,1,125.999996154785,2|0,0:0|0:0,0:0:0:0:
269,196,3667,2,0,P|274:228|268:259,1,62.9999980773926,2|2,0:0|0:0,0:0:0:0:
199,134,4006,6,0,P|261:102|315:114,1,125.999996154785,2|0,0:0|0:0,0:0:0:0:
383,216,4515,2,0,P|322:226|268:195,1,125.999996154785,2|0,0:0|0:0,0:0:0:0:
392,64,5023,2,0,P|404:93|406:125,1,62.9999980773926,2|2,0:0|0:0,0:0:0:0:
242,73,5362,6,0,B|181:57|181:57|120:73,1,125.999996154785,2|0,0:0|0:0,0:0:0:0:
33,214,5871,2,0,B|93:229|93:229|154:214,1,125.999996154785,2|0,0:0|0:0,0:0:0:0:
242,348,6379,2,0,L|175:335,1,62.9999980773926,2|2,0:0|0:0,0:0:0:0:
246,191,6718,6,0,P|307:206|369:216,1,125.999996154785,2|0,0:0|0:0,0:0:0:0:
503,104,7227,2,0,P|442:93|388:124,1,125.999996154785,2|2,0:0|0:0,0:0:0:0:
470,248,7735,2,0,L|457:186,1,62.9999980773926,2|0,0:0|0:0,0:0:0:0:
346,306,8074,6,0,P|285:316|231:285,1,125.999996154785,2|0,0:0|0:0,0:0:0:0:
276,99,8583,2,0,P|286:161|302:223,1,125.999996154785,2|0,0:0|0:0,0:0:0:0:
439,315,9091,2,0,P|436:283|424:254,1,62.9999980773926,2|2,0:0|0:0,0:0:0:0:
278,314,9430,6,0,B|217:330|217:330|156:314,1,125.999996154785,2|0,0:0|0:0,0:0:0:0:
52,199,9939,2,0,P|113:189|167:220,1,125.999996154785,2|0,0:0|0:0,0:0:0:0:
287,132,10447,2,0,P|255:135|227:147,1,62.9999980773926,2|0,0:0|0:0,0:0:0:0:
278,314,10786,6,0,B|372:291|364:371|458:349,1,188.999994232178,2|2,0:0|0:0,0:0:0:0:
416,168,11464,2,0,B|400:104|400:104|334:86|281:131,1,188.999994232178,0|0,0:0|0:0,0:0:0:0:
192,230,12142,6,0,L|254:217,1,62.9999980773926,2|0,0:0|0:0,0:0:0:0:
107,164,12481,2,0,L|46:151,1,62.9999980773926,2|2,0:0|0:0,0:0:0:0:
196,81,12820,1,0,0:0:0:0:
104,259,12989,1,0,0:0:0:0:
104,259,13328,1,0,0:0:0:0:
284,128,13498,6,0,P|350:127|401:171,1,135,6|0,1:0|0:0,0:0:0:0:
414,255,13837,2,0,P|461:241|501:231,1,90,10|0,0:0|0:0,0:0:0:0:
319,216,14176,1,2,1:0:0:0:
405,349,14345,1,2,1:0:0:0:
400,169,14515,1,8,0:0:0:0:
254,284,14684,6,0,B|162:268|176:347|84:332,1,180,2|0,1:0|1:0,0:0:0:0:
26,200,15193,2,0,L|6:288,1,90,8|0,0:0|0:0,0:0:0:0:
151,220,15532,1,2,1:0:0:0:
9,108,15701,1,2,1:0:0:0:
214,150,15871,1,8,0:0:0:0:
26,200,16040,1,2,0:0:0:0:
243,240,16210,6,0,B|298:228|298:228|362:251|362:251|417:240,2,180,0|8|2,1:0|0:0|1:0,0:0:0:0:
151,353,17058,1,0,1:0:0:0:
214,150,17227,1,8,0:0:0:0:
292,326,17396,1,0,1:0:0:0:
355,123,17566,6,0,L|371:212,1,90,2|0,0:0|1:0,0:0:0:0:
230,61,17905,2,0,L|214:150,1,90,10|0,0:0|0:0,0:0:0:0:
347,29,18244,2,0,P|397:38|426:62,1,90,2|0,1:0|1:0,0:0:0:0:
231,158,18583,1,10,0:0:0:0:
370,211,18752,1,2,0:0:0:0:
207,312,18922,6,0,P|156:269|90:270,1,135,4|0,1:0|0:0,0:0:0:0:
19,317,19261,2,0,P|5:260|14:231,1,90,10|0,0:0|0:0,0:0:0:0:
108,102,19600,1,0,1:0:0:0:
90,270,19769,1,0,1:0:0:0:
17,82,19939,1,10,0:0:0:0:
204,161,20108,6,0,B|295:145|281:224|373:209,1,180,2|2,1:0|1:0,0:0:0:0:
475,92,20617,2,0,L|459:181,1,90,8|2,0:0|0:0,0:0:0:0:
316,302,20956,1,0,1:0:0:0:
354,117,21125,1,2,1:0:0:0:
404,336,21295,1,8,0:0:0:0:
224,253,21464,1,2,0:0:0:0:
459,180,21634,6,0,B|451:207|446:238|446:238|491:283|487:348,2,180,2|8|2,1:0|0:0|1:0,0:0:0:0:
511,60,22481,1,0,1:0:0:0:
365,171,22651,2,0,L|276:155,1,90,8|0,0:0|0:0,0:0:0:0:
95,108,22989,5,2,1:0:0:0:
211,222,23159,1,0,1:0:0:0:
250,13,23328,1,8,0:0:0:0:
186,131,23498,1,0,0:0:0:0:
366,136,23667,5,10,0:0:0:0:
160,40,23837,1,2,1:0:0:0:
402,49,24006,5,10,0:0:0:0:
186,131,24176,1,2,1:0:0:0:
411,219,24345,6,0,P|368:234|328:254,1,90,6|0,1:0|1:0,0:0:0:0:
126,250,24684,2,0,P|192:249|243:292,1,135,10|8,0:0|0:0,0:0:0:0:
271,373,25023,1,10,0:0:0:0:
268,183,25193,2,0,L|252:94,1,90,2|0,1:0|0:0,0:0:0:0:
494,205,25532,6,0,B|403:189|417:268|325:253,1,180,6|2,1:0|1:0,0:0:0:0:
179,199,26040,2,0,L|268:183,1,90,8|2,0:0|0:0,0:0:0:0:
339,347,26379,1,0,1:0:0:0:
345,161,26549,1,2,1:0:0:0:
246,355,26718,1,8,0:0:0:0:
414,290,26888,1,2,0:0:0:0:
267,183,27057,6,0,B|219:182|186:218|186:218|144:226|104:195,2,180,4|10|0,1:0|0:0|1:0,0:0:0:0:
375,297,27905,1,0,1:0:0:0:
338,121,28074,1,8,0:0:0:0:
259,278,28244,1,0,0:0:0:0:
428,148,28413,6,0,P|428:97|409:60,1,90,2|0,1:0|1:0,0:0:0:0:
181,188,28752,1,8,0:0:0:0:
375,297,28922,1,8,0:0:0:0:
252,84,29091,5,2,1:0:0:0:
202,298,29261,1,2,1:0:0:0:
338,121,29430,5,10,0:0:0:0:
380,330,29600,1,2,1:0:0:0:
181,188,29769,6,0,L|92:204,1,90,2|0,1:0|0:0,0:0:0:0:
252,84,30108,2,0,P|318:83|368:125,1,135,14|8,0:0|0:0,0:0:0:0:
396,206,30447,1,10,0:0:0:0:
200,275,30617,2,0,P|193:231|181:188,1,90,2|0,1:0|0:0,0:0:0:0:
3,316,30956,6,0,B|94:300|80:379|172:364,1,180,6|2,1:0|1:0,0:0:0:0:
289,291,31464,2,0,L|200:275,1,90,8|2,0:0|0:0,0:0:0:0:
85,146,31803,6,0,L|93:190,1,45,8|8,0:0|0:0,0:0:0:0:
164,71,31973,2,0,L|172:26,1,45,10|8,0:0|0:0,0:0:0:0:
244,146,32142,2,0,L|252:190,1,45,8|8,0:0|0:0,0:0:0:0:
323,71,32312,2,0,L|331:26,1,45,10|8,0:0|0:0,0:0:0:0:
376,167,32481,6,0,P|452:173|513:94,2,180,4|10|2,1:0|0:0|1:0,0:0:0:0:
330,26,33328,1,2,1:0:0:0:
251,190,33498,1,8,0:0:0:0:
420,84,33667,1,2,1:0:0:0:
357,260,33837,2,0,P|369:303|376:347,1,90,0|0,0:0|1:0,0:0:0:0:
252,171,34176,1,8,0:0:0:0:
444,226,34345,1,8,0:0:0:0:
204,252,34515,5,2,1:0:0:0:
372,167,34684,1,2,1:0:0:0:
159,170,34854,5,10,0:0:0:0:
357,260,35023,1,2,0:0:0:0:
119,372,35193,6,0,B|95:298|95:298|119:246,1,135,6|0,1:0|0:0,0:0:0:0:
159,170,35532,2,0,P|159:119|140:82,1,90,10|0,0:0|0:0,0:0:0:0:
27,228,35871,1,2,1:0:0:0:
188,310,36040,1,2,1:0:0:0:
68,143,36210,1,8,0:0:0:0:
233,64,36379,6,0,B|324:48|310:127|402:112,1,180,6|2,1:0|1:0,0:0:0:0:
512,12,36888,2,0,L|496:101,1,90,8|2,0:0|0:0,0:0:0:0:
399,208,37227,1,0,1:0:0:0:
382,20,37396,1,2,1:0:0:0:
308,229,37566,2,0,L|324:318,1,90,8|2,0:0|0:0,0:0:0:0:
170,159,37905,6,0,P|104:158|54:200,1,135,2|0,1:0|0:0,0:0:0:0:
26,281,38244,1,8,0:0:0:0:
0,117,38413,1,2,0:0:0:0:
135,247,38583,2,0,L|119:336,1,90,0|0,1:0|1:0,0:0:0:0:
53,200,38922,1,10,0:0:0:0:
265,167,39091,6,0,B|385:152|385:152|402:176|401:209,1,180,0|0,1:0|1:0,0:0:0:0:
193,225,39600,2,0,P|174:184|176:139,1,90,10|0,0:0|0:0,0:0:0:0:
302,37,39939,1,2,1:0:0:0:
265,167,40108,1,0,1:0:0:0:
138,8,40278,1,10,0:0:0:0:
176,140,40447,1,0,1:0:0:0:
382,17,40617,5,14,0:0:0:0:
382,17,40956,1,8,0:0:0:0:
265,167,41125,1,8,0:0:0:0:
480,199,41295,1,8,0:0:0:0:
293,67,41464,1,8,0:0:0:0:
235,316,41634,1,10,0:0:0:0:
381,119,41803,1,10,0:0:0:0:
99,163,41973,5,10,0:0:0:0:
99,163,42312,5,0,0:0:0:0:
284,201,42481,1,0,1:0:0:0:
284,201,42820,5,0,1:0:0:0:
35,232,42989,1,12,0:0:0:0:
263,109,43328,6,0,B|347:94|334:156|419:142,1,161.999995056153,6|0,1:0|0:0,0:0:0:0:
500,102,43667,2,0,P|509:154|487:203,1,107.999996704102,10|0,0:0|0:0,0:0:0:0:
271,301,44006,2,0,P|262:249|284:200,1,107.999996704102,2|0,1:0|0:0,0:0:0:0:
397,49,44345,1,10,0:0:0:0:
356,261,44515,1,2,0:0:0:0:
223,128,44684,6,0,P|271:106|323:115,1,107.999996704102,0|2,1:0|0:0,0:0:0:0:
444,293,45023,1,8,0:0:0:0:
284,200,45193,2,0,P|262:248|271:300,1,107.999996704102,2|0,0:0|1:0,0:0:0:0:
396,176,45532,1,2,0:0:0:0:
223,128,45701,1,8,0:0:0:0:
356,261,45871,1,2,0:0:0:0:
148,308,46040,6,0,B|260:284|238:378|350:354,1,215.999993408203,0|8,1:0|0:0,0:0:0:0:
396,176,46549,1,2,0:0:0:0:
443,354,46718,1,2,1:0:0:0:
316,264,46888,1,2,0:0:0:0:
489,191,47057,1,10,0:0:0:0:
314,63,47227,6,0,L|302:170,1,107.999996704102,2|0,0:0|1:0,0:0:0:0:
349,355,47566,1,2,0:0:0:0:
396,176,47735,1,8,0:0:0:0:
203,127,47905,2,0,L|215:234,1,107.999996704102,2|0,0:0|1:0,0:0:0:0:
314,63,48244,1,2,0:0:0:0:
113,102,48413,1,8,0:0:0:0:
301,170,48583,1,2,0:0:0:0:
145,308,48752,6,0,B|2:288|2:288|67:259,1,215.999993408203,4|10,1:0|0:0,0:0:0:0:
213,202,49261,1,0,0:0:0:0:
113,102,49430,1,0,1:0:0:0:
145,308,49600,1,0,0:0:0:0:
271,127,49769,2,0,L|378:115,1,107.999996704102,10|0,0:0|0:0,0:0:0:0:
512,213,50108,6,0,P|461:273|383:273,1,161.999995056153,2|0,1:0|0:0,0:0:0:0:
312,213,50447,2,0,P|290:261|298:314,1,107.999996704102,8|0,0:0|0:0,0:0:0:0:
422,188,50786,1,2,1:0:0:0:
241,151,50956,1,0,0:0:0:0:
383,273,51125,1,10,0:0:0:0:
186,321,51295,1,2,0:0:0:0:
312,213,51464,6,0,P|334:164|325:111,1,107.999996704102,0|2,1:0|0:0,0:0:0:0:
173,220,51803,2,0,P|164:272|186:321,1,107.999996704102,10|0,0:0|0:0,0:0:0:0:
241,151,52142,1,0,1:0:0:0:
298,314,52312,1,2,1:0:0:0:
151,128,52481,1,10,0:0:0:0:
101,357,52651,1,2,1:0:0:0:
241,151,52820,5,10,0:0:0:0:
241,151,53667,5,8,0:0:0:0:
329,348,53837,1,8,0:0:0:0:
428,126,54006,1,8,0:0:0:0:
236,245,54176,6,0,B|152:230|165:292|80:278,1,161.999995056153,6|0,1:0|0:0,0:0:0:0:
4,228,54515,1,10,0:0:0:0:
166,364,54684,1,8,0:0:0:0:
102,186,54854,2,0,P|93:133|115:84,1,107.999996704102,2|0,1:0|1:0,0:0:0:0:
323,17,55193,1,10,0:0:0:0:
186,147,55362,6,0,L|293:159,1,107.999996704102,2|0,1:0|0:0,0:0:0:0:
412,308,55701,1,2,1:0:0:0:
366,101,55871,1,8,0:0:0:0:
232,296,56040,2,0,L|125:284,1,107.999996704102,10|0,0:0|1:0,0:0:0:0:
167,110,56379,1,2,1:0:0:0:
317,256,56549,2,0,P|325:308|303:357,1,107.999996704102,10|2,0:0|0:0,0:0:0:0:
224,184,56888,6,0,B|328:157|328:157|376:183,1,161.999995056153,0|0,1:0|0:0,0:0:0:0:
457,230,57227,1,8,0:0:0:0:
303,357,57396,1,10,0:0:0:0:
376,183,57566,1,2,1:0:0:0:
469,324,57735,1,2,1:0:0:0:
409,94,57905,1,10,0:0:0:0:
317,256,58074,6,0,P|264:264|215:242,1,107.999996704102,2|0,1:0|0:0,0:0:0:0:
90,119,58413,1,2,1:0:0:0:
277,170,58583,1,8,0:0:0:0:
146,304,58752,2,0,P|123:255|132:202,1,107.999996704102,10|0,0:0|1:0,0:0:0:0:
284,37,59092,1,2,1:0:0:0:
215,242,59261,1,8,0:0:0:0:
119,22,59430,1,2,0:0:0:0:
335,116,59600,6,0,P|315:194|302:274,1,161.999995056153,4|0,1:0|0:0,0:0:0:0:
307,369,59939,1,10,0:0:0:0:
215,242,60108,1,8,0:0:0:0:
386,317,60278,2,0,L|493:305,1,107.999996704102,0|0,1:0|1:0,0:0:0:0:
307,369,60617,2,0,L|200:357,1,107.999996704102,10|0,0:0|1:0,0:0:0:0:
16,249,60956,6,0,P|64:187|142:183,1,161.999995056153,2|0,0:0|0:0,0:0:0:0:
215,242,61295,1,8,0:0:0:0:
60,88,61464,1,8,0:0:0:0:
107,272,61634,2,0,L|95:379,1,107.999996704102,2|0,1:0|1:0,0:0:0:0:
215,242,61973,1,8,0:0:0:0:
307,369,62142,1,2,0:0:0:0:
375,137,62312,6,0,B|271:110|271:110|223:136,1,161.999995056153,0|0,1:0|0:0,0:0:0:0:
142,183,62651,1,8,0:0:0:0:
285,303,62820,1,8,0:0:0:0:
107,272,62989,1,0,1:0:0:0:
283,210,63159,1,0,1:0:0:0:
68,125,63328,1,10,0:0:0:0:
203,260,63498,1,2,1:0:0:0:
211,28,63667,6,0,L|223:135,1,107.999996704102,2|0,0:0|1:0,0:0:0:0:
256,369,64006,1,10,0:0:0:0:
283,210,64176,1,10,0:0:0:0:
309,213,64260,1,8,0:0:0:0:
336,216,64345,1,8,0:0:0:0:
404,328,64515,1,2,1:0:0:0:
454,242,64684,1,4,3:0:0:0:
502,307,64854,1,4,3:0:0:0:
283,210,65023,6,0,P|214:209|162:257,1,144,6|0,1:0|0:0,0:0:0:0:
145,342,65532,1,0,0:0:0:0:
53,235,65701,2,0,L|42:306,1,72,8|0,0:0|0:0,0:0:0:0:
119,180,66040,1,2,0:0:0:0:
39,150,66210,1,2,0:0:0:0:
161,257,66379,5,2,1:0:0:0:
129,108,66549,2,0,L|119:180,1,72,8|2,0:0|0:0,0:0:0:0:
247,258,66888,1,2,1:0:0:0:
215,111,67057,2,0,L|205:183,1,72,8|2,0:0|0:0,0:0:0:0:
333,259,67396,1,2,0:0:0:0:
247,258,67566,1,2,0:0:0:0:
371,174,67735,6,0,P|419:225|418:295,1,144,2|0,1:0|0:0,0:0:0:0:
333,259,68244,1,0,1:0:0:0:
475,152,68413,2,0,L|464:80,1,72,8|0,0:0|0:0,0:0:0:0:
404,202,68752,1,10,0:0:0:0:
481,238,68922,1,2,0:0:0:0:
383,118,69091,1,2,1:0:0:0:
332,212,69261,6,0,L|404:202,1,72,8|2,0:0|1:0,0:0:0:0:
360,34,69600,1,2,1:0:0:0:
227,143,69769,2,0,L|299:133,1,72,8|2,0:0|1:0,0:0:0:0:
155,98,70108,2,0,L|83:87,1,72,8|2,0:0|0:0,0:0:0:0:
289,43,70447,6,0,B|401:19|379:113|491:89,2,215.999993408203,4|8|2,1:0|0:0|1:0,0:0:0:0:
171,192,71295,1,0,1:0:0:0:
323,133,71464,2,0,L|335:240,1,107.999996704102,8|0,0:0|0:0,0:0:0:0:
206,101,71803,6,0,B|94:77|116:171|4:147,2,215.999993408203,2|10|2,1:0|0:0|1:0,0:0:0:0:
335,240,72651,1,0,1:0:0:0:
171,192,72820,2,0,L|159:299,1,107.999996704102,10|0,0:0|0:0,0:0:0:0:
323,133,73159,5,2,1:0:0:0:
395,312,73328,1,0,0:0:0:0:
253,196,73498,1,8,0:0:0:0:
465,131,73667,1,8,0:0:0:0:
335,240,73837,1,0,1:0:0:0:
393,72,74006,1,0,1:0:0:0:
395,312,74176,2,0,P|346:333|293:325,1,107.999996704102,8|0,0:0|1:0,0:0:0:0:
230,73,74515,5,10,0:0:0:0:
159,302,74684,1,0,1:0:0:0:
142,41,74854,5,8,0:0:0:0:
237,251,75023,1,0,1:0:0:0:
304,15,75193,5,8,0:0:0:0:
154,208,75362,1,10,0:0:0:0:
182,174,75446,1,8,0:0:0:0:
224,157,75531,1,10,0:0:0:0:
268,161,75616,1,8,0:0:0:0:
305,186,75700,1,10,0:0:0:0:
327,225,75785,1,8,0:0:0:0:
328,270,75871,6,0,L|316:377,1,107.999996704102,4|0,1:0|0:0,0:0:0:0:
469,223,76210,2,0,L|481:330,1,107.999996704102,10|0,0:0|0:0,0:0:0:0:
305,186,76549,5,10,0:0:0:0:
491,132,76718,1,0,1:0:0:0:
305,91,76888,5,10,0:0:0:0:
469,223,77057,1,2,1:0:0:0:
262,270,77227,5,8,0:0:0:0:
401,158,77396,1,2,1:0:0:0:
212,190,77566,5,8,0:0:0:0:
328,338,77735,1,2,1:0:0:0:
292,141,77905,5,8,0:0:0:0:
237,361,78074,1,2,1:0:0:0:
123,161,78244,5,8,0:0:0:0:
335,224,78413,1,2,1:0:0:0:
120,274,78583,6,0,L|13:262,1,107.999996704102,12|2,0:0|1:0,0:0:0:0:
237,361,78922,2,0,L|344:349,1,107.999996704102,8|0,0:0|1:0,0:0:0:0:
292,141,79261,5,10,0:0:0:0:
192,298,79430,1,0,1:0:0:0:
115,94,79600,1,8,0:0:0:0:
294,235,79769,6,0,B|406:211|384:305|496:281,1,215.999993408203,4|0,1:0|1:0,0:0:0:0:
327,325,80278,1,8,0:0:0:0:
292,141,80447,1,2,1:0:0:0:
192,298,80617,1,0,0:0:0:0:
234,68,80786,1,0,1:0:0:0:
294,235,80956,1,10,0:0:0:0:
94,200,81125,1,2,0:0:0:0:
292,141,81295,6,0,L|399:153,1,107.999996704102,10|0,0:0|0:0,0:0:0:0:
201,187,81634,2,0,L|94:199,1,107.999996704102,10|0,0:0|0:0,0:0:0:0:
234,68,81973,5,10,0:0:0:0:
294,235,82142,1,0,1:0:0:0:
326,53,82312,5,10,0:0:0:0:
201,187,82481,1,2,1:0:0:0:
399,153,82651,5,8,0:0:0:0:
234,68,82820,1,2,1:0:0:0:
212,280,82989,5,8,0:0:0:0:
316,112,83159,1,2,1:0:0:0:
291,330,83328,5,8,0:0:0:0:
177,143,83498,1,2,1:0:0:0:
97,348,83667,5,10,0:0:0:0:
294,235,83837,1,2,1:0:0:0:
109,207,84006,6,0,L|2:219,1,107.999996704102,10|0,0:0|0:0,0:0:0:0:
212,280,84345,2,0,P|233:231|225:178,1,107.999996704102,10|0,0:0|0:0,0:0:0:0:
15,117,84684,2,0,P|-6:165|1:218,1,107.999996704102,10|0,0:0|1:0,0:0:0:0:
135,59,85023,1,10,0:0:0:0:
212,280,85193,6,0,B|324:256|302:350|414:326,1,215.999993408203,6|0,1:0|1:0,0:0:0:0:
317,161,85701,1,10,0:0:0:0:
246,371,85871,1,0,0:0:0:0:
200,188,86040,2,0,P|206:134|219:82,1,107.999996704102,2|0,0:0|0:0,0:0:0:0:
0,171,86379,2,0,L|107:183,1,107.999996704102,10|0,0:0|0:0,0:0:0:0:
304,59,86718,6,0,P|325:107|317:160,1,107.999996704102,14|0,0:0|0:0,0:0:0:0:
140,272,87057,1,8,0:0:0:0:
232,120,87227,1,0,0:0:0:0:
203,342,87396,5,8,0:0:0:0:
107,183,87566,1,0,1:0:0:0:
275,281,87735,5,10,0:0:0:0:
111,362,87905,1,0,1:0:0:0:
319,364,88074,5,8,0:0:0:0:
140,272,88244,1,0,0:0:0:0:
355,232,88413,6,0,L|462:244,1,107.999996704102,10|0,0:0|1:0,0:0:0:0:
284,172,88752,2,0,P|263:220|271:273,1,107.999996704102,10|0,0:0|1:0,0:0:0:0:
437,154,89091,5,10,0:0:0:0:
244,88,89261,1,0,1:0:0:0:
355,232,89430,6,0,L|343:339,1,107.999996704102,10|0,0:0|1:0,0:0:0:0:
177,184,89769,2,0,L|189:291,1,107.999996704102,10|0,0:0|1:0,0:0:0:0:
345,138,90108,5,8,0:0:0:0:
151,94,90278,1,0,1:0:0:0:
355,232,90447,5,10,0:0:0:0:
189,291,90617,1,0,1:0:0:0:
244,88,90786,5,8,0:0:0:0:
293,303,90956,1,0,1:0:0:0:
327,46,91125,5,10,0:0:0:0:
250,219,91295,1,0,1:0:0:0:
138,30,91464,6,0,L|126:137,1,107.999996704102,10|0,0:0|1:0,0:0:0:0:
357,245,91803,2,0,L|345:138,1,107.999996704102,10|2,0:0|1:0,0:0:0:0:
42,87,92142,5,12,0:0:0:0:
113,334,92312,1,2,1:0:0:0:
167,32,92481,5,8,0:0:0:0:
194,287,92651,1,2,1:0:0:0:
315,32,92820,5,12,0:0:0:0:
288,287,92990,1,2,1:0:0:0:
440,87,93159,5,8,0:0:0:0:
369,334,93329,1,2,1:0:0:0:
241,90,93498,5,12,0:0:0:0:
289,381,93667,1,2,1:0:0:0:
331,115,93837,5,8,0:0:0:0:
209,335,94006,1,2,1:0:0:0:
161,44,94176,5,12,0:0:0:0:
288,288,94345,1,2,1:0:0:0:
403,56,94515,5,8,0:0:0:0:
164,233,94684,1,2,1:0:0:0:
438,198,94854,5,12,0:0:0:0:
163,138,95023,1,0,1:0:0:0:
403,56,95193,5,12,0:0:0:0:
355,335,95362,1,0,1:0:0:0:
211,58,95532,5,12,0:0:0:0:
476,113,95701,1,0,1:0:0:0:
264,318,95871,5,12,0:0:0:0:
312,41,96040,1,0,1:0:0:0:
447,320,96210,5,14,0:0:0:0:
288,160,96379,1,0,1:0:0:0:
246,144,96463,1,0,1:0:0:0:
202,152,96548,1,8,0:0:0:0:
168,182,96633,1,0,0:0:0:0:
133,211,96718,1,0,1:0:0:0:
89,219,96803,1,0,1:0:0:0:
47,203,96888,6,0,L|41:149,1,53.9999983520508,8|0,0:0|0:0,0:0:0:0:
178,280,97057,2,0,L|184:333,1,53.9999983520508,0|0,1:0|1:0,0:0:0:0:
246,144,97227,2,0,L|252:90,1,53.9999983520508,8|8,0:0|0:0,0:0:0:0:
389,220,97396,2,0,L|383:274,1,53.9999983520508,8|8,0:0|0:0,0:0:0:0:
246,144,97566,6,0,B|162:129|175:191|90:177,1,161.999995056153,6|0,1:0|0:0,0:0:0:0:
9,137,97905,2,0,P|0:189|22:238,1,107.999996704102,10|0,0:0|0:0,0:0:0:0:
238,336,98244,2,0,P|247:284|225:235,1,107.999996704102,2|0,1:0|0:0,0:0:0:0:
112,84,98583,1,10,0:0:0:0:
153,296,98753,1,2,0:0:0:0:
285,104,98922,6,0,L|392:116,1,107.999996704102,0|2,1:0|0:0,0:0:0:0:
225,235,99261,1,8,0:0:0:0:
213,43,99430,2,0,P|191:91|200:143,1,107.999996704102,2|0,0:0|1:0,0:0:0:0:
333,318,99770,1,2,0:0:0:0:
392,116,99939,1,8,0:0:0:0:
225,235,100109,1,2,0:0:0:0:
453,281,100278,6,0,B|341:257|363:351|251:327,1,215.999993408203,0|8,1:0|0:0,0:0:0:0:
350,177,100787,1,2,0:0:0:0:
419,371,100956,1,2,1:0:0:0:
286,237,101125,1,2,0:0:0:0:
498,211,101295,1,10,0:0:0:0:
305,333,101464,6,0,L|198:321,1,107.999996704102,2|0,0:0|1:0,0:0:0:0:
83,178,101804,1,2,0:0:0:0:
286,237,101973,1,8,0:0:0:0:
114,362,102142,2,0,P|105:309|126:261,1,107.999996704102,2|0,0:0|1:0,0:0:0:0:
329,152,102482,1,2,0:0:0:0:
122,92,102651,1,8,0:0:0:0:
286,237,102821,1,2,0:0:0:0:
392,29,102989,6,0,B|429:164|429:164|391:229,1,215.999993408203,4|10,1:0|0:0,0:0:0:0:
214,297,103498,1,0,0:0:0:0:
253,97,103667,1,0,1:0:0:0:
344,297,103837,1,0,0:0:0:0:
150,228,104006,2,0,L|43:240,1,107.999996704102,10|0,0:0|0:0,0:0:0:0:
123,37,104346,6,0,P|201:36|252:96,1,161.999995056153,2|0,1:0|0:0,0:0:0:0:
246,191,104684,2,0,L|353:203,1,107.999996704102,8|0,0:0|0:0,0:0:0:0:
162,123,105024,1,2,1:0:0:0:
121,302,105194,1,0,0:0:0:0:
252,96,105363,1,10,0:0:0:0:
292,274,105533,1,2,0:0:0:0:
162,123,105701,6,0,L|55:135,1,107.999996704102,0|2,1:0|0:0,0:0:0:0:
246,191,106040,2,0,L|353:203,1,107.999996704102,10|0,0:0|0:0,0:0:0:0:
235,16,106380,1,0,1:0:0:0:
156,217,106549,1,2,1:0:0:0:
293,100,106719,1,10,0:0:0:0:
312,310,106889,1,2,1:0:0:0:
162,123,107057,6,0,P|110:135|73:174,1,107.999996704102,2|0,1:0|0:0,0:0:0:0:
227,349,107396,1,8,0:0:0:0:
293,100,107566,2,0,P|345:112|382:151,1,107.999996704102,8|0,0:0|0:0,0:0:0:0:
156,218,107905,1,0,1:0:0:0:
234,27,108074,1,8,0:0:0:0:
299,194,108244,1,0,0:0:0:0:
82,125,108413,6,0,B|57:231|57:231|82:277,1,161.999995056153,6|0,1:0|0:0,0:0:0:0:
132,357,108752,2,0,L|239:345,1,107.999996704102,10|0,0:0|0:0,0:0:0:0:
406,206,109091,2,0,L|299:194,1,107.999996704102,2|0,1:0|0:0,0:0:0:0:
166,48,109430,1,10,0:0:0:0:
225,252,109600,1,2,0:0:0:0:
362,114,109769,6,0,P|370:61|349:13,1,107.999996704102,0|2,1:0|0:0,0:0:0:0:
212,159,110108,1,8,0:0:0:0:
406,206,110278,2,0,P|414:258|393:306,1,107.999996704102,2|0,0:0|1:0,0:0:0:0:
225,252,110617,1,2,0:0:0:0:
362,114,110786,1,8,0:0:0:0:
212,159,110956,1,2,0:0:0:0:
393,306,111125,6,0,B|281:282|303:376|191:352,1,215.999993408203,0|8,1:0|0:0,0:0:0:0:
118,155,111634,1,2,0:0:0:0:
225,262,111803,1,2,1:0:0:0:
69,333,111973,1,2,0:0:0:0:
212,159,112142,1,10,0:0:0:0:
19,112,112312,6,0,L|31:219,1,107.999996704102,2|0,0:0|1:0,0:0:0:0:
225,262,112651,1,2,0:0:0:0:
107,81,112820,1,8,0:0:0:0:
164,334,112989,2,0,P|212:355|264:346,1,107.999996704102,2|0,0:0|1:0,0:0:0:0:
310,95,113329,1,2,0:0:0:0:
133,245,113498,1,8,0:0:0:0:
355,320,113668,1,2,0:0:0:0:
148,152,113837,6,0,P|78:169|54:296,1,215.999993408203,4|10,1:0|0:0,0:0:0:0:
221,211,114346,1,0,0:0:0:0:
89,61,114515,1,0,1:0:0:0:
133,245,114685,1,0,0:0:0:0:
267,49,114854,2,0,P|319:40|367:61,1,107.999996704102,10|0,0:0|0:0,0:0:0:0:
434,288,115193,6,0,P|355:288|304:228,1,161.999995056153,2|0,1:0|0:0,0:0:0:0:
308,134,115532,2,0,L|201:146,1,107.999996704102,8|0,0:0|0:0,0:0:0:0:
157,351,115871,1,2,1:0:0:0:
304,228,116041,1,0,0:0:0:0:
116,106,116210,1,8,0:0:0:0:
211,241,116380,1,2,0:0:0:0:
380,73,116549,6,0,P|401:121|392:173,1,107.999996704102,0|0,1:0|0:0,0:0:0:0:
223,341,116888,2,0,P|201:292|210:240,1,107.999996704102,10|0,0:0|0:0,0:0:0:0:
309,134,117227,1,0,1:0:0:0:
113,142,117397,1,0,0:0:0:0:
295,280,117566,1,10,0:0:0:0:
82,347,117736,1,2,0:0:0:0:
243,201,117905,5,6,1:0:0:0:
26,110,118074,1,8,0:0:0:0:
202,287,118244,1,2,1:0:0:0:
186,28,118413,1,10,0:0:0:0:
114,258,118583,5,8,0:0:0:0:
272,111,118752,1,4,3:0:0:0:
103,164,118922,1,4,3:0:0:0:
243,201,119091,1,4,3:0:0:0:
92,70,119261,6,0,P|29:106|11:176,1,144,6|0,1:0|0:0,0:0:0:0:
29,264,119769,1,0,0:0:0:0:
103,164,119939,2,0,L|246:180,1,144,8|2,0:0|0:0,0:0:0:0:
328,134,120447,1,2,0:0:0:0:
271,19,120617,6,0,P|253:50|248:86,1,72,2|8,1:0|0:0,0:0:0:0:
326,229,120956,1,2,0:0:0:0:
391,103,121125,2,0,P|356:112|327:133,1,72,2|8,1:0|0:0,0:0:0:0:
244,274,121464,1,2,0:0:0:0:
399,197,121634,1,2,0:0:0:0:
246,180,121803,1,10,0:0:0:0:
455,272,121973,6,0,P|491:211|475:143,1,144,2|0,1:0|0:0,0:0:0:0:
391,103,122481,1,0,1:0:0:0:
326,229,122651,2,0,L|183:213,1,144,8|10,0:0|0:0,0:0:0:0:
111,156,123159,1,2,0:0:0:0:
37,278,123328,6,0,L|109:270,1,72,2|8,1:0|0:0,0:0:0:0:
197,120,123667,1,2,1:0:0:0:
27,115,123837,2,0,P|18:150|24:186,1,72,2|8,1:0|0:0,0:0:0:0:
197,120,124176,2,0,P|205:85|200:49,1,72,2|8,1:0|0:0,0:0:0:0:
94,241,124515,1,2,0:0:0:0:
291,128,124684,6,0,B|403:104|381:198|493:174,2,215.999993408203,4|8|2,1:0|0:0|1:0,0:0:0:0:
170,270,125532,1,0,1:0:0:0:
326,218,125701,2,0,L|314:325,1,107.999996704102,8|0,0:0|0:0,0:0:0:0:
205,181,126040,6,0,B|93:157|115:251|3:227,2,215.999993408203,2|10|2,1:0|0:0|1:0,0:0:0:0:
313,325,126888,1,0,1:0:0:0:
170,270,127057,2,0,L|182:377,1,107.999996704102,10|0,0:0|0:0,0:0:0:0:
344,236,127396,6,0,B|369:130|369:130|344:84,1,161.999995056153,6|0,1:0|0:0,0:0:0:0:
282,15,127735,1,10,0:0:0:0:
457,100,127905,1,8,0:0:0:0:
271,144,128074,2,0,L|164:132,1,107.999996704102,0|0,1:0|1:0,0:0:0:0:
3,315,128413,1,10,0:0:0:0:
49,131,128583,1,2,1:0:0:0:
193,326,128752,6,0,P|215:277|208:225,1,107.999996704102,10|0,0:0|1:0,0:0:0:0:
107,59,129091,1,10,0:0:0:0:
124,265,129261,1,2,1:0:0:0:
187,12,129430,1,8,0:0:0:0:
207,224,129600,1,2,1:0:0:0:
23,19,129769,2,0,P|15:71|37:120,1,107.999996704102,10|0,0:0|1:0,0:0:0:0:
249,141,130108,6,0,P|184:133|130:172,1,135,4|0,1:0|0:0,0:0:0:0:
124,265,130447,1,8,0:0:0:0:
37,120,130617,1,8,0:0:0:0:
63,335,130786,1,2,1:0:0:0:
130,171,130956,1,0,1:0:0:0:
217,313,131125,2,0,L|205:206,1,90,8|2,0:0|1:0,0:0:0:0:
280,67,131464,6,0,P|345:59|399:98,1,135,0|0,1:0|0:0,0:0:0:0:
405,191,131803,1,8,0:0:0:0:
460,28,131973,1,8,0:0:0:0:
322,150,132142,1,2,1:0:0:0:
492,224,132312,1,0,1:0:0:0:
354,346,132481,2,0,L|264:335,1,90,10|0,0:0|0:0,0:0:0:0:
195,149,132820,6,0,B|277:127|277:127|321:149,1,135,2|0,1:0|0:0,0:0:0:0:
405,191,133159,1,8,0:0:0:0:
324,46,133328,1,8,0:0:0:0:
267,226,133498,2,0,L|277:315,1,90,2|0,1:0|1:0,0:0:0:0:
405,191,133837,1,10,0:0:0:0:
263,125,134006,6,0,B|170:105|188:183|95:163,1,180,0|0,1:0|1:0,0:0:0:0:
34,15,134515,2,0,L|24:104,1,90,10|8,0:0|0:0,0:0:0:0:
84,252,134854,2,0,L|94:163,1,90,2|0,1:0|0:0,0:0:0:0:
183,39,135193,1,10,0:0:0:0:
239,215,135362,1,2,0:0:0:0:
367,47,135532,6,0,B|400:7|400:7|416:88,1,135,4|0,1:0|0:0,0:0:0:0:
433,173,135871,1,8,0:0:0:0:
275,57,136040,1,8,0:0:0:0:
239,215,136210,2,0,L|249:304,1,90,2|0,1:0|1:0,0:0:0:0:
431,222,136549,2,0,L|421:133,1,90,8|2,0:0|1:0,0:0:0:0:
275,57,136888,6,0,B|193:35|193:35|149:57,1,135,0|0,1:0|0:0,0:0:0:0:
65,99,137227,1,8,0:0:0:0:
222,214,137396,1,8,0:0:0:0:
148,57,137566,1,2,1:0:0:0:
63,193,137735,1,0,0:0:0:0:
224,121,137905,2,0,P|267:133|300:164,1,90,8|0,0:0|0:0,0:0:0:0:
463,220,138244,6,0,P|398:212|344:251,1,135,2|0,1:0|0:0,0:0:0:0:
338,344,138583,1,8,0:0:0:0:
299,163,138752,1,8,0:0:0:0:
421,304,138922,1,0,1:0:0:0:
450,132,139091,1,0,1:0:0:0:
344,250,139261,1,10,0:0:0:0:
291,69,139430,1,2,1:0:0:0:
266,300,139600,6,0,L|177:290,1,90,10|0,0:0|1:0,0:0:0:0:
57,118,139939,1,10,0:0:0:0:
29,307,140108,1,2,1:0:0:0:
148,100,140278,1,8,0:0:0:0:
176,289,140447,1,2,1:0:0:0:
57,118,140617,1,10,0:0:0:0:
291,69,140786,1,0,0:0:0:0:
118,189,140956,6,0,L|251:204,1,135,6|0,1:0|0:0,0:0:0:0:
344,216,141295,1,8,0:0:0:0:
291,69,141464,1,8,0:0:0:0:
252,204,141634,1,2,1:0:0:0:
383,80,141803,1,0,1:0:0:0:
436,228,141973,2,0,L|426:317,1,90,8|2,0:0|1:0,0:0:0:0:
252,204,142312,6,0,P|187:196|133:235,1,135,0|0,1:0|0:0,0:0:0:0:
127,328,142651,1,8,0:0:0:0:
69,167,142820,1,8,0:0:0:0:
210,287,142989,1,2,1:0:0:0:
228,106,143159,1,0,1:0:0:0:
88,258,143328,2,0,P|43:256|5:233,1,90,8|0,0:0|0:0,0:0:0:0:
18,64,143667,6,0,B|100:42|100:42|144:64,1,135,2|0,1:0|0:0,0:0:0:0:
228,106,144006,1,8,0:0:0:0:
69,167,144176,1,8,0:0:0:0:
181,258,144345,2,0,L|270:248,1,90,0|0,1:0|1:0,0:0:0:0:
385,85,144684,1,10,0:0:0:0:
432,244,144854,1,2,1:0:0:0:
306,134,145023,6,0,P|241:126|187:165,1,135,2|0,0:0|0:0,0:0:0:0:
181,258,145362,1,10,0:0:0:0:
118,103,145532,2,0,L|128:14,1,90,10|0,0:0|1:0,0:0:0:0:
31,137,145871,1,2,0:0:0:0:
249,195,146040,2,0,L|382:179,1,135,8|0,0:0|0:0,0:0:0:0:
475,170,146379,6,0,P|455:210|456:254,1,90,4|0,1:0|0:0,0:0:0:0:
352,74,146718,1,10,0:0:0:0:
249,195,146888,1,8,0:0:0:0:
170,43,147057,2,0,L|180:132,1,90,2|0,1:0|1:0,0:0:0:0:
319,256,147396,1,10,0:0:0:0:
183,305,147566,6,0,P|138:305|98:285,1,90,2|0,1:0|0:0,0:0:0:0:
249,195,147905,1,0,1:0:0:0:
232,384,148074,1,8,0:0:0:0:
159,214,148244,1,8,0:0:0:0:
337,164,148413,2,0,L|426:174,1,90,0|0,1:0|1:0,0:0:0:0:
272,315,148752,2,0,L|183:305,1,90,8|0,0:0|0:0,0:0:0:0:
159,52,149091,5,12,0:0:0:0:
265,221,149261,1,0,1:0:0:0:
241,8,149430,5,8,0:0:0:0:
138,222,149600,1,0,1:0:0:0:
78,7,149769,5,8,0:0:0:0:
201,154,149939,1,0,1:0:0:0:
333,6,150108,5,12,0:0:0:0:
111,131,150278,1,0,1:0:0:0:
309,216,150447,6,0,L|265:221,1,45,8|8,0:0|0:0,0:0:0:0:
176,64,150617,2,0,L|220:59,1,45,8|8,0:0|0:0,0:0:0:0:
175,244,150787,1,8,0:0:0:0:
136,248,150871,1,8,0:0:0:0:
98,252,150956,1,8,0:0:0:0:
60,256,151041,1,8,0:0:0:0:
22,261,151125,1,0,1:0:0:0:
176,64,151295,5,8,0:0:0:0:
240,311,151464,1,8,0:0:0:0:
367,93,151634,1,8,0:0:0:0:
201,154,151803,5,2,0:0:0:0:
201,154,152481,2,0,P|260:167|321:192,1,125.999996154785,2|0,0:0|0:0,0:0:0:0:
201,60,153159,2,0,P|142:73|81:98,1,125.999996154785,2|0,0:0|0:0,0:0:0:0:
107,290,153837,1,2,0:0:0:0:
201,154,154176,1,0,0:0:0:0:
233,322,154515,6,0,P|291:297|352:284,1,125.999996154785,2|0,0:0|0:0,0:0:0:0:
201,154,155193,2,0,P|142:129|81:116,1,125.999996154785,2|0,0:0|0:0,0:0:0:0:
206,247,155871,1,2,0:0:0:0:
295,95,156210,1,0,0:0:0:0:
397,281,156549,2,0,B|266:249|293:366|163:334,1,251.999992309571,2|0,0:0|0:0,0:0:0:0:
163,335,157905,6,0,P|150:276|125:215,1,125.999996154785,2|0,0:0|0:0,0:0:0:0:
267,104,158583,2,0,P|243:162|230:224,1,125.999996154785,2|0,0:0|0:0,0:0:0:0:
339,371,159261,1,2,0:0:0:0:
322,214,159600,1,0,0:0:0:0:
163,335,159939,5,2,0:0:0:0:
256,192,160108,12,0,165362,0:0:0:0:
