osu file format v14

[General]
AudioFilename: audio.mp3
AudioLeadIn: 0
PreviewTime: 31481
Countdown: 1
SampleSet: Soft
StackLeniency: 0.2
Mode: 2
LetterboxInBreaks: 0
WidescreenStoryboard: 1

[Editor]
DistanceSpacing: 1
BeatDivisor: 4
GridSize: 8
TimelineZoom: 2.4

[Metadata]
Title:Kimi ni Pierrot
TitleUnicode:Kimi ni Pierrot
Artist:LiSA
ArtistUnicode:LiSA
Creator:-Kaguya
Version:Hitsounds
Source:
Tags:
BeatmapID:1748523
BeatmapSetID:834745

[Difficulty]
HPDrainRate:6
CircleSize:3.5
OverallDifficulty:9.3
ApproachRate:9.3
SliderMultiplier:2
SliderTickRate:1

[Events]
//Background and Video events
0,0,"wallpaper2you_442956.jpg",0,0
//Break Periods
//Storyboard Layer 0 (Background)
//Storyboard Layer 1 (Fail)
//Storyboard Layer 2 (Pass)
//Storyboard Layer 3 (Foreground)
//Storyboard Sound Samples

[TimingPoints]
126,338.983050847458,4,2,22,60,1,0
52498,-100,4,2,22,50,0,0
53007,-100,4,2,22,40,0,0
53346,-100,4,2,22,30,0,0
53685,-100,4,2,22,20,0,0
54024,-100,4,2,22,15,0,0
54363,-100,4,2,22,10,0,0

[HitObjects]
256,192,126,5,4,0:0:0:0:
256,192,464,5,0,0:0:0:0:
256,192,634,1,2,0:0:0:0:
256,192,803,1,12,0:0:0:0:
256,192,1142,5,0,0:0:0:0:
256,192,1312,1,2,0:0:0:0:
256,192,1481,1,2,0:0:0:0:
256,192,1651,1,8,0:0:0:0:
256,192,1820,1,0,0:0:0:0:
256,192,1990,1,2,0:0:0:0:
256,192,2159,1,8,0:0:0:0:
256,192,2329,1,0,0:0:0:0:
256,192,2498,1,2,0:0:0:0:
256,192,2668,1,2,0:0:0:0:
256,192,2837,1,4,0:0:0:0:
256,192,3176,5,0,0:0:0:0:
256,192,3346,1,2,0:0:0:0:
256,192,3515,1,8,0:0:0:0:
256,192,3854,5,8,0:0:0:0:
256,192,4024,1,0,0:0:0:0:
256,192,4193,1,8,0:0:0:0:
256,192,4363,1,8,0:0:0:0:
256,192,4532,1,2,0:0:0:0:
256,192,4702,1,0,0:0:0:0:
256,192,4871,1,8,0:0:0:0:
256,192,5041,1,2,0:0:0:0:
256,192,5210,1,8,0:0:0:0:
256,192,5380,1,2,0:0:0:0:
256,192,5549,1,6,0:0:0:0:
256,192,5888,5,8,0:0:0:0:
256,192,6227,5,2,0:0:0:0:
256,192,6397,1,2,0:0:0:0:
256,192,6566,1,8,0:0:0:0:
256,192,6905,5,2,0:0:0:0:
256,192,7244,5,8,0:0:0:0:
256,192,7414,1,0,0:0:0:0:
256,192,7583,1,2,0:0:0:0:
256,192,7753,1,2,0:0:0:0:
256,192,7922,1,8,0:0:0:0:
256,192,8261,5,4,0:0:0:0:
256,192,8431,1,2,0:0:0:0:
256,192,8600,1,8,0:0:0:0:
256,192,8770,1,8,0:0:0:0:
256,192,8939,1,0,0:0:0:0:
256,192,9109,1,2,0:0:0:0:
256,192,9278,1,8,0:0:0:0:
256,192,9448,1,0,0:0:0:0:
256,192,9617,1,8,0:0:0:0:
256,192,9787,1,2,0:0:0:0:
256,192,9956,1,8,0:0:0:0:
256,192,10126,1,2,0:0:0:0:
256,192,10295,1,8,0:0:0:0:
256,192,10464,5,2,0:0:0:0:
256,192,10549,1,0,0:0:0:0:
256,192,10634,1,8,0:0:0:0:
256,192,10719,1,0,0:0:0:0:
256,192,10803,1,2,0:0:0:0:
256,192,10888,1,0,0:0:0:0:
256,192,10973,1,12,0:0:0:0:
256,192,11312,5,8,0:0:0:0:
256,192,11481,1,0,0:0:0:0:
256,192,11651,1,8,0:0:0:0:
256,192,11820,1,0,0:0:0:0:
256,192,11990,1,8,0:0:0:0:
256,192,12159,1,0,0:0:0:0:
256,192,12328,1,8,0:0:0:0:
256,192,12498,1,0,0:0:0:0:
256,192,12667,1,8,0:0:0:0:
256,192,12837,1,0,0:0:0:0:
256,192,13006,1,8,0:0:0:0:
256,192,13176,1,0,0:0:0:0:
256,192,13345,1,8,0:0:0:0:
256,192,13515,1,0,0:0:0:0:
256,192,13685,1,12,0:0:0:0:
256,192,14024,5,8,0:0:0:0:
256,192,14363,5,8,0:0:0:0:
256,192,14532,1,0,0:0:0:0:
256,192,14702,1,8,0:0:0:0:
256,192,14871,1,4,0:0:0:0:
256,192,15210,5,0,0:0:0:0:
256,192,15380,1,8,0:0:0:0:
256,192,15549,1,4,0:0:0:0:
256,192,15888,5,0,0:0:0:0:
256,192,16058,1,8,0:0:0:0:
256,192,16227,1,0,0:0:0:0:
256,192,16397,1,8,0:0:0:0:
256,192,16736,5,8,0:0:0:0:
256,192,17075,5,8,0:0:0:0:
256,192,17244,1,0,0:0:0:0:
256,192,17414,1,8,0:0:0:0:
256,192,17583,1,0,0:0:0:0:
256,192,17753,1,8,0:0:0:0:
256,192,17922,1,0,0:0:0:0:
256,192,18092,1,8,0:0:0:0:
256,192,18261,1,0,0:0:0:0:
256,192,18431,1,8,0:0:0:0:
256,192,18600,1,0,0:0:0:0:
256,192,18770,1,8,0:0:0:0:
256,192,18939,1,0,0:0:0:0:
256,192,19109,1,12,0:0:0:0:
256,192,19448,5,8,0:0:0:0:
256,192,19617,1,0,0:0:0:0:
256,192,19787,1,8,0:0:0:0:
256,192,19956,1,0,0:0:0:0:
256,192,20126,1,8,0:0:0:0:
256,192,20295,1,4,0:0:0:0:
256,192,20634,5,0,0:0:0:0:
256,192,20803,1,8,0:0:0:0:
256,192,20973,1,4,0:0:0:0:
256,192,21312,5,0,0:0:0:0:
256,192,21481,1,8,0:0:0:0:
256,192,21820,5,8,0:0:0:0:
256,192,21990,1,0,0:0:0:0:
256,192,22159,1,8,0:0:0:0:
256,192,22329,1,0,0:0:0:0:
256,192,22498,1,8,0:0:0:0:
256,192,22668,1,0,0:0:0:0:
256,192,22837,1,8,0:0:0:0:
256,192,23007,1,0,0:0:0:0:
256,192,23176,1,8,0:0:0:0:
256,192,23515,5,8,0:0:0:0:
256,192,23685,1,0,0:0:0:0:
256,192,23854,1,8,0:0:0:0:
256,192,24024,1,0,0:0:0:0:
256,192,24193,1,8,0:0:0:0:
256,192,24363,1,0,0:0:0:0:
256,192,24532,1,12,0:0:0:0:
256,192,24702,1,0,0:0:0:0:
256,192,24871,1,8,0:0:0:0:
256,192,25041,1,0,0:0:0:0:
256,192,25210,1,8,0:0:0:0:
256,192,25380,1,0,0:0:0:0:
256,192,25549,1,8,0:0:0:0:
256,192,25719,1,0,0:0:0:0:
256,192,25888,1,8,0:0:0:0:
256,192,26058,1,0,0:0:0:0:
256,192,26227,1,8,0:0:0:0:
256,192,26397,1,0,0:0:0:0:
256,192,26566,1,8,0:0:0:0:
256,192,26736,1,0,0:0:0:0:
256,192,26905,1,8,0:0:0:0:
256,192,27075,1,0,0:0:0:0:
256,192,27244,1,12,0:0:0:0:
256,192,27583,5,8,0:0:0:0:
256,192,27753,1,0,0:0:0:0:
256,192,27922,1,8,0:0:0:0:
256,192,28092,1,0,0:0:0:0:
256,192,28261,1,8,0:0:0:0:
256,192,28431,1,0,0:0:0:0:
256,192,28600,1,8,0:0:0:0:
256,192,28770,1,0,0:0:0:0:
256,192,28939,1,8,0:0:0:0:
256,192,29109,1,0,0:0:0:0:
256,192,29278,1,8,0:0:0:0:
256,192,29448,1,0,0:0:0:0:
256,192,29618,1,8,0:0:0:0:
256,192,29787,1,0,0:0:0:0:
256,192,29957,1,12,0:0:0:0:
256,192,30126,1,0,0:0:0:0:
256,192,30296,1,8,0:0:0:0:
256,192,30465,1,0,0:0:0:0:
256,192,30635,1,8,0:0:0:0:
256,192,30804,1,0,0:0:0:0:
256,192,30973,1,8,0:0:0:0:
256,192,31143,1,0,0:0:0:0:
256,192,31313,1,12,0:0:0:0:
256,192,31482,5,0,0:0:0:0:
256,192,31566,1,0,0:0:0:0:
256,192,31652,1,8,0:0:0:0:
256,192,31736,1,0,0:0:0:0:
256,192,31821,1,0,0:0:0:0:
256,192,31905,1,0,0:0:0:0:
256,192,31991,1,8,0:0:0:0:
256,192,32075,1,0,0:0:0:0:
256,192,32160,1,0,0:0:0:0:
256,192,32244,1,0,0:0:0:0:
256,192,32330,1,8,0:0:0:0:
256,192,32414,1,0,0:0:0:0:
256,192,32498,1,0,0:0:0:0:
256,192,32583,1,0,0:0:0:0:
256,192,32668,1,4,0:0:0:0:
256,192,33007,5,8,0:0:0:0:
256,192,33176,1,0,0:0:0:0:
256,192,33346,1,2,0:0:0:0:
256,192,33685,5,8,0:0:0:0:
256,192,33854,1,0,0:0:0:0:
256,192,34024,1,2,0:0:0:0:
256,192,34193,1,0,0:0:0:0:
256,192,34363,1,8,0:0:0:0:
256,192,34532,1,2,0:0:0:0:
256,192,34871,5,0,0:0:0:0:
256,192,35041,1,8,0:0:0:0:
256,192,35210,1,0,0:0:0:0:
256,192,35380,1,6,0:0:0:0:
256,192,35719,5,8,0:0:0:0:
256,192,35888,1,0,0:0:0:0:
256,192,36058,1,2,0:0:0:0:
256,192,36227,1,0,0:0:0:0:
256,192,36397,1,8,0:0:0:0:
256,192,36736,5,2,0:0:0:0:
256,192,36905,1,0,0:0:0:0:
256,192,37075,1,8,0:0:0:0:
256,192,37244,1,2,0:0:0:0:
256,192,37414,1,0,0:0:0:0:
256,192,37583,1,0,0:0:0:0:
256,192,37753,1,8,0:0:0:0:
256,192,38092,5,6,0:0:0:0:
256,192,38261,1,0,0:0:0:0:
256,192,38431,1,8,0:0:0:0:
256,192,38770,5,2,0:0:0:0:
256,192,38939,1,0,0:0:0:0:
256,192,39109,1,8,0:0:0:0:
256,192,39278,1,0,0:0:0:0:
256,192,39448,1,2,0:0:0:0:
256,192,39787,5,8,0:0:0:0:
256,192,39956,1,0,0:0:0:0:
256,192,40126,1,2,0:0:0:0:
256,192,40464,5,8,0:0:0:0:
256,192,40634,1,2,0:0:0:0:
256,192,40803,1,4,0:0:0:0:
256,192,40973,1,0,0:0:0:0:
256,192,41142,1,8,0:0:0:0:
256,192,41481,5,2,0:0:0:0:
256,192,41651,1,0,0:0:0:0:
256,192,41820,1,8,0:0:0:0:
256,192,41990,1,0,0:0:0:0:
256,192,42159,1,6,0:0:0:0:
256,192,42498,5,12,0:0:0:0:
256,192,42668,1,14,0:0:0:0:
256,192,43007,5,4,0:0:0:0:
256,192,43176,1,8,0:0:0:0:
256,192,43346,1,0,0:0:0:0:
256,192,43515,1,4,0:0:0:0:
256,192,43854,5,8,0:0:0:0:
256,192,44024,1,0,0:0:0:0:
256,192,44193,1,2,0:0:0:0:
256,192,44532,5,8,0:0:0:0:
256,192,44702,1,2,0:0:0:0:
256,192,44871,1,0,0:0:0:0:
256,192,45210,5,8,0:0:0:0:
256,192,45380,1,0,0:0:0:0:
256,192,45549,1,2,0:0:0:0:
256,192,45719,1,0,0:0:0:0:
256,192,45888,1,8,0:0:0:0:
256,192,46058,1,0,0:0:0:0:
256,192,46227,1,6,0:0:0:0:
256,192,46566,5,8,0:0:0:0:
256,192,46736,1,2,0:0:0:0:
256,192,46905,1,0,0:0:0:0:
256,192,47075,1,0,0:0:0:0:
256,192,47244,1,8,0:0:0:0:
256,192,47414,1,2,0:0:0:0:
256,192,47583,1,2,0:0:0:0:
256,192,47753,1,0,0:0:0:0:
256,192,47922,1,8,0:0:0:0:
256,192,48092,1,2,0:0:0:0:
256,192,48261,1,2,0:0:0:0:
256,192,48431,1,0,0:0:0:0:
256,192,48600,1,8,0:0:0:0:
256,192,48939,5,4,0:0:0:0:
256,192,49109,1,0,0:0:0:0:
256,192,49278,1,8,0:0:0:0:
256,192,49617,5,2,0:0:0:0:
256,192,49787,1,0,0:0:0:0:
256,192,49956,1,8,0:0:0:0:
256,192,50295,5,2,0:0:0:0:
256,192,50464,1,0,0:0:0:0:
256,192,50634,1,8,0:0:0:0:
256,192,50803,1,2,0:0:0:0:
256,192,50973,1,0,0:0:0:0:
256,192,51312,5,8,0:0:0:0:
256,192,51481,1,0,0:0:0:0:
256,192,51651,1,6,0:0:0:0:
256,192,51820,1,0,0:0:0:0:
256,192,51990,1,8,0:0:0:0:
256,192,52329,5,2,0:0:0:0:
256,192,52498,1,0,0:0:0:0:
256,192,52668,1,8,0:0:0:0:
256,192,52837,1,2,0:0:0:0:
256,192,53007,1,8,0:0:0:0:
256,192,53176,1,8,0:0:0:0:
256,192,53346,1,2,0:0:0:0:
256,192,53515,1,8,0:0:0:0:
256,192,53685,1,8,0:0:0:0:
256,192,53854,1,0,0:0:0:0:
256,192,54024,1,2,0:0:0:0:
256,192,54193,1,8,0:0:0:0:
256,192,54363,1,4,0:0:0:0:
256,192,55041,5,0,0:0:0:0:
