osu file format v14

[General]
AudioFilename: audio.mp3
AudioLeadIn: 0
PreviewTime: 136022
Countdown: 0
SampleSet: Soft
StackLeniency: 0.7
Mode: 0
LetterboxInBreaks: 0
WidescreenStoryboard: 1

[Editor]
Bookmarks: 289152
DistanceSpacing: 2.7
BeatDivisor: 4
GridSize: 8
TimelineZoom: 1.6

[Metadata]
Title:Jet Rocket
TitleUnicode:ジェットロケット
Artist:LiSA
ArtistUnicode:LiSA
Creator:Wen
Version:Kowari's Extra
Source:
Tags:lover"s"mile lovers mile oribe risa japanese pop female vocalist jpop j-pop kowari
BeatmapID:2492022
BeatmapSetID:1189927

[Difficulty]
HPDrainRate:5
CircleSize:3.8
OverallDifficulty:9
ApproachRate:9.2
SliderMultiplier:1.7
SliderTickRate:1

[Events]
//Background and Video events
0,0,"Jet Rocket Bg.jpg",0,0
//Break Periods
2,208947,213064
//Storyboard Layer 0 (Background)
//Storyboard Layer 1 (Fail)
//Storyboard Layer 2 (Pass)
//Storyboard Layer 3 (Foreground)
//Storyboard Layer 4 (Overlay)
//Storyboard Sound Samples

[TimingPoints]
2540,566.037735849057,4,2,1,40,1,0
2540,-125,4,2,1,40,0,0
6926,-125,4,2,1,40,0,0
7068,-125,4,2,1,40,0,0
11455,-125,4,2,1,40,0,0
11597,-125,4,2,1,40,0,0
17455,337.078651685393,4,2,1,50,1,0
17455,-100,4,2,1,50,0,0
21499,-100,4,2,1,60,0,0
32286,-125,4,2,1,50,0,0
41724,-142.857142857143,4,2,1,45,0,0
42567,-125,4,2,1,45,0,0
43072,-111.111111111111,4,2,1,50,0,0
53859,-111.111111111111,4,2,1,55,0,0
61949,-99.9999999999999,4,2,1,50,0,0
63213,-99.9999999999999,4,2,1,50,0,0
63297,-99.9999999999999,4,2,1,50,0,0
65910,-99.9999999999999,4,2,1,50,0,0
65994,-99.9999999999999,4,2,1,50,0,0
67342,-99.9999999999999,4,2,1,45,0,0
68690,-90.9090909090909,4,2,1,70,0,1
79140,-90.9090909090909,4,2,1,70,0,1
79393,-90.9090909090909,4,2,1,70,0,1
79477,-90.9090909090909,4,2,1,70,0,1
92876,-90.9090909090909,4,2,1,70,0,1
92960,-90.9090909090909,4,2,1,70,0,1
95572,-90.9090909090909,4,2,1,70,0,1
95656,-90.9090909090909,4,2,1,70,0,1
97005,-90.9090909090909,4,2,1,60,0,0
99028,-90.9090909090909,4,2,1,45,0,0
99702,-125,4,2,1,50,0,0
107792,-111.111111111111,4,2,1,50,0,0
109140,-142.857142857143,4,2,1,45,0,0
109983,-125,4,2,1,45,0,0
110488,-111.111111111111,4,2,1,50,0,0
121275,-111.111111111111,4,2,1,55,0,0
129365,-99.9999999999999,4,2,1,50,0,0
130629,-99.9999999999999,4,2,1,50,0,0
130713,-99.9999999999999,4,2,1,50,0,0
133325,-99.9999999999999,4,2,1,50,0,0
133409,-99.9999999999999,4,2,1,50,0,0
136106,-90.9090909090909,4,2,1,70,0,1
146556,-90.9090909090909,4,2,1,70,0,1
146808,-90.9090909090909,4,2,1,70,0,1
146893,-90.9090909090909,4,2,1,70,0,1
160292,-90.9090909090909,4,2,1,70,0,1
160376,-90.9090909090909,4,2,1,70,0,1
162988,-90.9090909090909,4,2,1,70,0,1
163072,-90.9090909090909,4,2,1,70,0,1
164421,-100,4,2,1,45,0,0
165769,-100,4,2,1,50,0,0
167033,-100,4,2,1,50,0,0
167117,-100,4,2,1,50,0,0
176471,-100,4,2,1,50,0,0
176556,-100,4,2,1,45,0,0
177735,-100,4,2,1,55,0,0
181865,-100,4,2,1,55,0,0
181949,-100,4,2,1,50,0,0
183213,-100,4,2,1,50,0,0
183297,-100,4,2,1,50,0,0
187342,-90.9090909090909,4,2,1,70,0,0
198044,-90.9090909090909,4,2,1,5,0,0
198129,-90.9090909090909,4,2,1,70,0,0
208915,-90.9090909090909,4,2,1,70,0,0
213634,-90.9090909090909,4,2,1,45,0,0
214308,-125,4,2,1,50,0,0
216921,-125,4,2,1,50,0,0
217005,-111.111111111111,4,2,1,50,0,0
218269,-111.111111111111,4,2,1,50,0,0
218353,-111.111111111111,4,2,1,50,0,0
220966,-111.111111111111,4,2,1,50,0,0
221050,-111.111111111111,4,2,1,50,0,0
222314,-111.111111111111,4,2,1,50,0,0
222398,-111.111111111111,4,2,1,50,0,0
225769,-90.9090909090908,4,2,1,50,0,0
226443,-90.9090909090909,4,2,1,70,0,1
236893,-90.9090909090909,4,2,1,70,0,1
237146,-90.9090909090909,4,2,1,70,0,1
237230,-90.9090909090909,4,2,1,70,0,1
250629,-90.9090909090909,4,2,1,70,0,1
250713,-90.9090909090909,4,2,1,70,0,1
253325,-90.9090909090909,4,2,1,70,0,1
253409,-90.9090909090909,4,2,1,70,0,1
260151,-100,4,2,1,50,0,0
261499,-90.9090909090909,4,2,1,70,0,0
283072,-370.37037037037,4,2,1,60,0,0
283157,-370.37037037037,4,2,1,5,0,0

[Colours]
Combo1 : 223,216,64
Combo2 : 109,220,44
Combo3 : 36,215,89
Combo4 : 62,189,103
Combo5 : 26,73,236
Combo6 : 30,146,232
Combo7 : 70,191,232
Combo8 : 84,67,235

[HitObjects]
255,367,17455,5,10,0:0:0:0:
206,117,18803,5,10,0:0:0:0:
321,286,18971,1,8,0:0:0:0:
310,44,19477,5,8,0:0:0:0:
235,235,19645,1,8,0:0:0:0:
235,235,20151,5,0,1:2:0:0:
78,84,20320,1,8,0:0:0:0:
319,169,20488,1,0,1:2:0:0:
64,255,20657,1,8,0:0:0:0:
186,2,20825,1,0,1:2:0:0:
240,249,20994,1,8,0:0:0:0:
276,276,21078,1,8,0:0:0:0:
322,280,21162,1,8,0:0:0:0:
363,257,21246,1,8,0:0:0:0:
384,216,21331,1,8,0:0:0:0:
380,170,21415,1,8,0:0:0:0:
355,136,21499,6,0,B|294:142|294:142|259:163|259:163|166:170,1,170,12|8,0:0|0:0,0:0:0:0:
21,46,22005,1,0,1:2:0:0:
92,242,22174,2,0,L|105:147,1,85,8|0,0:0|1:2,0:0:0:0:
7,35,22511,2,0,L|18:119,1,85,8|0,0:0|1:2,0:0:0:0:
74,338,22848,5,8,0:0:0:0:
189,154,23016,1,0,1:2:0:0:
252,323,23185,2,0,P|204:323|161:290,1,85,8|0,0:0|1:2,0:0:0:0:
345,178,23522,1,8,0:0:0:0:
401,367,23690,1,0,1:2:0:0:
426,137,23859,1,8,0:0:0:0:
340,300,24028,1,0,1:2:0:0:
356,64,24196,6,0,B|250:36|250:36|198:72,1,170,12|8,0:0|0:0,0:0:0:0:
85,199,24702,1,0,1:2:0:0:
276,238,24870,2,0,L|265:143,1,85,8|0,0:0|1:2,0:0:0:0:
154,293,25207,2,0,L|144:377,1,85,8|0,0:0|1:2,0:0:0:0:
282,265,25544,5,8,0:0:0:0:
80,175,25713,1,0,1:2:0:0:
158,381,25881,2,0,P|221:382|258:363,1,85,8|0,0:0|1:2,0:0:0:0:
366,201,26219,1,8,0:0:0:0:
169,271,26387,1,0,1:2:0:0:
401,307,26556,1,8,0:0:0:0:
252,169,26724,1,0,1:2:0:0:
340,369,26893,6,0,L|367:194,1,170,12|8,0:0|0:0,0:0:0:0:
409,0,27398,1,0,1:2:0:0:
512,157,27567,2,0,L|419:133,1,85,8|0,0:0|1:2,0:0:0:0:
214,40,27904,2,0,L|307:16,1,85,8|0,0:0|1:2,0:0:0:0:
213,215,28241,5,8,0:0:0:0:
105,66,28410,1,0,1:2:0:0:
310,156,28578,2,0,P|324:217|316:264,1,85,8|0,0:0|1:2,0:0:0:0:
156,295,28915,1,8,0:0:0:0:
228,110,29084,1,0,1:2:0:0:
256,321,29252,1,8,0:0:0:0:
142,150,29421,1,0,1:2:0:0:
159,384,29589,6,0,B|106:374|106:374|74:346|74:346|0:335,1,170,12|8,0:0|0:0,0:0:0:0:
121,133,30095,1,0,1:2:0:0:
219,303,30263,2,0,L|241:207,1,85,8|0,0:0|1:2,0:0:0:0:
79,52,30601,2,0,L|97:134,1,85,8|0,0:0|1:2,0:0:0:0:
317,94,30938,5,8,0:0:0:0:
135,243,31106,1,8,0:0:0:0:
429,26,31612,1,8,0:0:0:0:
429,26,31696,1,8,0:0:0:0:
429,26,31780,2,0,L|441:88,2,42.5,8|8|8,0:0|0:0|0:0,0:0:0:0:
375,189,32117,5,8,0:0:0:0:
375,189,32202,1,8,0:0:0:0:
375,189,32286,2,0,B|460:170|434:216|514:190,1,136,6|2,1:2|1:2,0:0:0:0:
423,295,32792,2,0,L|410:369,1,68,2|0,0:0|1:2,0:0:0:0:
311,268,33129,2,0,L|324:342,1,68,2|0,0:0|1:2,0:0:0:0:
215,305,33466,1,2,0:0:0:0:
251,176,33634,5,2,1:2:0:0:
251,176,33803,2,0,P|296:157|329:161,1,68,2|2,0:0|1:2,0:0:0:0:
160,225,34140,2,0,L|12:199,1,136,2|0,0:0|0:0,0:0:0:0:
111,129,34646,1,0,1:2:0:0:
96,300,34814,5,2,0:0:0:0:
96,300,34898,1,2,0:0:0:0:
96,300,34983,2,0,P|141:329|222:304,1,136,2|2,1:2|1:2,0:0:0:0:
295,231,35488,2,0,L|310:305,1,68,2|0,0:0|1:2,0:0:0:0:
385,384,35825,2,0,L|398:317,1,68,2|0,0:0|1:2,0:0:0:0:
380,206,36162,1,2,0:0:0:0:
512,236,36331,5,2,1:2:0:0:
512,236,36499,2,0,P|469:259|435:255,1,68,2|2,0:0|1:2,0:0:0:0:
323,135,36837,2,0,B|411:115|411:115|465:153,1,136,2|0,0:0|0:0,0:0:0:0:
359,236,37342,2,0,L|286:216,1,68,8|2,0:0|0:0,0:0:0:0:
220,91,37679,6,0,B|171:95|171:95|142:114|142:114|84:119,1,136,2|2,1:2|1:2,0:0:0:0:
178,252,38185,2,0,L|191:182,1,68,2|0,0:0|1:2,0:0:0:0:
84,317,38522,2,0,L|71:247,1,68,2|0,0:0|1:2,0:0:0:0:
209,349,38859,5,2,0:0:0:0:
209,349,39028,2,0,P|250:366|292:360,1,68,0|0,1:2|0:0,0:0:0:0:
312,224,39365,2,0,P|276:251|260:290,1,68,0|0,1:2|0:0,0:0:0:0:
365,373,39702,2,0,P|359:328|333:295,1,68,0|2,1:2|0:0,0:0:0:0:
452,204,40039,2,0,L|438:291,1,68,2|2,1:2|0:0,0:0:0:0:
382,124,40376,6,0,B|312:108|331:152|238:142,1,136,2|0,1:2|1:2,0:0:0:0:
168,8,40881,1,2,0:0:0:0:
51,108,41050,2,0,P|104:106|148:174,1,136,2|0,1:2|1:2,0:0:0:0:
87,253,41556,1,2,0:0:0:0:
166,332,41724,6,0,L|297:308,2,118.999996368408,2|2|0,1:2|1:2|1:2,0:0:0:0:
9,301,42567,1,10,0:0:0:0:
9,301,42651,1,8,0:0:0:0:
9,301,42735,2,0,L|-3:358,2,34,8|8|10,0:0|0:0|0:3,0:0:0:0:
87,163,43072,6,0,P|116:125|221:130,1,152.999995330811,6|10,1:2|0:0,0:0:0:0:
291,244,43578,2,0,L|208:225,1,76.4999976654053,2|0,0:0|1:2,0:0:0:0:
337,139,43915,1,2,1:2:0:0:
415,234,44084,2,0,P|412:281|391:319,1,76.4999976654053,8|2,0:0|0:0,0:0:0:0:
510,165,44421,5,2,1:2:0:0:
510,165,44589,2,0,L|500:74,1,76.4999976654053,2|10,0:0|0:0,0:0:0:0:
401,3,44926,2,0,L|392:79,1,76.4999976654053,2|0,0:0|1:2,0:0:0:0:
313,206,45263,1,0,1:2:0:0:
240,86,45432,2,0,P|192:66|163:65,1,76.4999976654053,8|2,0:0|0:0,0:0:0:0:
20,159,45769,6,0,B|78:154|78:154|118:173|118:173|182:162,1,152.999995330811,2|10,1:2|0:0,0:0:0:0:
164,354,46275,2,0,P|139:323|132:275,1,76.4999976654053,2|0,0:0|1:2,0:0:0:0:
250,188,46612,1,2,1:2:0:0:
305,296,46780,2,0,L|219:279,1,76.4999976654053,8|2,0:0|0:0,0:0:0:0:
396,230,47117,5,2,1:2:0:0:
396,230,47286,2,0,P|415:285|404:319,1,76.4999976654053,2|10,0:0|0:0,0:0:0:0:
293,371,47623,2,0,L|305:289,1,76.4999976654053,2|0,0:0|1:2,0:0:0:0:
203,190,47960,1,0,1:2:0:0:
69,302,48129,2,0,L|145:286,1,76.4999976654053,8|2,0:0|1:2,0:0:0:0:
143,286,48381,1,0,1:2:0:0:
143,286,48466,6,0,P|172:227|112:160,1,152.999995330811,0|10,1:2|0:0,0:0:0:0:
9,67,48971,2,0,L|26:157,1,76.4999976654053,2|0,0:0|1:2,0:0:0:0:
132,0,49308,2,0,L|115:90,1,76.4999976654053,2|8,1:2|0:0,0:0:0:0:
208,187,49646,1,2,0:0:0:0:
284,77,49814,6,0,B|370:62|356:116|448:93,1,152.999995330811,0|8,1:2|0:0,0:0:0:0:
361,250,50320,2,0,P|332:201|340:160,1,76.4999976654053,0|0,0:0|1:2,0:0:0:0:
475,261,50657,1,2,1:2:0:0:
409,376,50825,2,0,L|328:361,1,76.4999976654053,10|2,0:0|0:0,0:0:0:0:
122,288,51162,6,0,B|176:277|176:277|220:289|220:289|283:275,1,152.999995330811,2|8,1:2|0:0,0:0:0:0:
353,138,51668,1,2,0:0:0:0:
208,79,51837,2,0,L|234:166,1,76.4999976654053,2|0,1:2|1:2,0:0:0:0:
294,8,52174,1,8,0:0:0:0:
102,115,52342,1,2,0:0:0:0:
305,209,52511,6,0,P|359:228|413:220,1,76.4999976654053,2|0,1:2|1:2,0:0:0:0:
382,32,52848,2,0,L|364:117,1,76.4999976654053,8|0,0:0|1:2,0:0:0:0:
492,254,53185,1,10,0:0:0:0:
492,254,53269,1,8,0:0:0:0:
492,254,53353,2,0,L|478:188,2,38.2499988327027,8|8|10,0:0|0:0|0:0,0:0:0:0:
239,364,53690,5,8,0:0:0:0:
239,364,53775,1,8,0:0:0:0:
239,364,53859,1,6,1:2:0:0:
302,191,54028,1,2,1:2:0:0:
348,322,54196,1,10,0:0:0:0:
348,322,54533,5,2,1:2:0:0:
192,217,54702,1,0,1:2:0:0:
377,135,54870,1,10,0:0:0:0:
377,135,55207,5,2,1:2:0:0:
225,42,55376,1,0,1:2:0:0:
269,167,55544,1,10,0:0:0:0:
269,167,55881,5,2,1:2:0:0:
329,21,56050,1,0,1:2:0:0:
131,77,56219,1,8,0:0:0:0:
131,77,56556,5,2,1:2:0:0:
341,108,56724,1,0,1:2:0:0:
191,216,56893,1,10,0:0:0:0:
191,216,57230,5,2,1:2:0:0:
243,64,57398,1,0,1:2:0:0:
311,268,57567,1,10,0:0:0:0:
311,268,57904,5,2,1:2:0:0:
132,284,58073,1,0,1:2:0:0:
243,369,58241,1,10,0:0:0:0:
243,369,58578,5,2,1:2:0:0:
188,145,58747,1,12,0:0:0:0:
48,349,58915,1,12,0:0:0:0:
48,349,59252,5,2,1:2:0:0:
219,265,59421,1,2,1:2:0:0:
55,179,59589,1,10,0:0:0:0:
55,179,59926,5,2,1:2:0:0:
148,335,60095,1,0,1:2:0:0:
208,125,60263,1,10,0:0:0:0:
208,125,60601,5,2,1:2:0:0:
38,61,60769,1,0,1:2:0:0:
138,231,60938,1,10,0:0:0:0:
416,41,61275,5,10,0:0:0:0:
416,41,61359,1,8,0:0:0:0:
416,41,61443,2,0,L|408:-3,2,38.2499988327027,8|8|8,0:0|0:0|0:0,0:0:0:0:
509,192,61780,5,8,0:0:0:0:
509,192,61865,1,8,0:0:0:0:
509,192,61949,2,0,B|417:173|445:246|339:221,1,170,6|8,1:2|0:0,0:0:0:0:
205,100,62454,1,2,0:0:0:0:
231,292,62623,2,0,L|252:199,1,85,2|0,1:2|1:2,0:0:0:0:
92,88,62960,2,0,L|110:170,1,85,10|0,0:0|0:0,0:0:0:0:
303,64,63297,6,0,P|275:20|152:13,1,170,2|8,1:2|0:0,0:0:0:0:
90,184,63803,1,2,0:0:0:0:
254,220,63971,2,0,L|367:195,1,85,2|0,1:2|1:2,0:0:0:0:
176,353,64308,2,0,L|35:331,1,127.5,8|0,0:0|0:0,0:0:0:0:
19,328,64646,6,0,P|35:286|86:253,1,85,2|0,1:2|0:0,0:0:0:0:
234,229,64983,2,0,P|189:236|135:208,1,85,10|0,0:0|0:0,0:0:0:0:
88,28,65320,1,2,1:2:0:0:
223,126,65488,1,0,1:2:0:0:
67,233,65657,2,0,L|87:136,1,85,10|0,0:0|0:0,0:0:0:0:
248,14,65994,6,0,L|271:196,1,170,2|8,1:2|0:0,0:0:0:0:
354,334,66499,1,0,0:0:0:0:
186,252,66668,1,0,1:2:0:0:
397,231,66837,1,2,1:2:0:0:
251,348,67005,1,10,0:0:0:0:
356,129,67174,2,0,L|458:144,1,85,6|2,1:2|0:0,0:0:0:0:
47,24,68016,5,8,0:0:0:0:
47,24,68100,1,8,0:0:0:0:
47,24,68185,2,0,L|51:83,2,42.5,8|8|8,0:0|0:0|0:0,0:0:0:0:
195,197,68522,5,8,0:0:0:0:
195,197,68606,1,8,0:0:0:0:
195,197,68690,2,0,L|206:100,1,93.5000028533936,6|0,1:2|1:2,0:0:0:0:
27,225,69028,2,0,L|37:317,1,93.5000028533936,10|0,0:0|1:2,0:0:0:0:
215,208,69365,2,0,L|226:111,1,93.5000028533936,10|0,0:0|1:2,0:0:0:0:
138,320,69702,1,10,0:0:0:0:
338,226,69870,1,2,1:2:0:0:
124,141,70039,5,8,0:0:0:0:
254,328,70207,2,0,P|312:352|355:349,1,93.5000028533936,2|8,0:0|0:0,0:0:0:0:
418,112,70544,1,2,1:2:0:0:
506,361,70713,1,10,0:0:0:0:
299,213,70881,1,2,1:2:0:0:
512,211,71050,1,10,0:0:0:0:
341,351,71219,1,2,1:2:0:0:
331,108,71387,6,0,B|264:97|264:97|215:118|215:118|137:104,1,187.000005706787,14|8,0:0|0:0,0:0:0:0:
7,274,71893,1,2,0:0:0:0:
225,214,72061,1,10,0:0:0:0:
34,101,72230,1,0,1:2:0:0:
179,302,72398,1,8,0:0:0:0:
0,182,72567,1,0,1:2:0:0:
182,33,72735,6,0,L|159:134,1,93.5000028533936,8|0,0:0|0:0,0:0:0:0:
330,227,73072,2,0,L|309:135,1,93.5000028533936,8|0,0:0|1:2,0:0:0:0:
265,331,73410,1,10,0:0:0:0:
436,201,73578,1,0,1:2:0:0:
215,187,73747,1,10,0:0:0:0:
393,334,73915,1,2,1:2:0:0:
499,111,74084,6,0,B|446:73|446:73|322:111,1,187.000005706787,14|8,0:0|0:0,0:0:0:0:
198,274,74589,1,2,0:0:0:0:
206,52,74758,2,0,L|235:160,1,93.5000028533936,10|0,0:0|1:2,0:0:0:0:
76,263,75095,2,0,L|100:172,1,93.5000028533936,8|0,0:0|1:2,0:0:0:0:
242,368,75432,6,0,B|348:388|308:320|427:339,1,187.000005706787,10|8,0:0|0:0,0:0:0:0:
263,213,75938,1,2,1:2:0:0:
429,137,76106,2,0,P|403:215|366:230,1,93.5000028533936,10|0,0:0|1:2,0:0:0:0:
248,79,76443,2,0,L|356:52,1,93.5000028533936,10|2,0:0|1:2,0:0:0:0:
185,259,76780,5,14,0:0:0:0:
114,50,76949,1,2,1:2:0:0:
72,308,77117,1,10,0:0:0:0:
72,308,77454,5,10,0:0:0:0:
209,111,77623,1,2,1:2:0:0:
235,363,77792,1,8,0:0:0:0:
235,363,78129,5,10,0:0:0:0:
79,176,78297,1,0,1:2:0:0:
327,149,78466,5,10,0:3:0:0:
327,149,78550,1,8,0:3:0:0:
327,149,78634,2,0,L|314:202,1,46.7500014266968,4|4,0:3|0:3,0:0:0:0:
150,296,78803,1,10,0:3:0:0:
150,296,78887,1,8,0:3:0:0:
150,296,78971,2,0,L|137:243,1,46.7500014266968,4|0,0:3|0:3,0:0:0:0:
94,71,79140,1,12,0:0:0:0:
94,71,79477,6,0,L|212:49,1,93.5000028533936,6|0,1:2|1:2,0:0:0:0:
323,231,79814,2,0,L|205:209,1,93.5000028533936,10|0,0:0|1:2,0:0:0:0:
306,4,80151,2,0,P|320:59|304:104,1,93.5000028533936,10|0,0:0|1:2,0:0:0:0:
102,205,80488,1,10,0:0:0:0:
212,41,80657,1,2,1:2:0:0:
228,250,80825,5,8,0:0:0:0:
107,90,80994,2,0,L|5:68,1,93.5000028533936,2|8,0:0|0:0,0:0:0:0:
101,288,81331,1,2,1:2:0:0:
250,117,81499,1,10,0:0:0:0:
26,190,81668,1,2,1:2:0:0:
260,243,81837,1,10,0:0:0:0:
113,58,82005,1,2,1:2:0:0:
202,338,82174,6,0,P|289:351|358:273,1,187.000005706787,14|8,0:0|0:0,0:0:0:0:
349,75,82679,1,2,0:0:0:0:
465,247,82848,1,10,0:0:0:0:
268,137,83016,1,0,1:2:0:0:
355,364,83185,1,8,0:0:0:0:
434,121,83353,1,0,1:2:0:0:
204,308,83522,6,0,P|158:339|103:334,1,93.5000028533936,8|0,0:0|0:0,0:0:0:0:
2,160,83859,2,0,L|104:190,1,93.5000028533936,8|0,0:0|1:2,0:0:0:0:
273,43,84196,1,10,0:0:0:0:
45,74,84365,1,2,1:2:0:0:
257,157,84533,1,10,0:0:0:0:
117,0,84702,1,0,1:2:0:0:
191,223,84870,6,0,B|312:181|312:181|373:214,1,187.000005706787,14|8,0:0|0:0,0:0:0:0:
496,331,85376,1,2,0:0:0:0:
286,384,85544,2,0,L|300:280,1,93.5000028533936,10|0,0:0|1:2,0:0:0:0:
449,138,85881,2,0,L|461:230,1,93.5000028533936,8|0,0:0|1:2,0:0:0:0:
322,56,86219,6,0,B|252:56|252:56|214:78|214:78|115:76,1,187.000005706787,10|8,0:0|0:0,0:0:0:0:
0,255,86724,1,2,1:2:0:0:
20,13,86893,2,0,L|39:104,1,93.5000028533936,10|0,0:0|1:2,0:0:0:0:
148,258,87230,2,0,P|176:201|168:146,1,93.5000028533936,8|2,0:0|1:2,0:0:0:0:
20,357,87567,6,0,L|231:383,1,187.000005706787,14|2,0:0|1:2,0:0:0:0:
361,234,88072,2,0,L|254:252,1,93.5000028533936,2|8,0:0|0:0,0:0:0:0:
468,303,88410,1,2,1:2:0:0:
323,126,88578,1,8,0:0:0:0:
330,354,88747,1,2,0:0:0:0:
465,165,88915,5,0,1:2:0:0:
465,165,88999,1,0,1:2:0:0:
465,165,89084,2,0,L|521:156,2,46.7500014266968,0|0|10,1:2|1:2|0:0,0:0:0:0:
262,247,89421,2,0,L|241:299,2,46.7500014266968,0|0|10,1:2|1:2|0:0,0:0:0:0:
306,36,89758,2,0,L|270:-7,2,46.7500014266968,2|0|8,1:2|1:2|0:0,0:0:0:0:
347,144,90095,5,0,1:2:0:0:
347,144,90179,1,0,1:2:0:0:
347,144,90263,2,0,B|243:166|273:99|152:123,1,187.000005706787,6|10,1:2|0:0,0:0:0:0:
104,317,90769,2,0,P|160:275|167:232,1,93.5000028533936,2|0,0:0|1:2,0:0:0:0:
49,113,91106,2,0,L|79:215,1,93.5000028533936,2|8,1:2|0:0,0:0:0:0:
248,96,91443,1,2,0:0:0:0:
81,225,91612,5,2,1:2:0:0:
312,253,91780,1,2,0:0:0:0:
155,102,91949,2,0,L|170:-1,1,93.5000028533936,10|0,0:0|1:2,0:0:0:0:
329,123,92286,2,0,P|296:172|239:184,1,93.5000028533936,2|0,0:0|1:2,0:0:0:0:
283,1,92623,2,0,L|396:31,1,93.5000028533936,10|0,0:0|0:0,0:0:0:0:
498,140,92960,6,0,P|411:157|393:244,1,187.000005706787,2|10,1:2|0:0,0:0:0:0:
512,354,93466,2,0,L|484:247,1,93.5000028533936,2|0,0:0|1:2,0:0:0:0:
312,322,93803,2,0,P|358:352|411:348,1,93.5000028533936,2|8,1:2|0:0,0:0:0:0:
303,175,94140,1,2,0:0:0:0:
214,334,94308,5,2,1:2:0:0:
392,231,94477,1,2,0:0:0:0:
200,134,94646,2,0,L|220:230,1,93.5000028533936,10|0,0:0|1:2,0:0:0:0:
350,59,94983,2,0,L|330:155,1,93.5000028533936,2|0,0:0|1:2,0:0:0:0:
134,39,95320,2,0,P|180:16|240:24,1,93.5000028533936,10|0,0:0|0:0,0:0:0:0:
229,270,95657,6,0,B|177:308|177:308|58:279,1,187.000005706787,2|10,1:2|0:0,0:0:0:0:
133,121,96162,2,0,L|152:221,1,93.5000028533936,2|0,0:0|1:2,0:0:0:0:
41,371,96499,2,0,L|58:279,1,93.5000028533936,2|8,1:2|0:0,0:0:0:0:
243,160,96837,1,2,0:0:0:0:
40,189,97005,5,8,0:0:0:0:
236,364,97174,1,8,0:0:0:0:
384,63,98353,5,8,0:0:0:0:
212,206,98522,1,8,0:0:0:0:
483,268,99028,6,0,L|498:343,2,62.3333352355958,8|0|0,0:0|1:2|1:2,0:0:0:0:
397,206,99365,2,0,L|409:144,2,62.3333352355958,8|0|0,0:0|1:2|1:2,0:0:0:0:
314,273,99702,6,0,B|269:269|269:269|231:288|231:288|167:284,1,136,6|2,1:2|1:2,0:0:0:0:
77,242,100207,2,0,L|86:324,1,68,2|0,0:0|1:2,0:0:0:0:
146,168,100544,2,0,P|116:148|65:146,1,68,2|0,0:0|1:2,0:0:0:0:
0,191,100881,1,2,0:0:0:0:
0,56,101050,5,2,1:2:0:0:
0,56,101219,2,0,L|84:41,1,68,2|2,0:0|1:2,0:0:0:0:
227,15,101556,2,0,L|151:-3,1,68,2|0,0:0|1:2,0:0:0:0:
207,109,101893,1,0,0:0:0:0:
321,85,102061,2,0,P|344:39|345:3,1,68,8|0,0:0|1:2,0:0:0:0:
270,192,102398,6,0,L|283:348,1,136,2|2,1:2|1:2,0:0:0:0:
401,376,102904,2,0,P|429:342|475:331,1,68,2|0,0:0|1:2,0:0:0:0:
507,234,103241,2,0,L|426:216,1,68,2|0,0:0|1:2,0:0:0:0:
346,119,103578,1,2,0:0:0:0:
449,44,103747,5,2,1:2:0:0:
449,44,103915,2,0,L|459:134,1,68,2|0,0:0|1:2,0:0:0:0:
340,202,104252,2,0,L|347:134,1,68,2|0,0:0|1:2,0:0:0:0:
274,32,104589,1,0,0:0:0:0:
193,139,104758,1,8,0:0:0:0:
181,152,104842,1,8,0:3:0:0:
163,162,104926,1,10,0:3:0:0:
144,167,105011,1,8,0:3:0:0:
127,163,105095,6,0,P|83:121|3:134,1,136,6|2,1:2|1:2,0:0:0:0:
29,282,105601,2,0,L|51:202,1,68,2|0,0:0|1:2,0:0:0:0:
161,334,105938,2,0,L|139:254,1,68,2|0,0:0|1:2,0:0:0:0:
272,356,106275,6,0,B|320:348|320:348|348:328|348:328|409:320,1,136,2|0,0:0|0:0,0:0:0:0:
488,224,106780,1,0,1:2:0:0:
363,148,106949,2,0,L|385:217,1,68,0|0,0:0|1:2,0:0:0:0:
422,65,107286,1,2,0:0:0:0:
271,162,107454,1,10,0:0:0:0:
461,142,107623,1,2,0:0:0:0:
291,65,107792,6,0,B|210:52|226:99|136:84,1,152.999995330811,0|0,1:2|1:2,0:0:0:0:
23,8,108297,1,2,0:0:0:0:
19,190,108466,2,0,B|71:159|71:159|173:212,1,152.999995330811,2|0,1:2|1:2,0:0:0:0:
242,267,108971,1,2,0:0:0:0:
150,356,109140,6,0,P|98:351|75:291,2,118.999996368408,2|2|4,1:2|1:2|1:2,0:0:0:0:
265,243,109983,1,8,0:0:0:0:
265,243,110067,1,8,0:0:0:0:
265,243,110151,2,0,L|257:194,2,34,8|8|8,0:0|0:0|0:0,0:0:0:0:
394,359,110488,6,0,L|415:195,1,152.999995330811,6|10,1:2|0:0,0:0:0:0:
500,71,110994,2,0,L|513:158,1,76.4999976654053,2|0,0:0|1:2,0:0:0:0:
401,22,111331,1,2,1:2:0:0:
335,143,111499,2,0,P|300:168|256:173,1,76.4999976654053,8|2,0:0|0:0,0:0:0:0:
187,56,111837,5,2,1:2:0:0:
187,56,112005,2,0,L|270:77,1,76.4999976654053,2|10,0:0|0:0,0:0:0:0:
97,118,112342,2,0,L|14:139,1,76.4999976654053,2|0,0:0|1:2,0:0:0:0:
55,288,112679,1,0,1:2:0:0:
189,236,112848,2,0,P|159:204|110:201,1,76.4999976654053,8|2,0:0|0:0,0:0:0:0:
142,364,113185,6,0,B|201:353|201:353|234:371|234:371|305:361,1,152.999995330811,2|10,1:2|0:0,0:0:0:0:
334,201,113690,2,0,P|297:239|293:284,1,76.4999976654053,2|0,0:0|1:2,0:0:0:0:
391,381,114028,1,2,1:2:0:0:
465,261,114196,2,0,L|380:270,1,76.4999976654053,8|2,0:0|0:0,0:0:0:0:
320,102,114533,5,2,1:2:0:0:
320,102,114702,2,0,L|411:125,1,76.4999976654053,2|10,0:0|0:0,0:0:0:0:
223,164,115039,2,0,P|203:114|207:79,1,76.4999976654053,2|0,0:0|1:2,0:0:0:0:
308,6,115376,1,0,1:2:0:0:
394,120,115544,2,0,L|375:208,1,76.4999976654053,8|2,0:0|1:2,0:0:0:0:
236,267,115881,6,0,B|156:269|189:217|79:226,1,152.999995330811,2|8,1:2|0:0,0:0:0:0:
26,370,116387,2,0,P|76:344|95:308,1,76.4999976654053,2|0,0:0|1:2,0:0:0:0:
0,198,116724,2,0,L|14:290,1,76.4999976654053,2|8,1:2|0:0,0:0:0:0:
73,106,117061,1,2,0:0:0:0:
166,243,117230,6,0,P|213:234|261:138,1,152.999995330811,0|8,1:2|0:0,0:0:0:0:
161,43,117735,2,0,L|177:126,1,76.4999976654053,0|0,0:0|1:2,0:0:0:0:
250,245,118072,1,2,1:2:0:0:
336,130,118241,2,0,L|262:148,1,76.4999976654053,10|2,0:0|0:0,0:0:0:0:
420,211,118578,6,0,B|463:173|463:173|442:58,1,152.999995330811,2|8,1:2|0:0,0:0:0:0:
327,229,119084,1,2,0:0:0:0:
401,350,119252,2,0,P|455:357|487:337,1,76.4999976654053,2|0,1:2|1:2,0:0:0:0:
320,207,119589,1,8,0:0:0:0:
254,384,119758,1,2,0:0:0:0:
191,193,119926,6,0,L|204:105,1,76.4999976654053,2|0,1:2|1:2,0:0:0:0:
53,287,120263,2,0,L|64:362,1,76.4999976654053,8|0,0:0|0:0,0:0:0:0:
229,283,120601,1,10,0:0:0:0:
229,283,120685,1,8,0:0:0:0:
229,283,120769,2,0,L|282:273,2,38.2499988327027,8|8|10,0:0|0:0|0:0,0:0:0:0:
40,154,121106,5,8,0:0:0:0:
40,154,121190,1,8,0:0:0:0:
40,154,121275,1,6,1:2:0:0:
167,72,121443,1,2,1:2:0:0:
53,0,121612,1,10,0:0:0:0:
53,0,121949,5,2,1:2:0:0:
132,168,122117,1,0,1:2:0:0:
247,10,122286,1,10,0:0:0:0:
247,10,122623,5,2,1:2:0:0:
380,152,122792,1,0,1:2:0:0:
241,128,122960,1,10,0:0:0:0:
241,128,123297,5,2,1:2:0:0:
416,67,123466,1,0,1:2:0:0:
364,243,123634,1,8,0:0:0:0:
364,243,123971,5,2,1:2:0:0:
506,315,124140,1,0,1:2:0:0:
427,157,124308,1,10,0:0:0:0:
427,157,124646,5,2,1:2:0:0:
280,300,124814,1,0,1:2:0:0:
437,270,124983,1,10,0:0:0:0:
437,270,125320,5,2,1:2:0:0:
276,164,125488,1,0,1:2:0:0:
351,355,125657,1,10,0:0:0:0:
351,355,125994,5,2,1:2:0:0:
396,122,126162,1,12,0:0:0:0:
182,244,126331,1,12,0:0:0:0:
182,244,126668,5,2,1:2:0:0:
352,214,126837,1,2,1:2:0:0:
213,60,127005,1,10,0:0:0:0:
213,60,127342,5,2,1:2:0:0:
267,230,127511,1,0,1:2:0:0:
364,36,127679,1,10,0:0:0:0:
364,36,128016,5,2,1:2:0:0:
477,209,128185,1,0,1:2:0:0:
294,136,128353,1,10,0:0:0:0:
126,342,128690,5,10,0:0:0:0:
126,342,128775,1,8,0:0:0:0:
126,342,128859,2,0,L|180:325,2,38.2499988327027,8|8|10,0:0|0:0|0:0,0:0:0:0:
0,197,129196,5,8,0:0:0:0:
0,197,129280,1,8,0:0:0:0:
0,197,129365,2,0,B|61:205|61:205|93:232|93:232|175:237,1,170,6|8,1:2|0:0,0:0:0:0:
295,128,129870,1,2,0:0:0:0:
167,38,130039,2,0,P|134:105|137:138,1,85,2|0,1:2|1:2,0:0:0:0:
246,277,130376,2,0,L|236:186,1,85,10|0,0:0|0:0,0:0:0:0:
349,34,130713,6,0,B|403:70|403:70|378:198,1,170,2|8,1:2|0:0,0:0:0:0:
336,363,131219,1,2,0:0:0:0:
217,202,131387,2,0,L|299:222,1,85,2|0,1:2|1:2,0:0:0:0:
162,362,131724,2,0,P|98:358|54:310,1,127.5,8|0,0:0|0:0,0:0:0:0:
61,287,132061,6,0,L|78:194,1,85,2|0,1:2|0:0,0:0:0:0:
167,46,132398,2,0,L|182:129,1,85,10|0,0:0|0:0,0:0:0:0:
70,16,132735,1,2,1:2:0:0:
274,64,132904,1,0,1:2:0:0:
91,196,133072,2,0,P|49:211|-3:206,1,85,10|0,0:0|0:0,0:0:0:0:
277,170,133410,6,0,B|381:163|347:221|444:209,1,170,2|8,1:2|0:0,0:0:0:0:
327,77,133915,1,0,0:0:0:0:
361,297,134084,1,0,1:2:0:0:
422,108,134252,1,2,1:2:0:0:
255,302,134421,2,0,L|164:284,1,85,10|2,0:0|1:2,0:0:0:0:
47,112,134758,5,2,0:0:0:0:
223,196,134926,1,2,1:2:0:0:
19,268,135095,1,8,0:0:0:0:
189,111,135263,1,2,0:0:0:0:
103,340,135432,1,0,1:2:0:0:
26,89,135601,1,0,1:2:0:0:
26,89,135685,1,8,0:0:0:0:
26,89,135769,1,8,0:0:0:0:
218,298,135938,5,8,0:0:0:0:
218,298,136022,1,8,0:0:0:0:
218,298,136106,2,0,L|336:320,1,93.5000028533936,6|0,1:2|1:2,0:0:0:0:
404,111,136443,2,0,L|286:133,1,93.5000028533936,10|0,0:0|1:2,0:0:0:0:
210,319,136780,2,0,L|328:341,1,93.5000028533936,10|0,0:0|1:2,0:0:0:0:
151,142,137117,1,10,0:0:0:0:
77,351,137286,1,2,1:2:0:0:
270,212,137454,5,8,0:0:0:0:
36,210,137623,2,0,P|18:154|26:109,1,93.5000028533936,2|8,0:0|0:0,0:0:0:0:
213,52,137960,1,2,1:2:0:0:
149,250,138129,1,10,0:0:0:0:
104,16,138297,1,2,1:2:0:0:
257,228,138466,1,8,0:0:0:0:
293,0,138634,1,2,1:2:0:0:
159,270,138803,6,0,P|104:324|-8:291,1,187.000005706787,14|8,0:0|0:0,0:0:0:0:
178,127,139308,1,2,0:0:0:0:
241,342,139477,1,10,0:0:0:0:
66,211,139646,1,0,1:2:0:0:
296,212,139814,1,8,0:0:0:0:
113,342,139983,1,0,1:2:0:0:
189,99,140151,6,0,L|208:197,1,93.5000028533936,8|0,0:0|0:0,0:0:0:0:
366,339,140488,2,0,L|383:247,1,93.5000028533936,8|0,0:0|1:2,0:0:0:0:
350,64,140825,1,10,0:0:0:0:
492,211,140994,1,0,1:2:0:0:
435,1,141162,1,10,0:0:0:0:
380,220,141331,1,2,1:2:0:0:
264,16,141499,6,0,B|197:9|197:9|154:36|154:36|71:27,1,187.000005706787,14|8,0:0|0:0,0:0:0:0:
0,225,142005,1,2,0:0:0:0:
234,201,142174,2,0,P|230:151|198:102,1,93.5000028533936,10|0,0:0|1:2,0:0:0:0:
81,290,142511,2,0,L|187:310,1,93.5000028533936,8|2,0:0|1:2,0:0:0:0:
380,176,142848,6,0,B|333:218|333:218|362:347,1,187.000005706787,10|8,0:0|0:0,0:0:0:0:
490,211,143353,1,2,1:2:0:0:
374,48,143522,2,0,L|282:34,1,93.5000028533936,10|0,0:0|1:2,0:0:0:0:
183,192,143859,2,0,P|249:166|267:124,1,93.5000028533936,10|0,0:0|1:2,0:0:0:0:
80,83,144196,5,14,0:0:0:0:
196,295,144365,1,2,1:2:0:0:
257,41,144533,1,10,0:0:0:0:
257,41,144870,5,10,0:0:0:0:
352,290,145039,1,2,1:2:0:0:
178,124,145207,1,10,0:0:0:0:
178,124,145544,5,10,0:0:0:0:
132,372,145713,1,0,1:2:0:0:
290,224,145881,5,10,0:3:0:0:
290,224,145966,1,8,0:3:0:0:
290,224,146050,2,0,L|217:212,1,46.7500014266968,4|4,0:3|0:3,0:0:0:0:
22,158,146219,1,10,0:3:0:0:
22,158,146304,1,8,0:3:0:0:
22,158,146388,2,0,L|95:146,1,46.7500014266968,4|4,0:3|0:3,0:0:0:0:
192,34,146556,1,14,0:0:0:0:
192,34,146893,6,0,L|178:127,1,93.5000028533936,6|0,1:2|1:2,0:0:0:0:
363,262,147230,2,0,L|349:169,1,93.5000028533936,10|0,0:0|1:2,0:0:0:0:
135,246,147567,2,0,P|203:264|240:251,1,93.5000028533936,10|0,0:0|1:2,0:0:0:0:
402,67,147904,1,10,0:0:0:0:
359,289,148072,1,2,1:2:0:0:
254,85,148241,5,8,0:0:0:0:
461,219,148410,2,0,L|478:327,1,93.5000028533936,2|8,0:0|0:0,0:0:0:0:
261,352,148747,1,0,1:2:0:0:
361,150,148915,1,10,0:0:0:0:
410,362,149084,1,2,1:2:0:0:
269,124,149252,1,10,0:0:0:0:
335,384,149421,1,2,1:2:0:0:
422,61,149589,6,0,B|322:84|355:16|238:33,1,187.000005706787,14|8,0:0|0:0,0:0:0:0:
121,216,150095,1,2,0:0:0:0:
325,150,150263,1,10,0:0:0:0:
123,55,150432,1,0,1:2:0:0:
289,252,150601,1,8,0:0:0:0:
60,137,150769,1,0,1:2:0:0:
254,20,150938,6,0,L|233:125,1,93.5000028533936,8|0,0:0|0:0,0:0:0:0:
125,315,151275,2,0,L|106:223,1,93.5000028533936,8|0,0:0|1:2,0:0:0:0:
24,27,151612,1,10,0:0:0:0:
196,187,151780,1,0,1:2:0:0:
2,134,151949,1,10,0:0:0:0:
229,19,152117,1,2,1:2:0:0:
218,289,152286,6,0,P|269:328|387:278,1,187.000005706787,14|8,0:0|0:0,0:0:0:0:
471,145,152792,1,2,0:0:0:0:
279,95,152960,2,0,L|298:195,1,93.5000028533936,10|0,0:0|1:2,0:0:0:0:
475,39,153297,2,0,L|456:139,1,93.5000028533936,8|0,0:0|1:2,0:0:0:0:
389,367,153634,6,0,B|322:355|322:355|279:373|279:373|201:362,1,187.000005706787,10|8,0:0|0:0,0:0:0:0:
39,230,154140,1,2,1:2:0:0:
258,181,154308,2,0,P|239:241|201:270,1,93.5000028533936,10|0,0:0|1:2,0:0:0:0:
81,82,154646,2,0,L|189:61,1,93.5000028533936,8|2,0:0|1:2,0:0:0:0:
404,155,154983,6,0,P|334:122|348:3,1,187.000005706787,14|10,0:0|0:0,0:0:0:0:
512,120,155488,2,0,L|496:223,1,93.5000028533936,2|8,0:0|0:0,0:0:0:0:
311,273,155825,1,2,1:2:0:0:
414,59,155994,1,8,0:0:0:0:
474,304,156162,1,2,0:0:0:0:
304,122,156331,5,0,1:2:0:0:
304,122,156415,1,0,1:0:0:0:
304,122,156499,2,0,L|241:136,2,46.7500014266968,0|0|10,1:2|1:2|0:0,0:0:0:0:
216,325,156837,2,0,L|170:314,2,46.7500014266968,0|0|10,1:2|1:2|0:0,0:0:0:0:
126,119,157174,2,0,L|80:129,2,46.7500014266968,0|0|10,1:2|1:2|0:0,0:0:0:0:
0,226,157511,5,8,0:0:0:0:
0,226,157595,1,8,0:0:0:0:
0,226,157679,2,0,B|63:235|63:235|113:214|113:214|192:226,1,187.000005706787,6|10,1:2|0:0,0:0:0:0:
321,144,158185,2,0,L|297:237,1,93.5000028533936,2|0,0:0|1:2,0:0:0:0:
248,52,158522,2,0,P|295:31|353:36,1,93.5000028533936,2|8,1:2|0:0,0:0:0:0:
394,204,158859,1,2,0:0:0:0:
213,141,159028,5,2,1:2:0:0:
405,71,159196,1,2,0:0:0:0:
297,237,159365,2,0,L|310:338,1,93.5000028533936,10|0,0:0|1:2,0:0:0:0:
486,236,159702,2,0,L|497:143,1,93.5000028533936,2|0,0:0|1:2,0:0:0:0:
406,297,160039,2,0,P|456:334|502:334,1,93.5000028533936,10|0,0:0|0:0,0:0:0:0:
373,171,160376,6,0,L|177:215,1,187.000005706787,2|10,1:2|0:0,0:0:0:0:
103,77,160881,2,0,P|161:92|188:126,1,93.5000028533936,2|0,0:0|1:2,0:0:0:0:
91,271,161219,2,0,L|100:158,1,93.5000028533936,2|8,1:2|0:0,0:0:0:0:
181,335,161556,1,2,0:0:0:0:
0,250,161724,5,2,1:2:0:0:
190,211,161893,1,2,0:0:0:0:
89,373,162061,2,0,P|24:386|-13:370,1,93.5000028533936,10|0,0:0|1:2,0:0:0:0:
185,237,162398,2,0,L|283:257,1,93.5000028533936,2|0,0:0|1:2,0:0:0:0:
91,106,162735,2,0,L|-7:126,1,93.5000028533936,10|0,0:0|0:0,0:0:0:0:
215,11,163072,6,0,B|258:59|258:59|385:27,1,187.000005706787,2|10,1:2|0:0,0:0:0:0:
506,152,163578,2,0,L|411:126,1,93.5000028533936,2|0,0:0|1:2,0:0:0:0:
269,276,163915,2,0,L|364:250,1,93.5000028533936,2|8,1:2|0:0,0:0:0:0:
186,159,164252,1,2,0:0:0:0:
316,378,164421,5,8,0:0:0:0:
415,127,164589,1,8,0:0:0:0:
38,265,165263,5,0,1:2:0:0:
38,265,165348,1,0,1:2:0:0:
38,265,165432,2,0,L|137:286,1,85,10|0,0:0|1:2,0:0:0:0:
271,90,165769,6,0,P|199:84|142:182,1,170,6|8,1:2|0:0,0:0:0:0:
259,264,166274,2,0,L|234:166,1,85,0|0,0:0|1:2,0:0:0:0:
184,353,166612,1,0,1:2:0:0:
353,249,166780,1,8,0:0:0:0:
158,249,166949,1,0,0:0:0:0:
333,364,167117,6,0,B|399:354|399:354|425:329|425:329|506:316,1,170,0|10,1:2|0:0,0:0:0:0:
334,220,167623,1,0,1:2:0:0:
465,124,167792,2,0,L|450:228,1,85,2|0,0:0|1:2,0:0:0:0:
350,30,168129,2,0,L|365:134,1,85,10|0,0:0|0:0,0:0:0:0:
260,282,168466,6,0,P|193:291|127:198,1,170,2|8,1:2|0:0,0:0:0:0:
209,60,168971,1,2,0:0:0:0:
295,172,169140,2,0,L|201:151,1,85,2|0,1:2|1:2,0:0:0:0:
31,83,169477,2,0,L|125:62,1,85,8|2,0:0|0:0,0:0:0:0:
296,8,169814,6,0,B|403:-2|369:57|482:32,1,170,2|8,1:2|0:0,0:0:0:0:
509,195,170320,1,2,1:2:0:0:
351,209,170488,2,0,L|372:109,1,85,2|0,0:0|1:2,0:0:0:0:
450,292,170825,1,8,0:0:0:0:
301,331,170994,5,0,3:0:0:0:
301,331,171078,1,0,3:0:0:0:
301,331,171162,2,0,B|205:285|205:285|141:322,1,170,4|8,1:2|0:0,0:0:0:0:
29,187,171668,2,0,L|48:288,1,85,0|0,0:0|1:2,0:0:0:0:
192,137,172005,1,0,1:2:0:0:
11,60,172174,1,8,0:0:0:0:
121,210,172342,1,0,0:0:0:0:
161,23,172511,6,0,L|352:-4,1,170,0|10,1:2|0:0,0:0:0:0:
454,90,173016,1,0,1:2:0:0:
315,182,173185,2,0,P|325:128|356:96,1,85,2|0,0:0|1:2,0:0:0:0:
500,204,173522,2,0,L|407:177,1,85,10|0,0:0|0:0,0:0:0:0:
237,321,173859,6,0,P|286:343|372:272,1,170,2|8,1:2|0:0,0:0:0:0:
191,173,174365,1,2,0:0:0:0:
135,338,174533,2,0,P|89:367|49:365,1,85,2|0,1:2|1:2,0:0:0:0:
47,177,174870,2,0,L|76:271,1,85,8|2,0:0|0:0,0:0:0:0:
187,63,175207,6,0,B|139:101|139:101|24:69,1,170,2|8,1:2|0:0,0:0:0:0:
180,196,175713,1,2,1:2:0:0:
118,5,175881,1,2,1:2:0:0:
72,223,176050,1,0,1:2:0:0:
203,48,176219,2,0,L|301:74,1,85,8|0,0:0|0:0,0:0:0:0:
435,117,176556,5,10,0:0:0:0:
435,117,177398,5,10,0:0:0:0:
294,266,177567,1,10,0:0:0:0:
495,257,177735,6,0,L|399:239,1,85,6|2,1:2|0:0,0:0:0:0:
297,375,178072,2,0,L|393:357,1,85,4|0,1:2|0:0,0:0:0:0:
239,173,178410,1,10,0:0:0:0:
171,361,178578,1,2,1:2:0:0:
324,250,178747,1,10,0:0:0:0:
135,171,178915,2,0,L|148:259,1,85,10|2,0:3|0:0,0:0:0:0:
210,72,179252,5,10,0:0:0:0:
39,192,179421,1,2,1:2:0:0:
239,195,179589,1,2,1:2:0:0:
87,67,179758,1,10,0:0:0:0:
135,290,179926,2,0,P|207:303|241:288,1,85,2|0,1:2|1:2,0:0:0:0:
312,113,180263,1,10,0:0:0:0:
117,178,180432,1,2,1:2:0:0:
349,261,180601,5,2,1:2:0:0:
202,86,180769,1,10,0:2:0:0:
216,300,180938,2,0,L|226:216,1,85,2|2,1:2|1:2,0:0:0:0:
247,0,181275,1,14,0:0:0:0:
91,215,181443,1,2,1:2:0:0:
340,173,181612,1,14,0:0:0:0:
121,3,181780,1,0,0:0:0:0:
252,138,181949,6,0,B|318:123|318:123|347:100|347:100|423:82,2,170,6|10|2,1:2|0:0|1:2,0:0:0:0:
74,234,182792,1,0,1:2:0:0:
136,47,182960,2,0,L|150:140,1,85,10|0,0:0|0:0,0:0:0:0:
198,285,183297,6,0,P|247:336|335:311,2,170,2|10|2,1:2|0:0|1:2,0:0:0:0:
235,107,184140,1,0,1:2:0:0:
107,281,184308,2,0,L|98:377,1,85,8|2,0:0|0:0,0:0:0:0:
281,231,184646,5,14,0:0:0:0:
89,103,184814,1,0,1:2:0:0:
341,71,184983,1,12,0:0:0:0:
118,236,185151,1,2,1:2:0:0:
227,24,185320,5,14,0:0:0:0:
294,278,185488,1,0,1:2:0:0:
142,113,185657,1,12,0:0:0:0:
191,346,185825,1,2,0:0:0:0:
296,118,185994,6,0,L|396:132,1,85,4|2,1:2|1:2,0:0:0:0:
217,244,186331,1,10,0:3:0:0:
217,244,186415,1,0,1:2:0:0:
217,244,186499,2,0,L|206:196,1,42.5,2|0,1:2|1:2,0:0:0:0:
149,35,186668,1,8,0:3:0:0:
149,35,186752,1,0,1:2:0:0:
149,35,186836,2,0,L|138:83,1,42.5,10|8,0:3|0:3,0:0:0:0:
48,279,187005,1,10,0:3:0:0:
48,279,187089,1,0,1:2:0:0:
48,279,187173,2,0,L|37:231,1,42.5,10|8,0:3|0:3,0:0:0:0:
0,132,187342,6,0,L|96:153,1,93.5000028533936,6|2,1:2|0:0,0:0:0:0:
271,0,187679,2,0,L|175:21,1,93.5000028533936,10|0,0:0|0:0,0:0:0:0:
166,245,188016,1,8,0:0:0:0:
331,100,188185,1,0,1:2:0:0:
113,126,188353,1,8,0:0:0:0:
279,245,188522,6,0,P|345:252|377:239,1,93.5000028533936,0|8,1:2|0:0,0:0:0:0:
354,9,188859,2,0,L|330:103,1,93.5000028533936,2|8,0:0|0:0,0:0:0:0:
502,282,189196,1,2,1:2:0:0:
453,62,189365,1,8,0:0:0:0:
343,325,189533,1,0,1:2:0:0:
356,103,189702,1,10,0:0:0:0:
441,368,189870,1,2,1:2:0:0:
272,188,190039,6,0,B|204:177|204:177|161:201|161:201|81:193,1,187.000005706787,14|8,0:0|0:0,0:0:0:0:
229,317,190544,1,2,0:0:0:0:
175,80,190713,1,8,0:0:0:0:
65,293,190881,1,0,1:2:0:0:
259,198,191050,1,8,0:0:0:0:
44,117,191219,1,0,1:2:0:0:
222,347,191387,6,0,L|331:322,1,93.5000028533936,8|2,0:0|0:0,0:0:0:0:
480,180,191724,1,8,0:0:0:0:
280,106,191893,1,0,1:2:0:0:
407,317,192061,1,10,0:0:0:0:
443,52,192230,1,2,1:2:0:0:
235,213,192398,2,0,L|335:198,1,93.5000028533936,10|2,0:2|1:2,0:2:0:0:
496,204,192735,5,14,0:0:0:0:
263,61,192904,1,2,0:0:0:0:
345,302,193072,2,0,L|367:211,1,93.5000028533936,10|0,0:0|0:0,0:0:0:0:
248,37,193410,1,10,0:0:0:0:
158,230,193578,2,0,L|260:212,1,93.5000028533936,2|8,1:2|0:0,0:0:0:0:
56,131,193915,5,2,1:2:0:0:
56,131,193999,1,0,1:0:0:0:
56,131,194084,1,10,0:0:0:0:
137,345,194252,1,2,0:0:0:0:
198,120,194421,2,0,P|203:56|185:13,1,93.5000028533936,10|2,0:0|1:2,0:0:0:0:
40,250,194758,1,10,0:0:0:0:
274,212,194926,1,0,1:2:0:0:
51,116,195095,1,8,0:0:0:0:
221,301,195263,1,0,1:2:0:0:
292,58,195432,5,14,0:0:0:0:
137,257,195601,1,0,1:2:0:0:
152,3,195769,1,8,0:0:0:0:
152,3,196106,5,10,0:0:0:0:
249,290,196275,1,0,1:2:0:0:
381,10,196443,1,10,0:0:0:0:
381,10,196780,5,10,0:0:0:0:
178,143,196949,1,2,1:2:0:0:
434,160,197117,1,10,0:3:0:0:
247,22,197286,1,0,1:2:0:0:
319,262,197454,1,10,0:3:0:0:
487,77,197623,1,8,0:3:0:0:
487,77,197707,1,8,0:3:0:0:
487,77,197792,2,0,L|468:235,1,140.25000428009,14|0,0:0|0:0,0:0:0:0:
453,244,198129,6,0,L|466:348,1,93.5000028533936,6|2,1:2|0:0,0:0:0:0:
357,172,198466,1,10,0:0:0:0:
293,371,198634,1,2,0:0:0:0:
270,131,198803,1,10,0:0:0:0:
367,319,198971,1,2,1:2:0:0:
351,74,199140,1,8,0:0:0:0:
223,312,199308,1,2,1:2:0:0:
213,52,199477,6,0,P|171:35|117:37,1,93.5000028533936,10|2,0:0|0:0,0:0:0:0:
3,227,199814,1,10,0:0:0:0:
254,142,199983,1,2,1:2:0:0:
0,106,200151,1,10,0:0:0:0:
213,275,200320,1,2,1:2:0:0:
123,35,200488,1,10,0:0:0:0:
87,329,200657,1,2,1:2:0:0:
248,126,200825,6,0,B|325:117|325:117|357:136|357:136|456:119,1,187.000005706787,14|8,0:0|0:0,0:0:0:0:
293,332,201331,1,2,1:2:0:0:
293,332,201415,1,2,1:2:0:0:
293,332,201499,2,0,L|305:217,1,93.5000028533936,10|0,0:0|1:2,0:0:0:0:
374,23,201837,1,8,0:0:0:0:
416,250,202005,1,0,1:2:0:0:
235,112,202174,5,10,0:0:0:0:
475,58,202342,1,0,0:0:0:0:
211,123,202511,1,10,0:0:0:0:
493,200,202679,2,0,P|506:250|494:300,1,93.5000028533936,2|10,1:2|0:0,0:0:0:0:
276,228,203017,1,2,1:2:0:0:
384,67,203185,2,0,L|486:76,1,93.5000028533936,8|0,0:0|1:2,0:0:0:0:
262,255,203522,5,14,0:0:0:0:
220,15,203690,1,2,0:0:0:0:
398,177,203859,1,10,0:0:0:0:
170,198,204028,2,0,B|66:203|128:126|-24:143,1,187.000005706787,2|2,0:0|1:2,0:0:0:0:
254,109,204533,1,10,0:0:0:0:
131,309,204702,1,2,1:2:0:0:
164,68,204870,5,10,0:0:0:0:
254,336,205039,1,2,0:0:0:0:
356,58,205207,1,8,0:0:0:0:
195,261,205376,1,2,1:2:0:0:
267,12,205544,1,10,0:0:0:0:
331,254,205713,1,2,1:2:0:0:
183,77,205881,1,10,0:0:0:0:
266,346,206050,1,2,1:2:0:0:
373,59,206219,6,0,L|483:75,1,93.5000028533936,14|0,0:0|0:0,0:0:0:0:
315,267,206556,1,8,0:0:0:0:
205,61,206724,1,2,0:0:0:0:
413,171,206893,1,8,0:0:0:0:
151,245,207061,1,0,1:2:0:0:
321,15,207230,2,0,P|340:68|325:123,1,93.5000028533936,8|2,0:0|1:2,0:0:0:0:
104,338,207567,5,8,0:0:0:0:
433,280,207735,1,8,0:0:0:0:
77,259,207904,5,8,0:0:0:0:
427,189,208072,1,8,0:0:0:0:
48,176,208241,5,8,0:0:0:0:
425,96,208410,1,8,0:0:0:0:
20,96,208578,5,8,0:0:0:0:
423,6,208747,1,8,0:0:0:0:
41,353,213634,6,0,L|105:339,1,46.7500014266968,10|0,0:0|1:2,0:0:0:0:
131,270,213803,2,0,L|176:279,1,46.7500014266968,0|0,1:2|1:2,0:0:0:0:
270,306,213971,1,8,0:0:0:0:
270,306,214308,6,0,L|284:219,1,68,6|2,1:2|0:0,0:0:0:0:
184,118,214646,2,0,L|194:185,1,68,2|2,1:2|0:0,0:0:0:0:
259,46,214983,2,0,P|221:19|125:33,1,136,10|0,0:0|1:2,0:0:0:0:
285,136,215488,6,0,L|356:120,1,68,2|2,1:2|0:0,0:0:0:0:
475,48,215825,1,10,0:0:0:0:
475,48,215994,2,0,L|402:32,1,68,2|0,1:2|1:2,0:0:0:0:
408,207,216331,2,0,P|439:174|448:139,1,68,10|0,0:0|1:2,0:0:0:0:
283,138,216668,1,2,1:2:0:0:
283,138,217005,6,0,L|309:303,1,152.999995330811,6|8,1:2|0:0,0:0:0:0:
136,368,217511,1,2,0:0:0:0:
190,191,217679,2,0,L|209:288,1,76.4999976654053,2|0,1:2|1:2,0:0:0:0:
45,185,218016,2,0,P|76:156|122:147,1,76.4999976654053,10|0,0:0|0:0,0:0:0:0:
246,71,218353,6,0,P|199:76|130:-2,1,152.999995330811,2|8,1:2|0:0,0:0:0:0:
331,3,218859,1,2,0:0:0:0:
324,182,219028,2,0,L|242:161,1,76.4999976654053,2|0,1:2|1:2,0:0:0:0:
402,95,219365,2,0,L|484:74,1,76.4999976654053,8|0,0:0|0:0,0:0:0:0:
481,258,219702,6,0,P|455:219|416:206,1,76.4999976654053,2|0,1:2|0:0,0:0:0:0:
318,323,220039,2,0,P|364:319|395:292,1,76.4999976654053,10|2,0:0|0:0,0:0:0:0:
210,231,220376,1,2,1:2:0:0:
248,382,220544,1,0,1:2:0:0:
328,215,220713,2,0,L|344:133,1,76.4999976654053,10|0,0:0|0:0,0:0:0:0:
225,27,221050,6,0,B|132:64|132:64|70:37,1,152.999995330811,2|8,1:2|0:0,0:0:0:0:
208,141,221556,2,0,P|224:187|221:228,1,76.4999976654053,2|0,0:0|1:2,0:0:0:0:
98,360,221893,1,2,1:2:0:0:
51,178,222061,2,0,L|142:196,1,76.4999976654053,10|0,0:0|0:0,0:0:0:0:
311,236,222398,5,8,0:0:0:0:
112,277,222567,1,0,1:2:0:0:
344,323,222735,1,0,1:2:0:0:
189,132,222904,5,8,0:0:0:0:
256,363,223072,1,0,1:2:0:0:
267,83,223241,1,0,1:2:0:0:
182,321,223410,1,8,0:0:0:0:
146,58,223578,2,0,L|66:42,1,76.4999976654053,2|0,0:0|1:2,0:0:0:0:
176,294,223915,5,8,0:0:0:0:
356,84,224084,1,8,0:0:0:0:
99,182,224252,1,8,0:0:0:0:
414,226,224421,5,8,0:0:0:0:
152,44,224589,1,8,0:0:0:0:
455,108,224758,1,8,0:0:0:0:
148,314,224926,1,8,0:0:0:0:
255,15,225769,5,8,0:0:0:0:
255,15,225853,1,8,0:0:0:0:
255,15,225938,2,0,L|267:78,1,46.7500014266968,8|8,0:0|0:0,0:0:0:0:
337,166,226106,2,0,L|344:118,1,46.7500014266968,8|8,0:0|0:0,0:0:0:0:
235,205,226275,2,0,L|241:251,1,46.7500014266968,0|0,1:2|1:2,0:0:0:0:
327,357,226443,6,0,P|344:299|334:257,1,93.5000028533936,6|0,1:2|1:2,0:0:0:0:
145,149,226780,2,0,P|128:207|138:249,1,93.5000028533936,10|0,0:0|1:2,0:0:0:0:
344,360,227117,2,0,P|361:302|351:260,1,93.5000028533936,10|0,0:0|1:2,0:0:0:0:
150,129,227454,1,10,0:0:0:0:
230,369,227623,1,2,1:2:0:0:
330,139,227792,5,10,0:0:0:0:
136,272,227960,2,0,L|24:247,1,93.5000028533936,2|8,0:0|0:0,0:0:0:0:
159,40,228297,1,2,1:2:0:0:
243,255,228466,1,10,0:0:0:0:
256,10,228634,1,2,1:2:0:0:
146,247,228803,1,10,0:0:0:0:
80,2,228971,1,2,1:2:0:0:
287,167,229140,6,0,B|364:157|364:157|389:133|389:133|492:117,1,187.000005706787,14|8,0:0|0:0,0:0:0:0:
299,264,229646,1,2,0:0:0:0:
375,34,229814,1,10,0:0:0:0:
400,289,229983,1,0,1:2:0:0:
280,68,230151,1,8,0:0:0:0:
473,210,230320,1,0,1:2:0:0:
214,140,230488,6,0,L|197:247,1,93.5000028533936,8|0,0:0|0:0,0:0:0:0:
392,378,230825,2,0,L|377:285,1,93.5000028533936,8|0,0:0|1:2,0:0:0:0:
294,76,231162,1,10,0:0:0:0:
226,331,231331,1,2,1:2:0:0:
380,134,231499,1,10,0:0:0:0:
310,384,231668,1,2,1:2:0:0:
210,137,231837,6,0,B|113:102|127:183|20:139,1,187.000005706787,14|8,0:0|0:0,0:0:0:0:
187,253,232342,1,2,0:0:0:0:
131,36,232511,2,0,L|32:13,1,93.5000028533936,10|0,0:0|1:2,0:0:0:0:
238,153,232848,2,0,L|337:130,1,93.5000028533936,8|0,0:0|1:2,0:0:0:0:
150,350,233185,6,0,P|88:349|49:224,1,187.000005706787,10|8,0:0|0:0,0:0:0:0:
225,137,233690,1,2,1:2:0:0:
262,337,233859,2,0,P|316:369|376:355,1,93.5000028533936,10|0,0:0|1:2,0:0:0:0:
361,158,234196,2,0,L|333:264,1,93.5000028533936,10|0,0:0|1:2,0:0:0:0:
505,107,234533,5,14,0:0:0:0:
431,317,234702,1,2,1:2:0:0:
309,58,234870,1,10,0:0:0:0:
309,58,235207,5,10,0:0:0:0:
270,299,235376,1,2,1:2:0:0:
405,112,235545,1,10,0:0:0:0:
405,112,235881,5,10,0:0:0:0:
172,153,236050,1,0,1:2:0:0:
351,239,236219,5,10,0:3:0:0:
351,239,236303,1,8,0:3:0:0:
351,239,236387,2,0,L|335:179,1,46.7500014266968,4|4,0:3|0:3,0:0:0:0:
285,26,236556,1,10,0:3:0:0:
285,26,236640,1,8,0:3:0:0:
285,26,236724,2,0,L|269:86,1,46.7500014266968,4|4,0:3|0:3,0:0:0:0:
196,241,236893,1,14,0:0:0:0:
196,241,237230,6,0,L|76:209,1,93.5000028533936,6|2,1:2|1:2,0:0:0:0:
300,366,237567,2,0,L|420:334,1,93.5000028533936,10|0,0:0|1:2,0:0:0:0:
331,153,237904,2,0,P|308:221|323:262,1,93.5000028533936,10|0,0:0|1:2,0:0:0:0:
485,144,238241,1,10,0:0:0:0:
270,46,238410,1,2,1:2:0:0:
407,252,238578,5,8,0:0:0:0:
491,34,238747,2,0,L|378:10,1,93.5000028533936,2|8,0:0|0:0,0:0:0:0:
203,154,239084,1,2,1:2:0:0:
440,126,239252,1,10,0:0:0:0:
217,49,239421,1,2,1:2:0:0:
389,222,239589,1,10,0:0:0:0:
323,0,239758,1,2,1:2:0:0:
239,260,239926,6,0,B|121:298|121:298|45:243,1,187.000005706787,14|8,0:0|0:0,0:0:0:0:
132,29,240432,1,2,0:0:0:0:
282,172,240601,1,10,0:0:0:0:
63,149,240769,1,0,1:2:0:0:
264,35,240938,1,8,0:0:0:0:
162,233,241106,1,0,1:2:0:0:
354,102,241275,6,0,P|413:83|466:91,1,93.5000028533936,8|0,0:0|0:0,0:0:0:0:
332,328,241612,2,0,P|285:327|242:310,1,93.5000028533936,8|0,0:0|1:2,0:0:0:0:
79,141,241949,1,10,0:0:0:0:
136,361,242117,1,2,1:2:0:0:
238,113,242286,1,10,0:0:0:0:
63,292,242454,1,2,1:2:0:0:
0,70,242623,6,0,P|37:40|164:108,1,187.000005706787,14|8,0:0|0:0,0:0:0:0:
224,291,243129,1,2,1:2:0:0:
350,95,243297,2,0,L|243:118,1,93.5000028533936,10|0,0:0|1:2,0:0:0:0:
47,196,243634,2,0,L|154:219,1,93.5000028533936,8|0,0:0|1:2,0:0:0:0:
313,384,243971,6,0,B|354:334|354:334|326:202,1,187.000005706787,10|8,0:0|0:0,0:0:0:0:
264,10,244477,1,2,1:2:0:0:
158,228,244646,2,0,P|211:262|270:254,1,93.5000028533936,10|0,0:0|1:2,0:0:0:0:
361,76,244983,2,0,L|257:110,1,93.5000028533936,8|2,0:0|1:2,0:0:0:0:
470,203,245320,6,0,L|494:0,1,187.000005706787,14|10,0:0|0:0,0:0:0:0:
348,199,245825,2,0,P|344:239|376:299,1,93.5000028533936,2|8,0:0|0:0,0:0:0:0:
391,76,246162,1,2,1:2:0:0:
236,250,246331,1,8,0:0:0:0:
470,203,246499,1,2,0:0:0:0:
264,64,246668,5,0,1:2:0:0:
264,64,246752,1,0,1:0:0:0:
264,64,246837,2,0,L|271:123,2,46.7500014266968,0|0|10,1:2|1:2|0:0,0:0:0:0:
147,305,247174,2,0,L|152:258,2,46.7500014266968,0|0|10,1:2|1:2|0:0,0:0:0:0:
48,33,247511,2,0,L|53:79,2,46.7500014266968,2|0|10,1:2|1:2|0:0,0:0:0:0:
181,172,247848,5,8,0:0:0:0:
181,172,247932,1,8,0:0:0:0:
181,172,248016,2,0,B|119:147|119:147|-28:209,1,187.000005706787,6|10,1:2|0:0,0:0:0:0:
164,381,248522,2,0,P|190:324|183:270,1,93.5000028533936,2|0,0:0|1:2,0:0:0:0:
3,293,248859,2,0,L|107:318,1,93.5000028533936,2|8,1:2|0:0,0:0:0:0:
284,194,249196,1,2,0:0:0:0:
86,230,249365,5,2,1:2:0:0:
296,296,249533,1,2,0:0:0:0:
196,93,249702,2,0,L|178:201,1,93.5000028533936,10|0,0:0|1:2,0:0:0:0:
313,17,250039,2,0,L|331:125,1,93.5000028533936,2|0,0:0|1:2,0:0:0:0:
412,244,250376,2,0,P|449:195|505:178,1,93.5000028533936,10|0,0:0|0:0,0:0:0:0:
403,373,250713,6,0,B|333:364|333:364|304:336|304:336|210:320,1,187.000005706787,2|10,1:2|0:0,0:0:0:0:
61,244,251219,2,0,L|174:225,1,93.5000028533936,2|0,0:0|1:2,0:0:0:0:
317,145,251556,2,0,P|280:109|226:101,1,93.5000028533936,2|8,1:2|0:0,0:0:0:0:
52,137,251893,1,2,0:0:0:0:
228,10,252061,5,2,1:2:0:0:
151,222,252230,1,2,0:0:0:0:
116,6,252398,2,0,L|140:103,1,93.5000028533936,10|0,0:0|1:2,0:0:0:0:
270,249,252735,2,0,L|292:158,1,93.5000028533936,2|0,0:0|1:2,0:0:0:0:
77,277,253072,2,0,P|129:312|175:307,1,93.5000028533936,10|0,0:0|0:0,0:0:0:0:
379,252,253410,6,0,P|321:258|270:370,1,187.000005706787,2|10,1:2|0:0,0:0:0:0:
489,292,253915,2,0,L|480:196,1,93.5000028533936,2|0,0:0|1:2,0:0:0:0:
335,75,254252,2,0,L|326:168,1,93.5000028533936,2|8,1:2|0:0,0:0:0:0:
446,28,254589,1,2,0:0:0:0:
198,191,254758,6,0,P|145:192|91:164,1,93.5000028533936,0|0,1:2|0:0,0:0:0:0:
283,0,255095,1,10,0:0:0:0:
335,206,255263,1,0,1:2:0:0:
169,94,255432,2,0,L|278:86,1,93.5000028533936,2|0,0:0|1:2,0:0:0:0:
350,301,255769,2,0,L|241:293,1,93.5000028533936,10|0,0:0|0:0,0:0:0:0:
108,176,256106,6,0,B|159:220|159:220|132:348,1,187.000005706787,2|8,1:2|0:0,0:0:0:0:
11,136,256612,2,0,P|51:91|88:81,1,93.5000028533936,2|0,0:0|1:2,0:0:0:0:
276,223,256949,1,2,1:2:0:0:
108,176,257117,1,8,0:0:0:0:
235,11,257286,6,0,L|195:207,1,187.000005706787,0|0,1:2|1:2,0:0:0:0:
331,342,257792,1,8,0:0:0:0:
417,144,257960,2,0,L|316:157,1,93.5000028533936,2|0,0:0|1:2,0:0:0:0:
455,286,258297,1,0,1:2:0:0:
481,47,258466,2,0,P|434:27|385:35,1,93.5000028533936,10|8,0:0|0:3,0:0:0:0:
374,49,258719,5,8,0:3:0:0:
374,49,258803,2,0,B|275:81|298:3|181:32,1,187.000005706787,6|10,1:2|0:0,0:0:0:0:
206,239,259308,2,0,L|226:139,1,93.5000028533936,2|0,0:0|1:2,0:0:0:0:
79,4,259646,2,0,L|97:95,1,93.5000028533936,2|8,1:2|0:0,0:0:0:0:
145,315,259983,1,2,1:2:0:0:
305,122,260151,5,8,0:0:0:0:
35,182,260320,1,8,0:0:0:0:
253,359,260994,5,0,1:2:0:0:
253,359,261078,1,0,1:2:0:0:
253,359,261162,2,0,P|309:358|346:341,1,85,10|0,0:0|0:0,0:0:0:0:
292,141,261499,6,0,L|274:256,1,93.5000028533936,14|0,0:0|1:2,0:0:0:0:
476,86,261837,2,0,L|494:201,1,93.5000028533936,10|0,0:0|1:2,0:0:0:0:
278,138,262174,2,0,L|260:253,1,93.5000028533936,10|0,0:0|1:2,0:0:0:0:
365,42,262511,1,10,0:0:0:0:
167,164,262679,1,2,1:2:0:0:
382,204,262848,5,10,0:0:0:0:
232,41,263016,2,0,P|178:23|129:30,1,93.5000028533936,2|8,1:2|0:0,0:0:0:0:
46,263,263353,1,2,1:2:0:0:
256,147,263522,1,10,0:0:0:0:
42,84,263690,1,2,1:2:0:0:
266,243,263859,1,10,0:0:0:0:
4,183,264028,1,2,1:2:0:0:
230,53,264196,6,0,L|186:239,1,187.000005706787,14|8,0:0|0:0,0:0:0:0:
366,347,264702,1,2,0:0:0:0:
316,132,264870,1,10,0:0:0:0:
260,375,265039,1,0,1:2:0:0:
407,157,265207,1,8,0:0:0:0:
462,379,265376,1,0,1:2:0:0:
480,84,265544,6,0,P|433:58|380:60,1,93.5000028533936,10|0,0:0|0:0,0:0:0:0:
251,268,265881,2,0,P|297:264|336:240,1,93.5000028533936,8|0,0:0|1:2,0:0:0:0:
128,143,266219,1,10,0:0:0:0:
199,363,266387,1,2,1:2:0:0:
271,120,266556,1,10,0:0:0:0:
107,306,266724,1,2,1:2:0:0:
30,52,266893,6,0,B|102:41|102:41|131:11|131:11|225:1,1,187.000005706787,14|8,0:0|0:0,0:0:0:0:
348,186,267398,1,2,0:0:0:0:
140,125,267567,1,10,0:0:0:0:
363,40,267735,1,0,1:2:0:0:
244,237,267904,2,0,L|227:133,1,93.5000028533936,8|0,0:0|1:2,0:0:0:0:
455,24,268241,6,0,P|490:75|421:177,1,187.000005706787,10|8,0:0|0:0,0:0:0:0:
214,52,268747,1,2,1:2:0:0:
330,236,268915,1,10,0:0:0:0:
333,6,269084,1,0,1:2:0:0:
222,263,269252,2,0,L|114:244,1,93.5000028533936,10|0,0:0|1:2,0:0:0:0:
27,83,269589,5,10,0:0:0:0:
235,160,269758,1,2,1:2:0:0:
40,303,269926,2,0,P|33:246|49:203,1,93.5000028533936,10|0,0:0|0:0,0:0:0:0:
266,71,270263,5,10,0:0:0:0:
153,311,270432,1,2,1:2:0:0:
32,97,270601,2,0,L|137:76,1,93.5000028533936,10|0,0:0|1:2,0:0:0:0:
310,249,270938,5,10,0:0:0:0:
67,189,271106,1,0,1:2:0:0:
348,88,271275,1,10,0:0:0:0:
156,288,271443,1,2,0:0:0:0:
219,46,271612,1,10,0:0:0:0:
219,46,271696,1,8,0:0:0:0:
219,46,271780,2,0,L|206:-8,2,46.7500014266968,8|8|10,0:0|0:0|0:0,0:0:0:0:
314,297,272118,5,8,0:0:0:0:
314,297,272202,1,8,0:0:0:0:
314,297,272286,2,0,L|432:315,1,93.5000028533936,14|0,0:0|1:2,0:0:0:0:
261,120,272623,2,0,L|143:138,1,93.5000028533936,10|0,0:0|1:2,0:0:0:0:
309,326,272960,2,0,L|427:344,1,93.5000028533936,10|0,0:0|1:2,0:0:0:0:
356,119,273297,1,10,0:0:0:0:
206,288,273466,1,2,1:2:0:0:
429,203,273634,5,10,0:0:0:0:
172,137,273803,2,0,P|162:75|185:30,1,93.5000028533936,2|8,0:0|0:0,0:0:0:0:
330,248,274140,1,2,1:2:0:0:
334,4,274308,1,10,0:0:0:0:
188,233,274477,1,2,1:2:0:0:
418,125,274646,1,10,0:0:0:0:
201,35,274814,1,2,1:2:0:0:
326,285,274983,6,0,P|409:338|501:265,1,187.000005706787,14|10,0:0|0:0,0:0:0:0:
319,117,275488,1,2,0:0:0:0:
240,346,275657,1,10,0:0:0:0:
404,175,275825,1,0,1:2:0:0:
340,384,275994,1,8,0:0:0:0:
223,134,276162,1,0,1:2:0:0:
148,366,276331,6,0,L|250:343,1,93.5000028533936,8|0,0:0|0:0,0:0:0:0:
427,201,276668,2,0,L|319:178,1,93.5000028533936,8|0,0:0|1:2,0:0:0:0:
159,46,277005,1,10,0:0:0:0:
262,253,277174,1,2,1:2:0:0:
322,8,277342,1,10,0:0:0:0:
146,209,277511,1,2,1:2:0:0:
398,113,277679,6,0,B|438:162|438:162|403:282,1,187.000005706787,14|8,0:0|0:0,0:0:0:0:
273,96,278185,1,2,0:0:0:0:
512,204,278353,1,8,0:0:0:0:
300,241,278522,1,0,1:2:0:0:
354,32,278690,2,0,P|415:19|456:34,1,93.5000028533936,8|0,0:0|1:2,0:0:0:0:
222,179,279028,6,0,B|160:165|160:165|126:129|126:129|42:111,1,187.000005706787,10|8,0:0|0:0,0:0:0:0:
260,67,279533,1,2,1:2:0:0:
119,263,279702,1,10,0:0:0:0:
157,18,279870,1,0,1:2:0:0:
241,265,280039,2,0,P|249:321|236:357,1,93.5000028533936,8|0,0:0|1:2,0:0:0:0:
14,183,280376,6,0,L|127:166,1,93.5000028533936,14|0,0:0|0:0,0:0:0:0:
308,132,280713,1,8,0:0:0:0:
95,54,280881,1,0,1:2:0:0:
351,52,281050,1,10,0:0:0:0:
141,246,281219,1,0,1:2:0:0:
198,0,281387,2,0,L|217:112,1,93.5000028533936,8|0,0:0|1:2,0:0:0:0:
250,316,281724,5,8,0:0:0:0:
250,316,281808,1,8,0:0:0:0:
250,316,281893,2,0,L|241:376,2,46.7500014266968,8|8|8,0:0|0:0|0:0,0:0:0:0:
322,91,282230,1,0,1:2:0:0:
322,91,282314,1,0,1:2:0:0:
322,91,282398,1,10,0:0:0:0:
428,303,282567,1,2,1:2:0:0:
428,303,282651,1,0,1:2:0:0:
428,303,282735,1,10,0:0:0:0:
501,155,282904,5,8,0:0:0:0:
501,155,282988,1,8,0:0:0:0:
501,155,283072,2,0,B|457:152|435:97|435:97|426:175|372:283|227:247|210:185|242:83|322:89|322:89|278:134|200:132|150:118|131:53|131:53|176:24|224:31,1,826.200020170899,6|0,1:2|0:0,0:0:0:0:
