osu file format v14

[General]
AudioFilename: audio.mp3
AudioLeadIn: 0
PreviewTime: 136022
Countdown: 0
SampleSet: Soft
StackLeniency: 0.7
Mode: 0
LetterboxInBreaks: 0
WidescreenStoryboard: 1

[Editor]
DistanceSpacing: 1
BeatDivisor: 4
GridSize: 32
TimelineZoom: 1.6

[Metadata]
Title:Jet Rocket
TitleUnicode:ジェットロケット
Artist:LiSA
ArtistUnicode:LiSA
Creator:Wen
Version:Insane
Source:
Tags:lover"s"mile lovers mile oribe risa japanese pop female vocalist jpop j-pop kowari
BeatmapID:2492021
BeatmapSetID:1189927

[Difficulty]
HPDrainRate:5
CircleSize:3.7
OverallDifficulty:8
ApproachRate:9
SliderMultiplier:1.5
SliderTickRate:1

[Events]
//Background and Video events
0,0,"Jet Rocket Bg.jpg",0,0
//Break Periods
2,208947,213034
//Storyboard Layer 0 (Background)
//Storyboard Layer 1 (Fail)
//Storyboard Layer 2 (Pass)
//Storyboard Layer 3 (Foreground)
//Storyboard Layer 4 (Overlay)
//Storyboard Sound Samples

[TimingPoints]
2540,566.037735849057,4,2,1,40,1,0
2540,-125,4,2,1,40,0,0
6926,-125,4,2,1,5,0,0
7068,-125,4,2,1,40,0,0
11454,-125,4,2,1,5,0,0
11596,-125,4,2,1,40,0,0
17455,337.078651685393,4,2,1,50,1,0
21499,-90.9090909090909,4,2,1,60,0,0
32286,-99.9999999999999,4,2,1,50,0,0
41724,-125,4,2,1,45,0,0
43072,-100,4,2,1,50,0,0
53859,-100,4,2,1,55,0,0
61949,-86.9565217391304,4,2,1,50,0,0
63212,-86.9565217391304,4,2,1,5,0,0
63297,-86.9565217391304,4,2,1,50,0,0
65909,-86.9565217391304,4,2,1,5,0,0
65994,-86.9565217391304,4,2,1,50,0,0
67342,-111.111111111111,4,2,1,45,0,0
68690,-83.3333333333333,4,2,1,70,0,1
78466,-71.4285714285714,4,2,1,70,0,1
78718,-71.4285714285714,4,2,1,5,0,1
78803,-71.4285714285714,4,2,1,70,0,1
79055,-71.4285714285714,4,2,1,5,0,1
79140,-66.6666666666667,4,2,1,70,0,1
79392,-66.6666666666667,4,2,1,5,0,1
79477,-83.3333333333333,4,2,1,70,0,1
92875,-83.3333333333333,4,2,1,5,0,1
92960,-83.3333333333333,4,2,1,70,0,1
95572,-83.3333333333333,4,2,1,5,0,1
95657,-83.3333333333333,4,2,1,70,0,1
97005,-90.9090909090909,4,2,1,60,0,0
99028,-90.9090909090909,4,2,1,45,0,0
99702,-100,4,2,1,50,0,0
109140,-125,4,2,1,45,0,0
110488,-100,4,2,1,50,0,0
121275,-100,4,2,1,55,0,0
129365,-86.9565217391304,4,2,1,50,0,0
131976,-86.9565217391304,4,2,1,5,0,0
132061,-86.9565217391304,4,2,1,50,0,0
136106,-83.3333333333333,4,2,1,70,0,1
145881,-71.4285714285714,4,2,1,70,0,1
146133,-71.4285714285714,4,2,1,5,0,1
146219,-71.4285714285714,4,2,1,70,0,1
146471,-71.4285714285714,4,2,1,5,0,1
146556,-66.6666666666667,4,2,1,70,0,1
146808,-66.6666666666667,4,2,1,5,0,1
146893,-83.3333333333333,4,2,1,70,0,1
160291,-83.3333333333333,4,2,1,5,0,1
160376,-83.3333333333333,4,2,1,70,0,1
162987,-83.3333333333333,4,2,1,5,0,1
163072,-83.3333333333333,4,2,1,70,0,1
164421,-90.9090909090909,4,2,1,45,0,0
165769,-100,4,2,1,50,0,0
167032,-100,4,2,1,5,0,0
167117,-100,4,2,1,50,0,0
176471,-100,4,2,1,5,0,0
176556,-100,4,2,1,45,0,0
177735,-90.9090909090909,4,2,1,55,0,0
181864,-90.9090909090909,4,2,1,5,0,0
181949,-86.9565217391304,4,2,1,50,0,0
183212,-86.9565217391304,4,2,1,5,0,0
183297,-86.9565217391304,4,2,1,50,0,0
187342,-80,4,2,1,70,0,1
196780,-83.3333333333333,4,2,1,70,0,1
197117,-86.9565217391304,4,2,1,70,0,1
197792,-95.2380952380952,4,2,1,70,0,1
198044,-95.2380952380952,4,2,1,5,0,1
198129,-80,4,2,1,70,0,1
208747,-80,4,2,1,70,0,0
213634,-125,4,2,1,45,0,0
214308,-100,4,2,1,50,0,0
216920,-100,4,2,1,5,0,0
217005,-86.9565217391304,4,2,1,50,0,0
226443,-83.3333333333333,4,2,1,70,0,1
236219,-71.4285714285714,4,2,1,70,0,1
236471,-71.4285714285714,4,2,1,5,0,1
236556,-71.4285714285714,4,2,1,70,0,1
236808,-71.4285714285714,4,2,1,5,0,1
236893,-66.6666666666667,4,2,1,70,0,1
237145,-66.6666666666667,4,2,1,5,0,1
237230,-83.3333333333333,4,2,1,70,0,1
250628,-83.3333333333333,4,2,1,5,0,1
250713,-83.3333333333333,4,2,1,70,0,1
253324,-83.3333333333333,4,2,1,5,0,1
253410,-83.3333333333333,4,2,1,70,0,1
260151,-100,4,2,1,50,0,0
261499,-80,4,2,1,70,0,1
283072,-212.765957446809,4,2,1,60,0,0
283157,-212.765957446809,4,2,1,5,0,0

[Colours]
Combo1 : 223,216,64
Combo2 : 109,220,44
Combo3 : 36,215,89
Combo4 : 62,189,103
Combo5 : 26,73,236
Combo6 : 30,146,232
Combo7 : 70,191,232
Combo8 : 84,67,235

[HitObjects]
360,53,2540,6,0,P|366:112|383:170,1,120,2|2,0:0|0:0,0:0:0:0:
405,290,3389,2,0,P|359:254|302:267,1,120,2|2,0:0|0:0,0:0:0:0:
227,352,4238,2,0,P|225:323|221:293,1,60,0|2,0:0|0:0,0:0:0:0:
184,206,4804,5,2,0:0:0:0:
184,206,5087,1,2,0:0:0:0:
92,306,5370,2,0,P|92:277|97:247,1,60,2|0,0:0|0:0,0:0:0:0:
0,166,5936,2,0,P|4:195|4:225,1,60,2|0,0:0|0:0,0:0:0:0:
12,324,6502,2,0,P|55:330|92:306,1,90,2|0,0:0|0:0,0:0:0:0:
97,246,7068,6,0,B|86:174|110:195|99:126,1,120,2|2,0:0|0:0,0:0:0:0:
69,32,7917,2,0,B|94:18|94:18|185:26,1,120,2|2,0:0|0:0,0:0:0:0:
258,77,8766,2,0,P|287:83|316:77,1,60,0|2,0:0|0:0,0:0:0:0:
383,17,9332,5,2,0:0:0:0:
383,17,9615,1,2,0:0:0:0:
424,96,9898,2,0,P|453:96|482:88,1,60,2|0,0:0|0:0,0:0:0:0:
359,149,10464,2,0,P|329:149|300:141,1,60,2|0,0:0|0:0,0:0:0:0:
424,202,11030,2,0,L|416:291,1,90,2|0,0:0|0:0,0:0:0:0:
384,324,11596,6,0,P|328:308|271:326,1,120,2|2,0:0|0:0,0:0:0:0:
197,377,12445,2,0,L|191:317,1,60,2|0,0:0|0:0,0:0:0:0:
137,245,13011,2,0,L|147:125,1,120,2|2,0:0|0:0,0:0:0:0:
202,40,13860,1,2,0:0:0:0:
256,192,14002,12,0,17256,0:0:0:0:
256,192,17455,5,10,0:0:0:0:
256,192,18803,5,10,0:0:0:0:
118,243,18971,1,8,0:0:0:0:
38,131,19477,5,8,0:0:0:0:
176,182,19645,1,8,0:0:0:0:
258,69,20152,5,0,1:2:0:0:
120,120,20320,1,8,0:0:0:0:
176,0,20488,1,0,1:2:0:0:
233,155,20657,1,8,0:0:0:0:
104,41,20825,1,0,1:2:0:0:
62,208,20994,1,8,0:0:0:0:
62,208,21078,1,8,0:0:0:0:
62,208,21162,2,0,L|58:245,1,37.5,8|8,0:0|0:0,0:0:0:0:
142,343,21331,2,0,L|138:305,1,37.5,8|8,0:0|0:0,0:0:0:0:
222,208,21499,6,0,B|317:190|288:228|385:207,1,165.000005035401,12|8,0:0|0:0,0:0:0:0:
463,147,22005,1,0,1:2:0:0:
414,285,22174,1,8,0:0:0:0:
354,139,22342,1,0,1:2:0:0:
292,287,22511,2,0,L|284:204,1,82.5000025177003,8|0,0:0|1:2,0:0:0:0:
427,168,22848,6,0,L|419:251,1,82.5000025177003,8|0,0:0|1:2,0:0:0:0:
276,122,23185,2,0,L|284:205,1,82.5000025177003,8|0,0:0|1:2,0:0:0:0:
387,70,23522,1,8,0:0:0:0:
243,44,23690,1,0,1:2:0:0:
243,44,23859,2,0,P|210:69|194:106,1,82.5000025177003,8|0,0:0|1:2,0:0:0:0:
224,244,24196,6,0,P|166:189|89:206,1,165.000005035401,12|8,0:0|0:0,0:0:0:0:
39,303,24702,1,0,1:2:0:0:
47,156,24870,1,8,0:0:0:0:
144,270,25039,1,0,1:2:0:0:
212,126,25207,2,0,L|219:208,1,82.5000025177003,8|0,0:0|1:2,0:0:0:0:
104,63,25544,6,0,L|96:145,1,82.5000025177003,8|0,0:0|1:2,0:0:0:0:
212,0,25881,2,0,L|219:82,1,82.5000025177003,8|0,0:0|1:2,0:0:0:0:
269,168,26219,1,8,0:0:0:0:
335,53,26387,1,0,1:2:0:0:
335,53,26556,2,0,P|373:39|413:46,1,82.5000025177003,8|0,0:0|1:2,0:0:0:0:
493,173,26893,6,0,B|459:191|459:191|333:180,1,165.000005035401,12|8,0:0|0:0,0:0:0:0:
260,248,27398,1,0,1:2:0:0:
306,112,27567,1,8,0:0:0:0:
368,263,27735,1,0,1:2:0:0:
450,113,27904,2,0,L|367:120,1,82.5000025177003,8|0,0:0|1:2,0:0:0:0:
210,184,28241,6,0,L|292:191,1,82.5000025177003,8|0,0:0|1:2,0:0:0:0:
450,255,28578,2,0,L|367:262,1,82.5000025177003,8|0,0:0|1:2,0:0:0:0:
288,320,28915,1,8,0:0:0:0:
402,363,29084,1,0,1:2:0:0:
402,363,29252,2,0,P|418:325|413:284,1,82.5000025177003,8|0,0:0|1:2,0:0:0:0:
291,363,29589,6,0,P|270:284|303:210,1,165.000005035401,12|8,0:0|0:0,0:0:0:0:
368,137,30095,1,0,1:2:0:0:
354,276,30263,1,8,0:0:0:0:
266,135,30432,1,0,1:2:0:0:
174,274,30601,2,0,L|181:191,1,82.5000025177003,8|0,0:0|1:2,0:0:0:0:
198,71,30938,5,8,0:0:0:0:
302,209,31106,2,0,B|328:229|328:229|460:218,1,165.000005035401,8|0,0:0|0:0,0:0:0:0:
368,137,31612,1,8,0:0:0:0:
326,133,31696,1,8,0:0:0:0:
285,129,31780,1,8,0:0:0:0:
244,126,31865,1,8,0:0:0:0:
203,122,31949,1,8,0:0:0:0:
99,15,32117,1,8,0:0:0:0:
99,15,32202,1,8,0:0:0:0:
99,15,32286,6,0,B|77:111|120:71|99:163,1,150,6|2,1:2|1:2,0:0:0:0:
5,248,32792,2,0,P|-4:212|0:175,1,75,2|0,0:0|1:2,0:0:0:0:
111,301,33129,2,0,P|120:265|116:228,1,75,2|0,0:0|1:2,0:0:0:0:
0,362,33466,1,2,0:0:0:0:
0,362,33634,6,0,L|74:368,1,75,2|2,1:2|0:0,0:0:0:0:
201,384,33971,1,2,1:2:0:0:
201,384,34140,2,0,B|216:348|216:348|206:237,1,150,2|0,0:0|0:0,0:0:0:0:
210,100,34646,1,0,1:2:0:0:
327,159,34814,1,2,0:0:0:0:
327,159,34983,6,0,P|387:200|455:174,1,150,2|2,1:2|1:2,0:0:0:0:
376,53,35488,2,0,P|341:39|304:42,1,75,2|0,0:0|1:2,0:0:0:0:
182,158,35825,2,0,P|219:158|253:143,1,75,2|0,0:0|1:2,0:0:0:0:
103,35,36162,1,2,0:0:0:0:
103,35,36331,6,0,L|96:109,1,75,2|2,1:2|0:0,0:0:0:0:
40,186,36668,1,2,1:2:0:0:
40,186,36837,2,0,B|66:204|66:204|183:194,1,150,2|0,0:0|0:0,0:0:0:0:
260,93,37342,2,0,L|185:86,1,75,8|2,0:0|0:0,0:0:0:0:
294,177,37679,6,0,B|299:236|299:236|316:262|316:262|321:321,1,150,2|2,1:2|1:2,0:0:0:0:
400,369,38185,2,0,P|435:379|472:374,1,75,2|0,0:0|1:2,0:0:0:0:
505,234,38522,2,0,P|469:223|432:228,1,75,2|0,0:0|1:2,0:0:0:0:
323,271,38859,1,2,0:0:0:0:
323,271,39028,6,0,B|303:289|303:289|313:166,2,150,0|0|0,1:2|1:2|1:2,0:0:0:0:
409,192,39870,1,2,0:0:0:0:
409,192,40039,2,0,L|402:117,1,75,2|2,1:2|0:0,0:0:0:0:
314,17,40376,6,0,B|346:36|346:36|458:26,1,150,2|0,1:2|1:2,0:0:0:0:
402,117,40881,1,2,0:0:0:0:
402,117,41050,2,0,L|252:130,1,150,2|0,1:2|1:2,0:0:0:0:
179,56,41556,1,2,0:0:0:0:
116,188,41724,6,0,P|144:197|173:192,1,60,2|0,1:2|1:2,0:0:0:0:
205,184,41977,1,0,1:2:0:0:
205,184,42061,2,0,B|219:211|219:211|211:299,1,120,2|0,1:2|1:2,0:0:0:0:
83,379,42567,1,10,0:0:0:0:
80,349,42651,1,8,0:0:0:0:
77,319,42735,1,8,0:0:0:0:
75,289,42820,1,8,0:0:0:0:
72,259,42904,1,10,0:3:0:0:
0,161,43072,6,0,B|55:156|55:156|86:168|86:168|147:163,1,150,6|10,1:2|0:0,0:0:0:0:
233,59,43578,2,0,P|244:94|239:131,1,75,2|0,0:0|1:2,0:0:0:0:
111,59,43915,1,2,1:2:0:0:
111,59,44084,2,0,P|99:94|104:131,1,75,8|2,0:0|0:0,0:0:0:0:
178,220,44421,5,2,1:2:0:0:
178,220,44589,1,2,0:0:0:0:
251,147,44758,1,10,0:0:0:0:
251,147,44926,2,0,B|268:173|268:173|279:56,1,150,2|0,0:0|1:2,0:0:0:0:
357,199,45432,1,8,0:0:0:0:
456,127,45601,1,2,0:0:0:0:
456,127,45769,6,0,B|474:162|474:162|465:271,1,150,2|10,1:2|0:0,0:0:0:0:
324,368,46275,2,0,P|359:378|396:372,1,75,2|0,0:0|1:2,0:0:0:0:
324,253,46612,1,2,1:2:0:0:
324,253,46780,2,0,P|359:242|396:248,1,75,8|2,0:0|0:0,0:0:0:0:
255,332,47117,5,2,1:2:0:0:
255,332,47286,1,2,0:0:0:0:
159,302,47454,1,10,0:0:0:0:
159,302,47623,2,0,L|9:315,1,150,2|0,0:0|1:2,0:0:0:0:
133,224,48129,1,8,0:0:0:0:
30,161,48297,1,2,1:2:0:0:
30,161,48381,1,0,1:2:0:0:
30,161,48466,6,0,B|7:136|7:136|123:147,1,150,0|10,1:2|0:0,0:0:0:0:
240,117,48971,2,0,P|250:152|243:188,1,75,2|0,0:0|1:2,0:0:0:0:
126,76,49308,2,0,P|115:111|123:148,1,75,2|8,1:2|0:0,0:0:0:0:
216,25,49646,1,2,0:0:0:0:
216,25,49814,6,0,B|304:5|273:49|364:25,1,150,0|8,1:2|0:0,0:0:0:0:
475,121,50320,2,0,L|400:114,1,75,0|0,0:0|1:2,0:0:0:0:
296,157,50657,1,2,1:2:0:0:
396,275,50825,2,0,L|402:200,1,75,10|2,0:0|0:0,0:0:0:0:
322,314,51162,6,0,P|380:357|451:338,1,150,2|8,1:2|0:0,0:0:0:0:
401,200,51668,1,2,0:0:0:0:
401,200,51837,2,0,P|365:189|329:198,1,75,2|0,1:2|1:2,0:0:0:0:
247,289,52174,1,8,0:0:0:0:
200,151,52342,1,2,0:0:0:0:
200,151,52511,6,0,L|193:225,1,75,2|0,1:2|1:2,0:0:0:0:
301,151,52848,2,0,L|294:76,1,75,8|0,0:0|1:2,0:0:0:0:
292,38,53101,1,0,1:2:0:0:
292,38,53185,2,0,P|274:32|255:32,1,37.5,10|8,0:0|0:0,0:0:0:0:
154,115,53353,2,0,P|171:120|190:120,1,37.5,8|8,0:0|0:0,0:0:0:0:
92,20,53522,1,10,0:0:0:0:
24,134,53690,1,8,0:0:0:0:
24,134,53775,1,8,0:0:0:0:
24,134,53859,5,6,1:2:0:0:
78,225,54028,1,2,1:2:0:0:
182,247,54196,1,10,0:0:0:0:
201,54,54533,5,2,1:2:0:0:
148,146,54702,1,0,1:2:0:0:
182,247,54870,1,10,0:0:0:0:
360,167,55207,5,2,1:2:0:0:
253,167,55376,1,0,1:2:0:0:
182,247,55544,1,10,0:0:0:0:
340,362,55881,5,2,1:2:0:0:
287,269,56050,1,0,1:2:0:0:
182,247,56219,1,8,0:0:0:0:
117,364,56556,5,2,1:2:0:0:
223,355,56724,1,0,1:2:0:0:
287,269,56893,1,10,0:0:0:0:
120,170,57230,5,2,1:2:0:0:
180,257,57398,1,0,1:2:0:0:
287,269,57567,1,10,0:0:0:0:
290,75,57904,5,2,1:2:0:0:
244,170,58072,1,0,1:2:0:0:
287,269,58241,1,10,0:0:0:0:
432,340,58578,5,2,1:2:0:0:
441,232,58747,1,12,0:0:0:0:
450,125,58915,1,12,0:0:0:0:
282,30,59252,5,2,1:2:0:0:
386,40,59421,1,2,1:2:0:0:
450,125,59589,1,10,0:0:0:0:
284,222,59926,5,2,1:2:0:0:
344,136,60095,1,0,1:2:0:0:
450,125,60263,1,10,0:0:0:0:
452,317,60601,5,2,1:2:0:0:
407,222,60769,1,0,1:2:0:0:
450,125,60938,1,10,0:0:0:0:
299,58,61275,5,10,0:0:0:0:
295,99,61359,1,8,0:0:0:0:
291,140,61443,1,8,0:0:0:0:
288,181,61528,1,8,0:0:0:0:
284,222,61612,1,8,0:0:0:0:
169,321,61780,1,8,0:0:0:0:
169,321,61865,1,8,0:0:0:0:
169,321,61949,6,0,B|149:290|149:290|161:154,1,172.500003290176,6|8,1:2|0:0,0:0:0:0:
214,51,62454,1,2,0:0:0:0:
284,222,62623,1,2,1:2:0:0:
100,131,62792,1,0,1:2:0:0:
299,58,62960,2,0,L|310:186,1,129.375002467632,10|0,0:0|0:0,0:0:0:0:
347,216,63297,6,0,B|365:236|365:236|352:92,1,172.500003290176,2|8,1:2|0:0,0:0:0:0:
455,20,63803,1,2,0:0:0:0:
455,20,63971,2,0,L|447:105,1,86.2500016450882,2|0,1:2|1:2,0:0:0:0:
299,58,64308,2,0,L|306:143,1,86.2500016450882,8|0,0:0|0:0,0:0:0:0:
462,262,64646,6,0,P|420:273|377:269,1,86.2500016450882,2|0,1:2|0:0,0:0:0:0:
221,150,64983,2,0,P|262:139|305:143,1,86.2500016450882,10|0,0:0|0:0,0:0:0:0:
411,175,65320,1,2,1:2:0:0:
283,303,65488,1,0,1:2:0:0:
283,303,65657,2,0,L|294:173,1,129.375002467632,10|0,0:0|0:0,0:0:0:0:
295,126,65994,6,0,B|253:104|253:104|128:115,2,172.500003290176,2|8|0,1:2|0:0|1:2,0:0:0:0:
228,221,66837,1,2,1:2:0:0:
181,37,67005,1,10,0:0:0:0:
107,172,67174,1,6,1:2:0:0:
24,63,67342,6,0,P|12:94|10:128,1,67.4999979400635,2|2,0:0|0:0,0:0:0:0:
93,237,67679,2,0,P|104:205|106:171,1,67.4999979400635,2|2,0:0|0:0,0:0:0:0:
20,279,68016,1,8,0:0:0:0:
42,304,68101,1,8,0:0:0:0:
73,318,68185,1,8,0:0:0:0:
106,319,68269,1,8,0:0:0:0:
138,307,68353,1,8,0:0:0:0:
228,221,68522,1,8,0:0:0:0:
228,221,68606,1,8,0:0:0:0:
228,221,68690,5,6,1:2:0:0:
252,353,68859,1,0,1:2:0:0:
336,234,69028,5,10,0:0:0:0:
309,379,69196,1,0,1:2:0:0:
409,218,69365,5,10,0:0:0:0:
436,363,69533,1,0,1:2:0:0:
512,207,69702,2,0,P|471:188|426:185,1,89.9999972534181,10|2,0:0|1:2,0:0:0:0:
296,310,70039,5,8,0:0:0:0:
296,310,70207,2,0,L|288:220,1,89.9999972534181,2|8,0:0|0:0,0:0:0:0:
179,110,70544,1,2,1:2:0:0:
121,277,70713,2,0,L|210:269,1,89.9999972534181,10|2,0:0|1:2,0:0:0:0:
293,138,71050,1,10,0:0:0:0:
96,175,71219,1,2,1:2:0:0:
289,221,71387,6,0,P|365:180|365:95,1,179.999994506836,14|8,0:0|0:0,0:0:0:0:
273,59,71893,1,2,0:0:0:0:
369,223,72061,1,10,0:0:0:0:
444,61,72230,1,0,1:2:0:0:
256,144,72398,1,8,0:0:0:0:
466,181,72567,1,0,1:2:0:0:
318,82,72735,6,0,B|273:58|273:58|143:70,1,179.999994506836,8|8,0:0|0:0,0:0:0:0:
55,142,73241,1,0,1:2:0:0:
55,142,73410,2,0,P|47:98|62:56,1,89.9999972534181,10|0,0:0|1:2,0:0:0:0:
176,217,73747,2,0,P|183:173|168:131,1,89.9999972534181,10|2,0:0|1:2,0:0:0:0:
35,278,74084,6,0,B|68:317|110:314|110:314|203:306,1,179.999994506836,14|8,0:0|0:0,0:0:0:0:
327,197,74589,1,2,0:0:0:0:
327,197,74758,2,0,L|237:189,1,89.9999972534181,10|0,0:0|1:2,0:0:0:0:
380,297,75095,2,0,L|290:304,1,89.9999972534181,8|0,0:0|1:2,0:0:0:0:
461,174,75432,6,0,B|438:274|487:231|461:351,1,179.999994506836,10|8,0:0|0:0,0:0:0:0:
374,200,75938,1,2,1:2:0:0:
336,376,76106,1,10,0:0:0:0:
504,293,76275,1,0,1:2:0:0:
305,173,76443,2,0,L|394:165,1,89.9999972534181,10|2,0:0|1:2,0:0:0:0:
253,246,76780,5,14,0:0:0:0:
197,142,76949,1,2,1:2:0:0:
248,37,77117,1,10,0:0:0:0:
253,246,77454,5,10,0:0:0:0:
134,242,77623,1,2,1:2:0:0:
69,145,77792,1,8,0:0:0:0:
253,246,78129,5,10,0:0:0:0:
190,347,78297,1,0,1:2:0:0:
73,354,78466,2,0,B|56:322|56:322|67:200,1,157.499995193482,10|0,0:3|0:0,0:0:0:0:
71,174,78803,6,0,P|138:140|194:189,1,157.499995193482,10|0,0:3|0:0,0:0:0:0:
207,214,79140,6,0,L|221:45,1,168.750006437302,12|0,0:0|0:0,0:0:0:0:
225,0,79477,5,6,1:2:0:0:
244,149,79646,1,0,1:2:0:0:
348,91,79814,5,10,0:0:0:0:
313,221,79983,1,0,1:2:0:0:
403,164,80151,5,10,0:0:0:0:
419,299,80320,1,0,1:2:0:0:
512,133,80488,2,0,P|477:104|434:92,1,89.9999972534181,10|2,0:0|1:2,0:0:0:0:
313,221,80825,6,0,L|402:213,1,89.9999972534181,8|2,0:0|0:0,0:0:0:0:
448,344,81162,2,0,L|358:336,1,89.9999972534181,8|2,0:0|1:2,0:0:0:0:
252,264,81499,1,10,0:0:0:0:
456,228,81668,1,2,1:2:0:0:
373,378,81837,1,10,0:0:0:0:
321,195,82005,1,2,1:2:0:0:
235,341,82174,6,0,B|206:371|206:371|218:234,1,179.999994506836,14|8,0:0|0:0,0:0:0:0:
282,120,82679,1,2,0:0:0:0:
282,120,82848,2,0,P|325:111|368:125,1,89.9999972534181,10|0,0:0|1:2,0:0:0:0:
218,233,83185,2,0,P|174:222|141:192,1,89.9999972534181,8|0,0:0|1:2,0:0:0:0:
53,87,83522,6,0,B|46:160|46:160|60:194|60:194|54:263,1,179.999994506836,8|8,0:0|0:0,0:0:0:0:
100,350,84028,1,0,1:2:0:0:
175,200,84196,1,10,0:0:0:0:
0,251,84365,1,2,1:2:0:0:
191,310,84533,1,10,0:0:0:0:
93,141,84702,1,0,1:2:0:0:
93,141,84786,1,0,1:2:0:0:
93,141,84870,6,0,B|192:112|167:163|269:141,1,179.999994506836,14|8,0:0|0:0,0:0:0:0:
373,69,85376,1,2,0:0:0:0:
373,69,85544,2,0,P|387:111|382:155,1,89.9999972534181,10|0,0:0|1:2,0:0:0:0:
250,69,85881,2,0,P|235:111|240:155,1,89.9999972534181,8|0,0:0|1:2,0:0:0:0:
312,10,86219,6,0,P|394:-12|454:49,1,179.999994506836,10|8,0:0|0:0,0:0:0:0:
332,197,86724,1,2,1:2:0:0:
304,89,86893,2,0,L|214:81,1,89.9999972534181,10|0,0:0|1:2,0:0:0:0:
405,156,87230,2,0,L|494:148,1,89.9999972534181,8|2,0:0|1:2,0:0:0:0:
390,264,87567,6,0,B|353:285|353:285|216:273,1,179.999994506836,14|2,0:0|1:2,0:0:0:0:
84,139,88073,2,0,L|92:50,1,89.9999972534181,2|8,0:0|0:0,0:0:0:0:
208,183,88410,2,0,L|216:273,1,89.9999972534181,2|8,1:2|0:0,0:0:0:0:
157,66,88747,1,2,0:0:0:0:
0,161,88915,5,0,1:2:0:0:
22,199,88999,1,0,1:2:0:0:
60,222,89084,1,0,1:2:0:0:
105,222,89168,1,0,1:2:0:0:
143,200,89252,1,10,0:0:0:0:
255,81,89421,2,0,L|210:77,2,44.999998626709,0|0|10,1:2|1:2|0:0,0:0:0:0:
363,169,89758,2,0,L|318:172,2,44.999998626709,2|0|8,1:2|1:2|0:0,0:0:0:0:
451,81,90095,1,0,1:2:0:0:
451,81,90179,1,0,1:2:0:0:
451,81,90263,6,0,B|456:154|456:154|476:185|476:185|482:254,1,179.999994506836,6|10,1:2|0:0,0:0:0:0:
378,345,90769,2,0,L|385:255,1,89.9999972534181,2|0,0:0|1:2,0:0:0:0:
252,295,91106,2,0,L|259:384,1,89.9999972534181,2|8,1:2|0:0,0:0:0:0:
313,231,91443,1,2,0:0:0:0:
313,231,91612,5,2,1:2:0:0:
146,298,91780,1,2,0:0:0:0:
262,164,91949,2,0,P|302:147|346:153,1,89.9999972534181,10|0,0:0|1:2,0:0:0:0:
224,272,92286,2,0,P|179:270|142:246,1,89.9999972534181,2|0,0:0|1:2,0:0:0:0:
32,206,92623,2,0,L|43:340,1,134.999995880127,10|0,0:0|0:0,0:0:0:0:
74,372,92960,6,0,B|93:339|93:339|80:197,1,179.999994506836,2|10,1:2|0:0,0:0:0:0:
14,67,93466,2,0,P|-3:107|0:152,1,89.9999972534181,2|0,0:0|1:2,0:0:0:0:
140,67,93803,2,0,P|157:107|154:152,1,89.9999972534181,2|8,1:2|0:0,0:0:0:0:
114,249,94140,1,2,0:0:0:0:
57,78,94308,5,2,1:2:0:0:
0,249,94477,1,2,0:0:0:0:
199,159,94646,2,0,L|109:151,1,89.9999972534181,10|0,0:0|1:2,0:0:0:0:
207,70,94983,2,0,L|296:62,1,89.9999972534181,2|0,0:0|1:2,0:0:0:0:
422,128,95320,2,0,P|381:178|315:176,1,134.999995880127,10|0,0:0|0:0,0:0:0:0:
298,135,95657,6,0,B|293:208|293:208|273:239|273:239|267:308,1,179.999994506836,2|10,1:2|0:0,0:0:0:0:
372,384,96162,2,0,L|364:294,1,89.9999972534181,2|0,0:0|1:2,0:0:0:0:
490,235,96499,2,0,L|482:324,1,89.9999972534181,2|8,1:2|0:0,0:0:0:0:
389,198,96837,1,2,0:0:0:0:
310,349,97005,5,8,0:0:0:0:
260,132,97174,1,8,0:0:0:0:
175,298,98353,5,8,0:0:0:0:
358,194,98522,2,0,B|387:175|387:175|258:164,1,165.000005035401,8|0,0:0|0:0,0:0:0:0:
185,107,99028,6,0,L|130:111,2,55.0000016784668,8|0|0,0:0|1:2|1:2,0:0:0:0:
51,194,99365,2,0,L|105:198,2,55.0000016784668,8|0|0,0:0|1:2|1:2,0:0:0:0:
185,281,99702,6,0,B|275:260|249:299|332:281,1,150,6|2,1:2|1:2,0:0:0:0:
418,216,100207,2,0,L|411:290,1,75,2|0,0:0|1:2,0:0:0:0:
506,158,100544,1,2,0:0:0:0:
506,158,100713,2,0,L|512:232,1,75,0|2,1:2|0:0,0:0:0:0:
418,105,101050,5,2,1:2:0:0:
418,105,101219,1,2,0:0:0:0:
319,131,101387,1,2,1:2:0:0:
319,131,101556,2,0,B|279:147|279:147|172:137,1,150,2|0,0:0|0:0,0:0:0:0:
76,216,102061,2,0,L|69:141,1,75,8|0,0:0|1:2,0:0:0:0:
180,236,102398,6,0,L|329:222,1,150,2|2,1:2|1:2,0:0:0:0:
268,351,102904,2,0,L|193:357,1,75,2|0,0:0|1:2,0:0:0:0:
96,266,103241,1,2,0:0:0:0:
96,266,103410,2,0,L|170:272,1,75,0|2,1:2|0:0,0:0:0:0:
65,384,103747,5,2,1:2:0:0:
65,384,103915,1,2,0:0:0:0:
0,294,104084,1,0,1:2:0:0:
0,294,104252,2,0,B|28:277|28:277|144:287,1,150,2|0,0:0|0:0,0:0:0:0:
218,384,104758,2,0,L|221:346,1,37.5,8|8,0:0|0:3,0:0:0:0:
298,260,104926,2,0,L|301:297,1,37.5,10|8,0:3|0:3,0:0:0:0:
378,384,105095,6,0,B|395:353|395:353|385:239,1,150,6|2,1:2|1:2,0:0:0:0:
324,104,105601,2,0,P|288:92|252:99,1,75,2|0,0:0|1:2,0:0:0:0:
324,216,105938,2,0,P|288:228|252:221,1,75,2|0,0:0|1:2,0:0:0:0:
163,125,106275,1,2,0:0:0:0:
163,125,106443,6,0,B|141:98|141:98|151:214,1,150,0|0,1:2|1:2,0:0:0:0:
70,295,106949,2,0,L|76:220,1,75,0|0,0:0|1:2,0:0:0:0:
0,110,107286,1,2,0:0:0:0:
0,110,107454,2,0,L|6:185,1,75,10|2,0:0|0:0,0:0:0:0:
70,295,107792,6,0,P|138:319|201:283,1,150,0|0,1:2|1:2,0:0:0:0:
172,178,108297,1,2,0:0:0:0:
172,178,108466,2,0,L|97:171,1,75,2|0,1:2|0:0,0:0:0:0:
228,100,108803,2,0,L|302:93,1,75,0|2,1:2|0:0,0:0:0:0:
145,5,109140,6,0,B|131:35|131:35|139:121,2,120,2|2|4,1:2|1:2|1:2,0:0:0:0:
228,100,109983,1,8,0:0:0:0:
256,109,110067,1,8,0:0:0:0:
286,111,110151,1,8,0:0:0:0:
315,106,110235,1,8,0:0:0:0:
342,92,110320,1,8,0:0:0:0:
447,3,110488,6,0,B|466:89|420:56|446:150,1,150,6|10,1:2|0:0,0:0:0:0:
409,242,110994,2,0,P|373:253|337:247,1,75,2|0,0:0|1:2,0:0:0:0:
250,171,111331,1,2,1:2:0:0:
250,171,111499,2,0,P|213:164|178:176,1,75,8|2,0:0|0:0,0:0:0:0:
114,250,111837,5,2,1:2:0:0:
114,250,112005,1,2,0:0:0:0:
182,314,112174,1,10,0:0:0:0:
182,314,112342,2,0,B|213:330|213:330|328:320,1,150,2|0,0:0|1:2,0:0:0:0:
383,196,112848,1,8,0:0:0:0:
250,171,113016,1,2,0:0:0:0:
250,171,113185,6,0,B|190:165|190:165|163:179|163:179|103:174,1,150,2|10,1:2|0:0,0:0:0:0:
12,66,113690,2,0,P|-4:99|0:136,1,75,2|0,0:0|1:2,0:0:0:0:
126,53,114028,1,2,1:2:0:0:
126,53,114196,2,0,P|142:86|138:123,1,75,8|2,0:0|0:0,0:0:0:0:
66,184,114533,5,2,1:2:0:0:
66,184,114702,1,2,0:0:0:0:
135,246,114870,1,10,0:0:0:0:
135,246,115039,2,0,B|218:223|196:266|282:245,1,150,2|0,0:0|1:2,0:0:0:0:
351,165,115544,1,8,0:0:0:0:
205,87,115713,1,2,1:2:0:0:
205,87,115797,1,0,1:2:0:0:
205,87,115881,6,0,B|234:71|234:71|350:81,1,150,2|8,1:2|0:0,0:0:0:0:
425,164,116387,2,0,P|388:172|352:166,1,75,2|0,0:0|1:2,0:0:0:0:
470,41,116724,2,0,P|433:32|397:38,1,75,2|8,1:2|0:0,0:0:0:0:
351,165,117061,1,2,0:0:0:0:
351,165,117230,6,0,P|419:147|466:200,1,150,0|8,1:2|0:0,0:0:0:0:
399,274,117735,2,0,P|363:283|326:276,1,75,0|0,0:0|1:2,0:0:0:0:
252,206,118072,1,2,1:2:0:0:
252,206,118241,2,0,P|215:198|179:208,1,75,10|2,0:0|0:0,0:0:0:0:
134,309,118578,6,0,B|108:325|108:325|227:336,1,150,2|8,1:2|0:0,0:0:0:0:
325,373,119084,1,2,0:0:0:0:
325,373,119252,2,0,L|318:298,1,75,2|0,1:2|1:2,0:0:0:0:
359,213,119589,1,8,0:0:0:0:
483,341,119758,1,2,0:0:0:0:
483,341,119926,6,0,L|490:266,1,75,2|0,1:2|1:2,0:0:0:0:
352,138,120263,2,0,L|359:213,1,75,8|0,0:0|0:0,0:0:0:0:
480,153,120601,1,10,0:0:0:0:
483,115,120685,1,8,0:0:0:0:
486,78,120769,1,8,0:0:0:0:
489,40,120853,1,8,0:0:0:0:
493,3,120938,1,10,0:0:0:0:
347,68,121106,1,8,0:0:0:0:
347,68,121190,1,8,0:0:0:0:
347,68,121275,5,6,1:2:0:0:
250,113,121443,1,2,1:2:0:0:
233,219,121612,1,10,0:0:0:0:
160,45,121949,5,2,1:2:0:0:
150,151,122117,1,0,1:2:0:0:
233,219,122286,1,10,0:0:0:0:
46,196,122623,5,2,1:2:0:0:
132,257,122792,1,0,1:2:0:0:
233,219,122960,1,10,0:0:0:0:
120,370,123297,5,2,1:2:0:0:
215,326,123466,1,0,1:2:0:0:
233,219,123634,1,8,0:0:0:0:
403,349,123971,5,2,1:2:0:0:
317,288,124140,1,0,1:2:0:0:
215,326,124308,1,10,0:0:0:0:
329,175,124646,5,2,1:2:0:0:
233,218,124814,1,0,1:2:0:0:
215,326,124983,1,10,0:0:0:0:
142,152,125320,5,2,1:2:0:0:
131,256,125488,1,0,1:2:0:0:
215,326,125657,1,10,0:0:0:0:
319,270,125994,5,2,1:2:0:0:
328,162,126163,1,12,0:0:0:0:
337,55,126331,1,12,0:0:0:0:
187,170,126668,5,2,1:2:0:0:
229,74,126837,1,2,1:2:0:0:
337,55,127005,1,10,0:0:0:0:
362,242,127342,5,2,1:2:0:0:
299,157,127511,1,0,1:2:0:0:
337,55,127679,1,10,0:0:0:0:
512,127,128016,5,2,1:2:0:0:
406,139,128185,1,0,1:2:0:0:
337,55,128353,1,10,0:0:0:0:
219,19,128690,5,10,0:0:0:0:
223,60,128774,1,8,0:0:0:0:
227,101,128858,1,8,0:0:0:0:
230,142,128943,1,8,0:0:0:0:
234,183,129027,1,10,0:0:0:0:
155,299,129196,1,8,0:0:0:0:
155,299,129280,1,8,0:0:0:0:
155,299,129365,6,0,B|186:279|186:279|322:291,1,172.500003290176,6|8,1:2|0:0,0:0:0:0:
386,363,129870,1,2,0:0:0:0:
475,242,130039,2,0,L|482:327,1,86.2500016450882,2|0,1:2|1:2,0:0:0:0:
367,177,130376,2,0,L|359:262,1,86.2500016450882,10|0,0:0|0:0,0:0:0:0:
445,142,130713,6,0,P|383:87|305:112,1,172.500003290176,2|8,1:2|0:0,0:0:0:0:
230,179,131219,2,0,P|187:184|147:169,1,86.2500016450882,2|2,0:0|1:2,0:0:0:0:
122,74,131556,1,0,1:2:0:0:
43,219,131724,2,0,B|28:245|28:245|19:147,1,129.375002467632,8|0,0:0|0:0,0:0:0:0:
2,92,132061,6,0,B|104:74|64:114|172:92,2,172.500003290176,2|10|2,1:2|0:0|1:2,0:0:0:0:
43,219,132904,1,0,1:2:0:0:
142,41,133072,2,0,L|149:126,1,86.2500016450882,10|0,0:0|0:0,0:0:0:0:
196,251,133410,6,0,P|231:178|312:188,1,172.500003290176,2|8,1:2|0:0,0:0:0:0:
374,317,133915,2,0,L|288:309,1,86.2500016450882,0|0,0:0|1:2,0:0:0:0:
394,220,134252,1,2,1:2:0:0:
440,362,134421,1,10,0:0:0:0:
481,190,134589,1,2,1:2:0:0:
374,317,134758,6,0,P|332:328|292:316,1,86.2500016450882,2|2,0:0|1:2,0:0:0:0:
203,228,135095,2,0,P|162:215|121:227,1,86.2500016450882,8|2,0:0|0:0,0:0:0:0:
51,346,135432,2,0,P|91:358|132:346,1,86.2500016450882,0|0,1:2|1:2,0:0:0:0:
173,326,135685,1,8,0:0:0:0:
173,326,135769,2,0,L|176:283,1,43.1250008225441,8|8,0:0|0:0,0:0:0:0:
246,206,135938,2,0,L|242:163,1,43.1250008225441,8|8,0:0|0:0,0:0:0:0:
173,86,136106,5,6,1:2:0:0:
133,217,136275,1,0,1:2:0:0:
255,80,136443,5,10,0:0:0:0:
271,218,136612,1,0,1:2:0:0:
361,104,136780,5,10,0:0:0:0:
335,251,136949,1,0,1:2:0:0:
448,114,137117,2,0,P|405:100|360:103,1,89.9999972534181,10|2,0:0|1:2,0:0:0:0:
246,237,137454,5,8,0:0:0:0:
246,237,137623,2,0,L|335:229,1,89.9999972534181,2|8,0:0|0:0,0:0:0:0:
229,92,137960,1,2,1:2:0:0:
119,249,138129,2,0,L|127:159,1,89.9999972534181,10|2,0:0|1:2,0:0:0:0:
136,53,138466,1,8,0:0:0:0:
234,181,138634,1,2,1:2:0:0:
36,236,138803,6,0,B|20:202|20:202|32:60,1,179.999994506836,14|8,0:0|0:0,0:0:0:0:
112,0,139308,1,2,0:0:0:0:
166,157,139477,1,10,0:0:0:0:
0,95,139646,1,0,1:2:0:0:
188,40,139814,1,8,0:0:0:0:
81,222,139983,1,0,1:2:0:0:
104,50,140151,6,0,P|158:118|243:104,1,179.999994506836,8|8,0:0|0:0,0:0:0:0:
326,32,140657,1,0,1:2:0:0:
326,32,140825,2,0,L|333:121,1,89.9999972534181,10|0,0:0|1:2,0:0:0:0:
443,52,141162,2,0,L|435:141,1,89.9999972534181,10|2,0:0|1:2,0:0:0:0:
366,253,141499,6,0,B|297:246|297:246|263:263|263:263|191:256,1,179.999994506836,14|8,0:0|0:0,0:0:0:0:
97,223,142005,1,2,0:0:0:0:
123,347,142174,2,0,P|167:348|208:331,1,89.9999972534181,10|0,0:0|1:2,0:0:0:0:
264,227,142511,1,8,0:0:0:0:
325,365,142679,1,2,1:2:0:0:
325,365,142848,6,0,L|340:185,1,179.999994506836,10|8,0:0|0:0,0:0:0:0:
413,98,143353,1,2,1:2:0:0:
445,257,143522,1,10,0:0:0:0:
289,160,143690,1,0,1:2:0:0:
502,105,143859,2,0,L|412:97,1,89.9999972534181,10|0,0:0|1:2,0:0:0:0:
255,107,144196,5,14,0:0:0:0:
197,209,144365,1,2,1:2:0:0:
251,311,144533,1,10,0:0:0:0:
255,107,144870,5,10,0:0:0:0:
137,107,145039,1,2,1:2:0:0:
76,205,145207,1,10,0:0:0:0:
255,107,145544,5,10,0:0:0:0:
196,4,145713,1,0,1:2:0:0:
80,0,145881,2,0,B|63:29|63:29|74:153,1,157.499995193482,10|0,0:3|0:0,0:0:0:0:
79,178,146219,6,0,P|142:214|191:160,1,157.499995193482,10|0,0:3|0:0,0:0:0:0:
215,144,146556,6,0,L|200:312,1,168.750006437302,14|0,0:0|0:0,0:0:0:0:
198,357,146893,5,6,1:2:0:0:
236,242,147061,1,0,1:2:0:0:
325,341,147230,5,10,0:0:0:0:
292,184,147398,1,0,1:2:0:0:
377,274,147567,5,10,0:0:0:0:
391,131,147735,1,0,1:2:0:0:
474,290,147904,2,0,P|488:247|483:203,1,89.9999972534181,10|2,0:0|1:2,0:0:0:0:
287,281,148241,6,0,L|376:273,1,89.9999972534181,8|2,0:0|0:0,0:0:0:0:
322,138,148578,2,0,L|232:130,1,89.9999972534181,8|0,0:0|1:2,0:0:0:0:
149,188,148915,1,10,0:0:0:0:
215,44,149084,1,2,1:2:0:0:
254,207,149252,1,10,0:0:0:0:
123,88,149421,1,2,1:2:0:0:
306,27,149589,6,0,B|333:-1|333:-1|321:137,1,179.999994506836,14|8,0:0|0:0,0:0:0:0:
421,208,150095,1,2,0:0:0:0:
421,208,150263,2,0,L|413:118,1,89.9999972534181,10|0,0:0|1:2,0:0:0:0:
312,220,150601,2,0,L|304:309,1,89.9999972534181,8|0,0:0|1:2,0:0:0:0:
228,384,150938,6,0,P|177:315|95:336,1,179.999994506836,8|8,0:0|0:0,0:0:0:0:
19,384,151443,1,0,1:2:0:0:
75,233,151612,1,10,0:0:0:0:
143,360,151780,1,0,1:2:0:0:
150,195,151949,1,10,0:0:0:0:
3,274,152117,1,2,1:2:0:0:
3,274,152286,6,0,B|-25:298|-25:298|115:286,1,179.999994506836,14|8,0:0|0:0,0:0:0:0:
234,210,152792,1,2,0:0:0:0:
234,210,152960,2,0,P|194:190|149:194,1,89.9999972534181,10|0,0:0|1:2,0:0:0:0:
243,306,153297,2,0,P|287:307|325:284,1,89.9999972534181,8|0,0:0|1:2,0:0:0:0:
394,129,153634,6,0,B|400:201|400:201|419:237|419:237|425:303,1,179.999994506836,10|8,0:0|0:0,0:0:0:0:
477,384,154140,1,2,1:2:0:0:
512,227,154308,1,10,0:0:0:0:
345,280,154477,1,0,1:2:0:0:
512,312,154646,1,8,0:0:0:0:
398,199,154814,1,2,1:2:0:0:
326,369,154983,6,0,B|306:328|306:328|318:193,1,179.999994506836,14|10,0:0|0:0,0:0:0:0:
238,135,155488,1,2,0:0:0:0:
238,135,155657,2,0,L|148:127,1,89.9999972534181,8|2,0:0|1:2,0:0:0:0:
22,8,155994,2,0,L|111:0,1,89.9999972534181,8|2,0:0|0:0,0:0:0:0:
18,134,156331,5,0,1:2:0:0:
189,47,156499,1,0,1:2:0:0:
189,47,156584,1,0,1:2:0:0:
189,47,156668,1,10,0:0:0:0:
116,195,156837,2,0,L|112:239,2,44.999998626709,0|0|10,1:2|1:2|0:0,0:0:0:0:
267,142,157174,2,0,L|270:186,2,44.999998626709,0|0|10,1:2|1:2|0:0,0:0:0:0:
179,289,157511,1,8,0:0:0:0:
179,289,157595,1,8,0:0:0:0:
179,289,157679,6,0,B|282:261|255:311|356:289,1,179.999994506836,6|10,1:2|0:0,0:0:0:0:
493,150,158185,2,0,P|507:192|504:237,1,89.9999972534181,2|0,0:0|1:2,0:0:0:0:
363,86,158522,2,0,P|348:128|351:173,1,89.9999972534181,2|8,1:2|0:0,0:0:0:0:
425,256,158859,1,2,0:0:0:0:
425,256,159028,6,0,L|335:248,1,89.9999972534181,2|2,1:2|0:0,0:0:0:0:
191,345,159365,2,0,L|280:337,1,89.9999972534181,10|0,0:0|1:2,0:0:0:0:
130,224,159702,2,0,P|107:262|107:307,1,89.9999972534181,2|0,0:0|1:2,0:0:0:0:
213,212,160039,2,0,P|179:156|116:141,1,134.999995880127,10|0,0:0|0:0,0:0:0:0:
72,127,160376,6,0,B|36:103|36:103|174:91,1,179.999994506836,2|10,1:2|0:0,0:0:0:0:
278,48,160881,2,0,L|270:137,1,89.9999972534181,2|0,0:0|1:2,0:0:0:0:
382,89,161219,2,0,L|374:0,1,89.9999972534181,2|8,1:2|0:0,0:0:0:0:
488,151,161556,1,2,0:0:0:0:
488,151,161724,6,0,P|443:145|403:164,1,89.9999972534181,2|2,1:2|0:0,0:0:0:0:
321,242,162061,2,0,P|235:264|154:228,1,179.999994506836,10|2,0:0|0:0,0:0:0:0:
87,152,162567,1,0,1:2:0:0:
87,152,162735,2,0,B|70:180|70:180|79:282,1,134.999995880127,10|0,0:0|0:0,0:0:0:0:
67,325,163072,6,0,B|139:318|139:318|172:330|172:330|243:324,1,179.999994506836,2|10,1:2|0:0,0:0:0:0:
327,380,163578,2,0,P|335:335|340:291,1,89.9999972534181,2|0,0:0|1:2,0:0:0:0:
440,199,163915,2,0,P|444:243|453:287,1,89.9999972534181,2|8,1:2|0:0,0:0:0:0:
410,366,164252,1,2,0:0:0:0:
307,195,164421,5,8,0:0:0:0:
512,252,164589,1,8,0:0:0:0:
512,252,165263,6,0,L|508:293,2,41.2500012588501,0|0|10,1:2|1:2|0:0,0:0:0:0:
431,150,165601,1,0,1:2:0:0:
431,150,165685,1,0,1:2:0:0:
431,148,165769,6,0,P|371:190|301:172,1,150,6|8,1:2|0:0,0:0:0:0:
210,78,166275,2,0,P|242:60|280:57,1,75,0|0,0:0|1:2,0:0:0:0:
212,182,166612,1,0,1:2:0:0:
212,182,166780,2,0,B|182:196|182:196|102:189,1,112.5,8|0,0:0|0:0,0:0:0:0:
71,169,167117,6,0,B|50:258|91:227|71:316,1,150,0|10,1:2|0:0,0:0:0:0:
165,384,167623,1,0,1:2:0:0:
165,384,167792,2,0,L|158:309,1,75,2|0,0:0|1:2,0:0:0:0:
257,239,168129,2,0,L|250:313,1,75,10|0,0:0|0:0,0:0:0:0:
349,384,168466,6,0,B|364:353|364:353|354:238,1,150,2|8,1:2|0:0,0:0:0:0:
262,137,168971,1,2,0:0:0:0:
262,136,169140,2,0,P|252:172|256:210,1,75,2|0,1:2|1:2,0:0:0:0:
385,137,169477,2,0,P|394:172|390:210,1,75,8|2,0:0|0:0,0:0:0:0:
317,87,169814,6,0,P|381:52|448:81,1,150,2|8,1:2|0:0,0:0:0:0:
390,210,170320,1,2,1:2:0:0:
390,210,170488,2,0,L|315:203,1,75,2|0,0:0|1:2,0:0:0:0:
205,102,170825,2,0,L|279:95,1,75,8|0,0:0|0:0,0:0:0:0:
134,239,171162,6,0,B|115:208|115:208|125:94,2,150,4|8|0,1:2|0:0|1:2,0:0:0:0:
246,178,172005,1,0,1:2:0:0:
159,319,172174,2,0,P|122:322|87:308,1,75,8|0,0:0|0:0,0:0:0:0:
8,184,172511,6,0,B|-10:162|-10:162|110:173,1,150,0|10,1:2|0:0,0:0:0:0:
170,253,173016,1,0,1:2:0:0:
239,103,173185,2,0,L|245:177,1,75,2|0,0:0|1:2,0:0:0:0:
334,261,173522,2,0,L|340:186,1,75,10|0,0:0|0:0,0:0:0:0:
412,91,173859,6,0,B|435:124|435:124|445:233,1,150,2|8,1:2|0:0,0:0:0:0:
363,330,174365,1,2,0:0:0:0:
298,173,174533,2,0,P|287:208|286:246,1,75,2|0,1:2|1:2,0:0:0:0:
404,146,174870,2,0,P|414:181|415:219,1,75,8|2,0:0|0:0,0:0:0:0:
335,83,175207,6,0,B|278:78|278:78|247:94|247:94|189:89,1,150,2|8,1:2|0:0,0:0:0:0:
114,22,175713,1,2,1:2:0:0:
87,169,175881,2,0,P|123:174|159:162,1,75,2|0,1:2|1:2,0:0:0:0:
13,76,176219,2,0,L|3:188,1,112.5,8|0,0:0|0:0,0:0:0:0:
0,218,176556,5,10,0:0:0:0:
0,218,177398,1,10,0:0:0:0:
112,98,177567,1,10,0:0:0:0:
185,239,177735,6,0,L|102:246,1,82.5000025177003,6|2,1:2|0:0,0:0:0:0:
207,145,178072,2,0,L|290:152,1,82.5000025177003,4|0,1:2|0:0,0:0:0:0:
351,227,178410,1,10,0:0:0:0:
255,324,178578,2,0,L|262:241,1,82.5000025177003,2|10,1:2|0:0,0:0:0:0:
387,156,178915,2,0,L|394:238,1,82.5000025177003,10|2,0:3|0:0,0:0:0:0:
347,341,179252,5,10,0:0:0:0:
226,212,179421,2,0,L|308:219,1,82.5000025177003,2|2,1:2|1:2,0:0:0:0:
202,322,179758,1,10,0:0:0:0:
130,156,179927,2,0,L|122:238,1,82.5000025177003,2|0,1:2|1:2,0:0:0:0:
234,127,180263,1,10,0:0:0:0:
143,43,180432,6,0,L|60:35,1,82.5000025177003,2|2,1:2|1:2,0:0:0:0:
234,127,180769,2,0,L|316:119,1,82.5000025177003,8|2,0:0|1:2,0:0:0:0:
378,41,181106,1,2,1:2:0:0:
408,193,181275,1,14,0:0:0:0:
478,72,181443,1,2,1:2:0:0:
478,72,181612,2,0,B|495:102|495:102|487:190,1,123.75000377655,14|0,0:0|0:0,0:0:0:0:
475,232,181949,6,0,B|378:256|405:206|305:232,2,172.500003290176,6|10|2,1:2|0:0|1:2,0:0:0:0:
352,146,182792,1,0,1:2:0:0:
259,287,182960,2,0,P|197:300|144:265,1,129.375002467632,10|0,0:0|0:0,0:0:0:0:
120,229,183297,6,0,B|126:160|126:160|145:127|145:127|151:62,2,172.500003290176,2|10|2,1:2|0:0|1:2,0:0:0:0:
62,324,184140,1,0,1:2:0:0:
0,186,184308,2,0,L|85:193,1,86.2500016450882,8|2,0:0|0:0,0:0:0:0:
204,197,184646,5,14,0:0:0:0:
172,321,184814,1,0,1:2:0:0:
275,206,184983,5,12,0:0:0:0:
306,341,185151,1,2,1:2:0:0:
378,190,185320,5,14,0:0:0:0:
356,337,185488,1,0,1:2:0:0:
455,151,185657,5,12,0:0:0:0:
484,302,185825,1,2,0:0:0:0:
344,149,185994,6,0,P|303:134|261:138,1,86.2500016450882,4|2,1:2|1:2,0:0:0:0:
142,264,186331,2,0,P|184:268|224:253,1,86.2500016450882,10|2,0:3|1:2,0:0:0:0:
264,232,186584,1,0,1:2:0:0:
264,232,186668,2,0,P|264:210|257:190,1,43.1250008225441,8|0,0:3|1:2,0:0:0:0:
148,124,186837,2,0,P|140:145|141:166,1,43.1250008225441,10|8,0:3|0:3,0:0:0:0:
263,69,187005,2,0,P|247:53|228:44,1,43.1250008225441,10|0,0:3|1:2,0:0:0:0:
81,47,187174,1,10,0:3:0:0:
81,47,187258,1,8,0:3:0:0:
81,47,187342,6,0,P|62:89|60:136,1,93.75,6|2,1:2|0:0,0:0:0:0:
220,252,187679,2,0,P|239:210|241:163,1,93.75,10|0,0:0|0:0,0:0:0:0:
107,275,188016,1,8,0:0:0:0:
169,91,188185,1,0,1:2:0:0:
224,286,188353,1,8,0:0:0:0:
64,162,188522,1,0,1:2:0:0:
273,102,188690,6,0,L|264:195,1,93.75,8|2,0:0|0:0,0:0:0:0:
386,277,189028,2,0,L|377:183,1,93.75,8|2,0:0|1:2,0:0:0:0:
414,92,189365,1,8,0:0:0:0:
477,239,189533,1,0,1:2:0:0:
289,160,189702,1,10,0:0:0:0:
491,131,189870,1,2,1:2:0:0:
386,277,190039,6,0,B|346:300|346:300|205:288,1,187.5,14|8,0:0|0:0,0:0:0:0:
97,227,190544,1,2,0:0:0:0:
78,384,190713,2,0,P|124:382|162:357,1,93.75,8|0,0:0|1:2,0:0:0:0:
19,246,191050,2,0,P|-2:287|-1:333,1,93.75,8|0,0:0|1:2,0:0:0:0:
139,192,191387,6,0,L|147:285,1,93.75,8|2,0:0|0:0,0:0:0:0:
28,122,191724,2,0,L|19:215,1,93.75,8|0,0:0|1:2,0:0:0:0:
121,85,192061,1,10,0:0:0:0:
186,236,192230,1,2,1:2:0:0:
0,179,192398,1,10,0:0:0:0:
208,113,192567,1,2,1:2:0:0:
75,277,192735,5,14,0:0:0:0:
121,85,192904,1,2,0:0:0:0:
279,244,193072,2,0,L|185:235,1,93.75,10|0,0:0|0:0,0:0:0:0:
316,121,193410,1,10,0:0:0:0:
337,318,193578,1,2,1:2:0:0:
471,169,193747,2,0,L|377:178,1,93.75,8|2,0:0|1:2,0:0:0:0:
279,244,194084,5,10,0:0:0:0:
451,294,194252,1,2,0:0:0:0:
348,123,194421,2,0,L|356:216,1,93.75,10|2,0:0|1:2,0:0:0:0:
459,92,194758,1,10,0:0:0:0:
273,42,194926,1,0,1:2:0:0:
329,265,195095,2,0,L|337:171,1,93.75,8|0,0:0|1:2,0:0:0:0:
208,299,195432,5,14,0:0:0:0:
159,186,195601,1,0,1:2:0:0:
207,74,195769,1,8,0:0:0:0:
208,299,196106,5,10,0:0:0:0:
85,285,196275,1,0,1:2:0:0:
12,187,196443,1,10,0:0:0:0:
151,96,196780,6,0,L|158:185,1,89.9999972534181,10|2,0:0|1:2,0:0:0:0:
274,272,197117,2,0,L|281:186,1,86.2500016450882,10|0,0:3|1:2,0:0:0:0:
397,96,197454,1,10,0:3:0:0:
401,138,197539,1,8,0:3:0:0:
404,179,197623,1,8,0:3:0:0:
407,220,197707,1,8,0:3:0:0:
410,261,197792,2,0,B|380:278|380:278|296:271,1,118.124996395111,14|0,0:0|0:0,0:0:0:0:
249,278,198129,6,0,P|236:233|250:189,1,93.75,6|2,1:2|0:0,0:0:0:0:
330,103,198466,1,10,0:0:0:0:
351,239,198634,1,2,0:0:0:0:
245,112,198803,2,0,P|198:105|152:114,1,93.75,10|2,0:0|1:2,0:0:0:0:
53,253,199140,2,0,P|99:259|145:250,1,93.75,8|2,0:0|1:2,0:0:0:0:
32,132,199477,5,10,0:0:0:0:
21,303,199646,1,2,0:0:0:0:
177,196,199814,2,0,L|83:187,1,93.75,10|2,0:0|1:2,0:0:0:0:
141,343,200151,1,10,0:0:0:0:
218,171,200320,1,2,1:2:0:0:
301,356,200488,2,0,L|292:262,1,93.75,10|2,0:0|1:2,0:0:0:0:
390,142,200825,6,0,B|419:255|357:214|389:325,1,187.5,14|8,0:0|0:0,0:0:0:0:
292,262,201331,1,2,1:2:0:0:
292,262,201415,1,2,1:2:0:0:
292,262,201499,2,0,L|283:168,1,93.75,10|0,0:0|1:2,0:0:0:0:
489,118,201837,2,0,L|480:211,1,93.75,8|0,0:0|1:2,0:0:0:0:
355,57,202174,6,0,P|268:30|199:87,1,187.5,10|10,0:0|0:0,0:0:0:0:
270,228,202679,1,2,1:2:0:0:
270,228,202848,2,0,L|278:134,1,93.75,10|2,0:0|1:2,0:0:0:0:
159,198,203185,2,0,L|167:291,1,93.75,8|0,0:0|1:2,0:0:0:0:
89,144,203522,6,0,P|44:129|0:137,1,93.75,14|2,0:0|0:0,0:0:0:0:
73,257,203859,2,0,P|118:264|162:250,1,93.75,10|2,0:0|0:0,0:0:0:0:
262,103,204196,1,10,0:0:0:0:
89,144,204365,1,2,1:2:0:0:
267,270,204533,2,0,L|275:178,1,93.75,10|2,0:0|1:2,0:0:0:0:
99,54,204870,6,0,P|83:97|88:143,1,93.75,10|2,0:0|0:0,0:0:0:0:
225,54,205207,2,0,P|240:97|235:143,1,93.75,8|2,0:0|1:2,0:0:0:0:
157,295,205544,1,10,0:0:0:0:
52,190,205713,1,2,1:2:0:0:
236,148,205881,2,0,L|227:241,1,93.75,10|2,0:0|1:2,0:0:0:0:
370,181,206219,6,0,P|459:173|485:88,1,187.5,14|8,0:0|0:0,0:0:0:0:
356,0,206724,1,2,0:0:0:0:
273,159,206893,2,0,L|366:150,1,93.75,8|0,0:0|1:2,0:0:0:0:
255,57,207230,2,0,L|161:48,1,93.75,8|2,0:0|1:2,0:0:0:0:
67,110,207567,5,8,0:0:0:0:
77,275,207735,1,8,0:0:0:0:
184,129,207904,5,8,0:0:0:0:
136,295,208072,1,8,0:0:0:0:
226,164,208241,5,8,0:0:0:0:
240,329,208410,1,8,0:0:0:0:
342,168,208578,5,8,0:0:0:0:
289,345,208747,1,8,0:0:0:0:
109,61,213634,6,0,L|138:63,1,30,10|0,0:0|1:2,0:0:0:0:
247,147,213803,2,0,L|217:149,1,30,0|0,1:2|1:2,0:0:0:0:
106,203,213971,1,8,0:0:0:0:
106,203,214308,6,0,L|99:277,1,75,6|2,1:2|0:0,0:0:0:0:
212,358,214646,2,0,L|205:283,1,75,2|2,1:2|0:0,0:0:0:0:
282,183,214983,2,0,P|318:245|389:240,1,150,10|0,0:0|1:2,0:0:0:0:
463,139,215488,6,0,P|429:122|392:118,1,75,2|2,1:2|0:0,0:0:0:0:
270,58,215825,1,10,0:0:0:0:
270,58,215994,2,0,P|303:41|340:37,1,75,2|0,1:2|1:2,0:0:0:0:
188,154,216331,2,0,L|181:79,1,75,10|0,0:0|1:2,0:0:0:0:
92,11,216668,2,0,L|82:123,1,112.5,2|0,1:2|0:0,0:0:0:0:
75,165,217005,6,0,B|173:139|142:190|245:165,1,172.500003290176,6|8,1:2|0:0,0:0:0:0:
172,77,217511,1,2,0:0:0:0:
67,251,217679,2,0,L|152:243,1,86.2500016450882,2|0,1:2|1:2,0:0:0:0:
243,351,218016,2,0,L|157:343,1,86.2500016450882,10|0,0:0|0:0,0:0:0:0:
312,205,218353,6,0,B|317:272|317:272|334:300|334:300|341:372,1,172.500003290176,2|8,1:2|0:0,0:0:0:0:
244,246,218859,1,2,0:0:0:0:
404,345,219028,2,0,L|411:259,1,86.2500016450882,2|0,1:2|1:2,0:0:0:0:
505,174,219365,2,0,L|512:259,1,86.2500016450882,8|0,0:0|0:0,0:0:0:0:
402,151,219702,6,0,P|325:122|260:172,1,172.500003290176,2|10,1:2|0:0,0:0:0:0:
218,299,220207,1,2,0:0:0:0:
137,160,220376,2,0,L|222:167,1,86.2500016450882,2|0,1:2|1:2,0:0:0:0:
303,69,220713,2,0,L|217:76,1,86.2500016450882,10|0,0:0|0:0,0:0:0:0:
87,21,221050,6,0,B|67:59|67:59|78:187,2,172.500003290176,2|8|0,1:2|0:0|1:2,0:0:0:0:
210,136,221893,1,2,1:2:0:0:
210,136,222061,2,0,P|252:139|292:125,1,86.2500016450882,10|0,0:0|0:0,0:0:0:0:
362,35,222398,5,8,0:0:0:0:
379,162,222567,1,0,1:2:0:0:
455,40,222735,1,0,1:2:0:0:
512,174,222904,2,0,L|426:166,1,86.2500016450882,8|0,0:0|1:2,0:0:0:0:
290,251,223241,2,0,L|375:243,1,86.2500016450882,0|8,1:2|0:0,0:0:0:0:
512,328,223578,6,0,L|426:320,1,86.2500016450882,2|0,0:0|1:2,0:0:0:0:
337,363,223915,1,8,0:0:0:0:
307,218,224084,1,8,0:0:0:0:
239,335,224252,1,8,0:0:0:0:
402,287,224421,1,8,0:0:0:0:
223,216,224589,1,8,0:0:0:0:
279,382,224758,1,8,0:0:0:0:
387,206,224926,1,8,0:0:0:0:
387,206,225769,5,8,0:0:0:0:
387,206,225853,1,8,0:0:0:0:
387,206,225938,2,0,P|368:195|346:192,1,43.1250008225441,8|8,0:0|0:0,0:0:0:0:
242,281,226106,2,0,P|262:285|284:283,1,43.1250008225441,8|8,0:0|0:0,0:0:0:0:
212,154,226275,2,0,P|193:165|179:181,1,43.1250008225441,0|0,1:2|1:2,0:0:0:0:
135,303,226443,5,6,1:2:0:0:
111,152,226612,1,0,1:2:0:0:
33,242,226780,5,10,0:0:0:0:
57,91,226949,1,0,1:2:0:0:
170,214,227117,5,10,0:0:0:0:
139,60,227286,1,0,1:2:0:0:
252,198,227454,2,0,L|259:108,1,89.9999972534181,10|2,0:0|1:2,0:0:0:0:
365,33,227792,5,10,0:0:0:0:
365,33,227960,2,0,L|275:25,1,89.9999972534181,2|8,0:0|0:0,0:0:0:0:
357,131,228297,1,2,1:2:0:0:
474,14,228466,2,0,L|466:103,1,89.9999972534181,10|2,0:0|1:2,0:0:0:0:
451,209,228803,1,10,0:0:0:0:
365,33,228971,1,2,1:2:0:0:
369,228,229140,6,0,P|429:290|511:267,1,179.999994506836,14|8,0:0|0:0,0:0:0:0:
459,158,229646,1,2,0:0:0:0:
423,325,229814,1,10,0:0:0:0:
340,178,229983,1,0,1:2:0:0:
504,226,230151,1,8,0:0:0:0:
321,276,230320,1,0,1:2:0:0:
504,123,230488,6,0,B|525:156|525:156|513:295,1,179.999994506836,8|8,0:0|0:0,0:0:0:0:
416,372,230994,1,0,1:2:0:0:
416,372,231162,2,0,P|373:383|330:370,1,89.9999972534181,10|2,0:0|1:2,0:0:0:0:
416,258,231499,2,0,P|373:246|330:259,1,89.9999972534181,10|2,0:0|1:2,0:0:0:0:
239,380,231837,6,0,B|199:346|203:303|203:303|211:212,1,179.999994506836,14|8,0:0|0:0,0:0:0:0:
120,114,232342,1,2,0:0:0:0:
120,114,232511,2,0,L|127:203,1,89.9999972534181,10|0,0:0|1:2,0:0:0:0:
7,92,232848,2,0,L|0:181,1,89.9999972534181,8|0,0:0|1:2,0:0:0:0:
12,325,233185,6,0,P|69:262|148:292,1,179.999994506836,10|8,0:0|0:0,0:0:0:0:
97,384,233690,1,2,1:2:0:0:
32,215,233859,1,10,0:0:0:0:
206,269,234028,1,0,1:2:0:0:
12,325,234196,2,0,L|101:317,1,89.9999972534181,10|0,0:0|1:2,0:0:0:0:
139,192,234533,5,14,0:0:0:0:
245,241,234702,1,2,1:2:0:0:
251,357,234870,1,10,0:0:0:0:
139,192,235207,5,10,0:0:0:0:
234,124,235376,1,2,1:2:0:0:
337,177,235544,1,10,0:0:0:0:
139,192,235881,5,10,0:0:0:0:
127,75,236050,1,0,1:2:0:0:
225,13,236219,2,0,B|244:51|244:51|234:165,1,157.499995193482,10|0,0:3|0:0,0:0:0:0:
232,191,236556,6,0,P|282:242|336:194,1,157.499995193482,10|0,0:3|0:0,0:0:0:0:
352,171,236893,6,0,B|380:152|380:152|245:141,1,168.750006437302,14|0,0:0|0:0,0:0:0:0:
200,135,237230,5,6,1:2:0:0:
171,284,237398,1,2,1:2:0:0:
256,199,237567,5,10,0:0:0:0:
272,335,237735,1,0,1:2:0:0:
372,235,237904,5,10,0:0:0:0:
349,379,238072,1,0,1:2:0:0:
475,253,238241,2,0,L|385:260,1,89.9999972534181,10|2,0:0|1:2,0:0:0:0:
294,154,238578,6,0,L|384:162,1,89.9999972534181,8|2,0:0|0:0,0:0:0:0:
471,63,238915,2,0,L|382:71,1,89.9999972534181,8|2,0:0|1:2,0:0:0:0:
512,134,239252,1,10,0:0:0:0:
380,210,239421,1,2,1:2:0:0:
430,33,239589,1,10,0:0:0:0:
512,205,239758,1,2,1:2:0:0:
346,95,239926,6,0,B|339:168|339:168|319:199|319:199|313:267,1,179.999994506836,14|8,0:0|0:0,0:0:0:0:
192,351,240432,1,2,0:0:0:0:
192,351,240601,2,0,P|180:307|185:263,1,89.9999972534181,10|0,0:0|1:2,0:0:0:0:
320,181,240938,2,0,P|325:225|313:268,1,89.9999972534181,8|0,0:0|1:2,0:0:0:0:
207,136,241275,6,0,B|173:114|173:114|33:127,1,179.999994506836,8|8,0:0|0:0,0:0:0:0:
150,216,241780,1,0,1:2:0:0:
81,50,241949,1,10,0:0:0:0:
53,239,242117,1,2,1:2:0:0:
172,76,242286,1,10,0:0:0:0:
228,230,242454,1,2,1:2:0:0:
318,76,242623,6,0,P|244:120|171:75,1,179.999994506836,14|8,0:0|0:0,0:0:0:0:
54,170,243129,1,2,1:2:0:0:
54,170,243297,2,0,L|143:162,1,89.9999972534181,10|0,0:0|1:2,0:0:0:0:
238,277,243634,2,0,L|148:269,1,89.9999972534181,8|0,0:0|1:2,0:0:0:0:
0,347,243971,6,0,B|111:319|66:373|176:347,1,179.999994506836,10|8,0:0|0:0,0:0:0:0:
260,257,244477,1,2,1:2:0:0:
265,384,244646,1,10,0:0:0:0:
127,255,244814,1,0,1:2:0:0:
304,233,244983,1,8,0:0:0:0:
179,373,245151,1,2,1:2:0:0:
208,184,245320,6,0,B|241:163|241:163|381:176,1,179.999994506836,14|10,0:0|0:0,0:0:0:0:
443,304,245825,1,2,0:0:0:0:
443,304,245994,2,0,P|461:263|457:219,1,89.9999972534181,8|2,0:0|1:2,0:0:0:0:
332,304,246331,2,0,P|313:263|317:219,1,89.9999972534181,8|2,0:0|0:0,0:0:0:0:
445,120,246668,5,0,1:2:0:0:
349,25,246837,1,0,1:2:0:0:
349,25,246921,1,0,1:2:0:0:
349,25,247005,1,10,0:0:0:0:
234,137,247174,2,0,L|230:92,2,44.999998626709,0|0|10,1:2|1:2|0:0,0:0:0:0:
141,44,247511,2,0,L|144:-1,2,44.999998626709,2|0|10,1:2|1:2|0:0,0:0:0:0:
53,137,247848,1,8,0:0:0:0:
53,137,247932,1,8,0:0:0:0:
53,137,248016,6,0,B|46:207|46:207|28:238|28:238|21:311,1,179.999994506836,6|10,1:2|0:0,0:0:0:0:
111,269,248522,1,2,0:0:0:0:
111,269,248690,2,0,P|154:279|197:267,1,89.9999972534181,0|2,1:2|1:2,0:0:0:0:
263,166,249028,2,0,P|228:138|184:131,1,89.9999972534181,8|2,0:0|0:0,0:0:0:0:
277,305,249365,5,2,1:2:0:0:
345,146,249533,1,2,0:0:0:0:
403,314,249702,2,0,L|410:224,1,89.9999972534181,10|0,0:0|1:2,0:0:0:0:
495,152,250039,2,0,L|502:241,1,89.9999972534181,2|0,0:0|1:2,0:0:0:0:
456,354,250376,2,0,B|424:371|424:371|325:362,1,134.999995880127,10|0,0:0|0:0,0:0:0:0:
281,349,250713,6,0,P|236:293|308:295,1,179.999994506836,2|10,1:2|0:0,0:0:0:0:
171,375,251219,2,0,P|155:333|155:288,1,89.9999972534181,2|0,0:0|1:2,0:0:0:0:
80,180,251556,2,0,P|79:224|64:266,1,89.9999972534181,2|8,1:2|0:0,0:0:0:0:
12,345,251893,1,2,0:0:0:0:
0,208,252061,5,2,1:2:0:0:
90,312,252230,1,2,0:0:0:0:
121,152,252398,2,0,P|82:129|38:132,1,89.9999972534181,10|0,0:0|1:2,0:0:0:0:
180,244,252735,2,0,P|224:240|258:212,1,89.9999972534181,2|0,0:0|1:2,0:0:0:0:
356,91,253072,2,0,L|367:225,1,134.999995880127,10|0,0:0|0:0,0:0:0:0:
400,257,253410,6,0,B|423:287|423:287|411:145,1,179.999994506836,2|10,1:2|0:0,0:0:0:0:
352,38,253915,1,2,0:0:0:0:
352,38,254084,2,0,L|262:45,1,89.9999972534181,0|2,1:2|1:2,0:0:0:0:
136,125,254421,2,0,L|225:132,1,89.9999972534181,8|2,0:0|0:0,0:0:0:0:
91,38,254758,6,0,P|39:107|62:191,2,179.999994506836,0|10|2,1:2|0:0|0:0,0:0:0:0:
187,140,255601,1,0,1:2:0:0:
17,219,255769,2,0,L|9:130,1,89.9999972534181,10|0,0:0|0:0,0:0:0:0:
125,240,256106,6,0,B|164:265|164:265|296:254,1,179.999994506836,2|8,1:2|0:0,0:0:0:0:
194,163,256612,1,2,0:0:0:0:
224,324,256780,1,0,1:2:0:0:
303,178,256949,1,2,1:2:0:0:
341,339,257117,1,8,0:0:0:0:
386,176,257286,6,0,P|342:103|256:108,1,179.999994506836,0|0,1:2|1:2,0:0:0:0:
179,194,257792,1,8,0:0:0:0:
109,73,257960,2,0,L|198:80,1,89.9999972534181,2|0,0:0|1:2,0:0:0:0:
308,0,258297,2,0,L|218:7,1,89.9999972534181,0|10,1:2|0:0,0:0:0:0:
336,100,258634,1,8,0:3:0:0:
336,100,258719,1,8,0:3:0:0:
336,100,258803,6,0,B|343:170|343:170|361:201|361:201|368:274,1,179.999994506836,6|10,1:2|0:0,0:0:0:0:
270,359,259308,2,0,P|261:315|272:271,1,89.9999972534181,2|0,0:0|1:2,0:0:0:0:
402,359,259646,2,0,P|410:315|399:271,1,89.9999972534181,2|8,1:2|0:0,0:0:0:0:
334,188,259983,1,2,1:2:0:0:
270,359,260151,5,8,0:0:0:0:
229,162,260320,1,8,0:0:0:0:
229,162,260994,6,0,L|191:165,2,37.5,0|0|10,1:2|1:2|0:0,0:0:0:0:
382,68,261499,6,0,L|390:161,1,93.75,14|0,0:0|1:2,0:0:0:0:
183,258,261837,2,0,L|191:164,1,93.75,10|0,0:0|1:2,0:0:0:0:
386,269,262174,2,0,L|292:277,1,93.75,10|0,0:0|1:2,0:0:0:0:
196,70,262512,2,0,L|289:78,1,93.75,10|2,0:0|1:2,0:0:0:0:
183,258,262848,5,10,0:0:0:0:
97,75,263016,2,0,P|73:115|71:161,1,93.75,2|8,1:2|0:0,0:0:0:0:
222,38,263353,1,2,1:2:0:0:
197,210,263522,1,10,0:0:0:0:
79,51,263690,1,2,1:2:0:0:
268,133,263859,1,10,0:0:0:0:
72,190,264028,1,2,1:2:0:0:
253,13,264196,6,0,B|275:50|275:50|263:193,1,187.5,14|8,0:0|0:0,0:0:0:0:
197,302,264702,1,2,0:0:0:0:
108,146,264870,2,0,L|201:154,1,93.75,10|0,0:0|1:2,0:0:0:0:
93,260,265207,2,0,L|0:268,1,93.75,8|0,0:0|1:2,0:0:0:0:
201,154,265544,6,0,B|223:266|169:218|200:337,2,187.5,10|8|10,0:0|0:0|0:0,0:0:0:0:
288,279,266387,1,2,1:2:0:0:
107,198,266556,1,10,0:0:0:0:
281,152,266724,1,2,1:2:0:0:
137,276,266893,6,0,P|49:259|27:173,1,187.5,14|8,0:0|0:0,0:0:0:0:
131,57,267398,1,2,0:0:0:0:
200,212,267567,2,0,L|208:118,1,93.75,10|0,0:0|1:2,0:0:0:0:
317,34,267904,2,0,L|325:127,1,93.75,8|0,0:0|1:2,0:0:0:0:
467,252,268241,6,0,B|397:245|397:245|359:261|359:261|283:254,1,187.5,10|8,0:0|0:0,0:0:0:0:
196,344,268747,1,2,1:2:0:0:
196,344,268915,2,0,P|239:359|284:348,1,93.75,10|0,0:0|1:2,0:0:0:0:
196,221,269252,2,0,P|239:205|284:216,1,93.75,10|0,0:0|1:2,0:0:0:0:
356,321,269589,5,10,0:0:0:0:
309,134,269758,1,2,1:2:0:0:
203,314,269926,2,0,L|195:220,1,93.75,10|0,0:0|0:0,0:0:0:0:
146,121,270263,5,10,0:0:0:0:
96,307,270432,1,2,1:2:0:0:
7,125,270600,2,0,L|-1:219,1,93.75,10|0,0:0|1:2,0:0:0:0:
186,146,270938,6,0,L|279:137,1,93.75,10|0,0:0|1:2,0:0:0:0:
93,53,271275,2,0,L|-1:44,1,93.75,10|2,0:0|0:0,0:0:0:0:
39,187,271612,1,10,0:0:0:0:
67,225,271696,1,8,0:0:0:0:
109,245,271780,1,8,0:0:0:0:
155,244,271865,1,8,0:0:0:0:
196,221,271949,1,10,0:0:0:0:
265,105,272117,1,8,0:0:0:0:
265,105,272202,1,8,0:0:0:0:
265,105,272286,6,0,L|273:198,1,93.75,14|0,0:0|1:2,0:0:0:0:
419,304,272623,2,0,L|427:210,1,93.75,10|0,0:0|1:2,0:0:0:0:
253,286,272960,2,0,L|346:277,1,93.75,10|0,0:0|1:2,0:0:0:0:
452,132,273297,2,0,L|358:123,1,93.75,10|2,0:0|1:2,0:0:0:0:
273,198,273634,5,10,0:0:0:0:
209,44,273803,2,0,P|253:29|298:40,1,93.75,2|8,0:0|0:0,0:0:0:0:
188,164,274140,1,2,1:2:0:0:
358,123,274308,1,10,0:0:0:0:
205,16,274477,1,2,1:2:0:0:
273,198,274646,1,10,0:0:0:0:
330,15,274814,1,2,1:2:0:0:
139,123,274983,6,0,B|105:152|105:152|247:139,1,187.5,14|10,0:0|0:0,0:0:0:0:
356,204,275488,1,2,0:0:0:0:
189,278,275657,2,0,P|173:234|181:188,1,93.75,10|0,0:0|1:2,0:0:0:0:
304,332,275994,2,0,P|319:288|311:242,1,93.75,8|0,0:0|1:2,0:0:0:0:
224,372,276331,6,0,P|134:360|91:281,2,187.5,8|8|10,0:0|0:0|0:0,0:0:0:0:
173,230,277174,1,2,1:2:0:0:
95,384,277342,1,10,0:0:0:0:
52,200,277511,1,2,1:2:0:0:
203,317,277679,6,0,B|226:281|226:281|214:137,1,187.5,14|8,0:0|0:0,0:0:0:0:
132,0,278185,1,2,0:0:0:0:
49,163,278353,2,0,L|142:154,1,93.75,8|0,0:0|1:2,0:0:0:0:
262,41,278690,2,0,L|168:32,1,93.75,8|0,0:0|1:2,0:0:0:0:
271,169,279028,6,0,P|328:103|411:133,1,187.5,10|8,0:0|0:0,0:0:0:0:
392,231,279533,1,2,1:2:0:0:
298,85,279702,1,10,0:0:0:0:
270,274,279870,1,0,1:2:0:0:
399,145,280039,2,0,P|442:163|470:200,1,93.75,8|0,0:0|1:2,0:0:0:0:
316,372,280376,6,0,B|322:302|322:302|306:264|306:264|313:188,1,187.5,14|8,0:0|0:0,0:0:0:0:
222,317,280881,1,0,1:2:0:0:
183,169,281050,2,0,L|276:177,1,93.75,10|0,0:0|1:2,0:0:0:0:
131,270,281387,2,0,L|38:278,1,93.75,8|0,0:0|1:2,0:0:0:0:
103,143,281724,5,8,0:0:0:0:
128,104,281808,1,8,0:0:0:0:
170,85,281893,1,8,0:0:0:0:
216,91,281977,1,8,0:0:0:0:
252,121,282061,1,8,0:0:0:0:
216,247,282230,5,0,1:2:0:0:
216,247,282314,1,0,1:2:0:0:
216,247,282398,2,0,L|262:251,1,46.875,10|0,0:0|1:2,0:0:0:0:
384,169,282567,2,0,L|337:173,1,46.875,2|0,1:2|1:2,0:0:0:0:
216,91,282735,2,0,L|262:95,1,46.875,10|0,0:0|1:2,0:0:0:0:
384,13,282904,1,8,0:0:0:0:
384,13,282988,1,8,0:0:0:0:
384,13,283072,6,0,B|357:78|409:152|409:152|462:234|349:351|349:351|306:276|221:276|221:276|210:156|324:230|358:29|208:-6|148:56|148:56|40:9|-66:153|83:274|117:181|149:266,1,1268.9999806366,6|0,1:2|0:0,0:0:0:0:
