osu file format v14

[General]
AudioFilename: audio.mp3
AudioLeadIn: 0
PreviewTime: 201703
Countdown: 0
SampleSet: Soft
StackLeniency: 0.7
Mode: 2
LetterboxInBreaks: 0
WidescreenStoryboard: 1

[Editor]
Bookmarks: 41440,66703,161440,202493,268809
DistanceSpacing: 1.3
BeatDivisor: 6
GridSize: 8
TimelineZoom: 1.2

[Metadata]
Title:Homura
TitleUnicode:炎
Artist:LiSA
ArtistUnicode:LiSA
Creator:Secre
Version:Salad
Source:劇場版「鬼滅の刃」無限列車編
Tags:chickenbible HeTo Demon Slayer Kimetsu no Yaiba the Movie Mugen Train Ressha-hen Ressha hen Japanese anime movie jpop pop j-pop ed ending 梶浦由記 Yuki Kajiura 煉獄杏寿郎 Rengoku Kyojuro
BeatmapID:2985500
BeatmapSetID:1397428

[Difficulty]
HPDrainRate:3
CircleSize:3.5
OverallDifficulty:6.3
ApproachRate:6.3
SliderMultiplier:3.19
SliderTickRate:2

[Events]
//Background and Video events
0,0,"pain peko.jpg",0,0
//Break Periods
//Storyboard Layer 0 (Background)
//Storyboard Layer 1 (Fail)
//Storyboard Layer 2 (Pass)
//Storyboard Layer 3 (Foreground)
//Storyboard Layer 4 (Overlay)
//Storyboard Sound Samples

[TimingPoints]
388,789.473684210526,4,2,5,30,1,0
388,-100,4,2,5,30,0,0
6703,-100,4,2,5,30,0,0
13414,-100,4,2,5,20,0,0
15387,-100,4,2,5,20,0,0
16177,-100,4,2,5,30,0,0
39466,-100,4,2,5,30,0,0
39565,-100,4,2,5,5,0,0
39664,-100,4,2,5,30,0,0
39762,-100,4,2,5,5,0,0
39861,-100,4,2,5,55,0,0
41440,-100,4,2,5,50,0,0
46078,-100,4,2,5,5,0,0
46177,-100,4,2,5,50,0,0
50815,-100,4,2,5,5,0,0
50914,-100,4,2,5,50,0,0
63052,-100,4,2,5,5,0,0
63151,-100,4,2,5,65,0,0
63841,-100,4,2,5,5,0,0
63940,-100,4,2,5,65,0,0
65420,-100,4,2,5,5,0,0
65519,-100,4,2,5,65,0,0
66703,-100,4,2,5,70,0,1
75684,-100,4,2,5,5,0,1
75782,-100,4,2,5,70,0,1
76473,-100,4,2,5,5,0,1
76572,-100,4,2,5,70,0,1
83973,-100,4,2,5,5,0,1
84072,-100,4,2,5,70,0,1
85947,-100,4,2,5,5,0,1
86045,-100,4,2,5,70,0,1
89894,-100,4,2,5,5,0,1
89993,-100,4,2,5,70,0,1
90684,-100,4,2,5,5,0,1
90782,-100,4,2,5,70,0,1
91966,-100,4,2,5,60,0,0
92361,-100,4,2,5,50,0,0
93545,-100,4,2,5,60,0,0
94335,-100,4,2,5,40,0,0
95124,-100,4,2,5,30,0,0
101440,-100,4,2,5,30,0,0
107756,-100,4,2,5,20,0,0
110124,-100,4,2,5,20,0,0
110914,-100,4,2,5,30,0,0
134499,-100,4,2,5,5,0,0
134598,-100,4,2,5,55,0,0
134993,-100,4,2,5,55,0,0
136177,-100,4,2,5,50,0,0
157197,-100,4,2,5,5,0,0
157295,-100,4,2,5,50,0,0
157493,-100,4,2,5,50,0,0
157789,-100,4,2,5,5,0,0
157887,-100,4,2,5,60,0,0
158578,-100,4,2,5,5,0,0
158677,-100,4,2,5,60,0,0
161440,-100,4,2,5,70,0,1
167262,-100,4,2,5,5,0,1
167361,-100,4,2,5,70,0,1
172789,-100,4,2,5,5,0,1
172887,-100,4,2,5,70,0,1
174072,-100,4,2,5,70,0,1
186605,-100,4,2,5,5,0,1
186703,-100,4,2,5,70,0,1
189466,-100,4,2,5,30,0,1
189762,-100,4,2,5,5,0,1
189861,-100,4,2,5,40,0,0
192920,-100,4,2,5,5,0,0
193019,-100,4,2,5,35,0,0
197361,-100,4,2,5,35,0,0
199236,-100,4,2,5,5,0,0
199335,-100,4,2,5,65,0,0
202493,-100,4,2,5,70,0,1
211473,-100,4,2,5,5,0,1
211572,-100,4,2,5,70,0,1
219762,-100,4,2,5,5,0,1
219861,-100,4,2,5,70,0,1
220947,-100,4,2,5,5,0,1
221045,-100,4,2,5,70,0,1
221736,-100,4,2,5,5,0,1
221835,-100,4,2,5,70,0,1
224499,-100,4,2,5,5,0,1
224598,-100,4,2,5,70,0,1
226473,-100,4,2,5,5,0,1
226572,-100,4,2,5,70,0,1
227756,-100,4,2,5,70,0,1
230815,-100,4,2,5,5,0,1
230914,-100,4,2,5,70,0,1
235749,-100,4,2,5,5,0,1
236045,-100,4,2,5,70,0,1
237131,-100,4,2,5,5,0,1
237230,-100,4,2,5,70,0,1
239105,-100,4,2,5,5,0,1
239203,-100,4,2,5,70,0,1
240387,-100,4,2,5,60,0,0
241868,-100,4,2,5,5,0,0
241966,-100,4,2,5,60,0,0
243545,-100,4,2,5,25,0,0
252920,-100,4,2,5,5,0,0
253019,-100,4,2,5,25,0,0
256177,-100,4,2,5,35,0,0
260519,-100,4,2,5,35,0,0
262493,-100,4,2,5,25,0,0
265651,-100,4,2,5,15,0,0
268809,-100,4,2,5,5,0,0

[Colours]
Combo1 : 253,219,128
Combo2 : 192,192,192
Combo3 : 255,115,47
Combo4 : 176,0,0

[HitObjects]
139,285,388,6,0,P|80:241|206:95,1,319,2|0,0:0|0:0,0:0:0:0:
397,208,1966,2,0,P|193:183|128:76,1,319,2|0,0:0|0:0,0:0:0:0:
392,292,3545,6,0,P|452:260|280:42,2,478.5,2|2|0,0:0|0:0|0:0,0:0:0:0:
90,239,6703,6,0,L|268:258,1,159.5,2|2,0:0|0:0,0:0:0:0:
105,263,7493,2,0,P|56:218|108:147,1,159.5,2|2,0:0|0:0,0:0:0:0:
376,214,8282,2,0,L|394:40,1,159.5,2|2,0:0|0:0,0:0:0:0:
226,65,9072,2,0,L|56:111,1,159.5,2|2,0:0|0:0,0:0:0:0:
354,233,9861,6,0,L|345:69,1,159.5,2|2,0:0|0:0,0:0:0:0:
264,75,10453,1,0,0:0:0:0:
346,73,10651,1,2,0:0:0:0:
85,259,11045,2,0,P|33:232|216:51,1,478.5,2|0,0:0|0:0,0:0:0:0:
409,152,13414,6,0,B|411:343|411:343|288:344|287:344|285:142|286:68|300:62|134:80,1,638,2|2,0:0|0:0,0:0:0:0:
232,140,15190,1,0,0:0:0:0:
156,138,15387,1,8,0:1:0:0:
319,167,15782,2,0,L|400:103,1,79.75
216,288,16177,6,0,P|169:210|224:174,1,159.5,2|0,1:2|0:0,0:0:0:0:
289,160,16769,2,0,P|297:77|148:48,1,239.25,2|0,0:0|0:0,0:0:0:0:
444,250,17756,6,0,L|448:43,1,159.5,2|0,1:2|0:0,0:0:0:0:
368,106,18348,2,0,P|355:21|492:-27,1,239.25,2|2,0:0|0:0,0:0:0:0:
189,218,19335,6,0,L|182:10,1,159.5,2|2,1:2|0:0,0:0:0:0:
269,59,19927,2,0,L|81:65,1,159.5
273,212,20519,6,0,L|469:214,1,159.5,2|0,1:2|0:0,0:0:0:0:
278,131,21309,2,0,L|76:128,1,159.5,2|2,0:0|0:0,0:0:0:0:
270,217,22098,2,0,L|160:215,1,79.75,2|2,0:0|0:0,0:0:0:0:
354,300,22493,6,0,L|362:130,1,159.5,2|2,1:2|0:0,0:0:0:0:
286,131,23085,2,0,L|113:126,1,159.5,2|0,0:0|0:0,0:0:0:0:
204,207,23677,1,2,0:0:0:0:
475,246,24072,6,0,L|301:245,2,159.5,2|2|0,0:0|0:0|0:0,0:0:0:0:
325,162,25256,2,0,L|418:162,1,79.75,2|2,0:0|0:0,0:0:0:0:
247,251,25651,6,0,P|208:177|274:131,1,159.5,2|2,1:2|0:0,0:0:0:0:
334,137,26243,2,0,L|156:140,1,159.5,2|0,0:0|0:0,0:0:0:0:
330,237,26835,6,0,L|330:57,1,159.5,2|0,1:2|0:0,0:0:0:0:
171,116,27624,2,0,L|334:112,2,159.5,2|2|0,0:0|0:0|0:0,0:0:0:0:
443,278,28809,6,0,L|454:66,1,159.5,2|2,1:2|0:0,0:0:0:0:
369,108,29401,1,2,0:0:0:0:
448,104,29598,2,0,L|455:-7,1,79.75,2|0,0:0|0:0,0:0:0:0:
369,108,29993,1,2,0:0:0:0:
81,229,30387,6,0,L|75:35,1,159.5,2|2,0:0|0:0,0:0:0:0:
153,57,30980,1,2,0:0:0:0:
83,57,31177,2,0,L|72:-37,1,79.75,2|0,1:2|0:0,0:0:0:0:
153,57,31572,2,0,L|63:59,1,79.75,2|2,0:0|0:0,0:0:0:0:
240,207,31966,6,0,L|424:201,1,159.5,2|2,1:2|0:0,0:0:0:0:
320,151,32559,2,0,L|310:50,1,79.75,2|8,0:0|0:1,0:0:0:0:
389,60,32953,1,0,0:0:0:0:
226,207,33151,6,0,L|28:199,1,159.5,2|0,1:2|0:0,0:0:0:0:
221,201,33940,2,0,L|224:102,1,79.75,2|0,0:0|0:0,0:0:0:0:
147,102,34335,1,2,0:0:0:0:
301,64,34730,2,0,L|402:61,1,79.75,2|2,0:0|0:0,0:0:0:0:
223,218,35124,6,0,P|174:147|252:109,1,159.5,2|2,1:2|0:0,0:0:0:0:
293,105,35716,2,0,L|98:109,1,159.5,2|0,0:0|0:0,0:0:0:0:
211,174,36309,2,0,L|104:173,1,79.75,2|0,1:2|0:0,0:0:0:0:
297,249,36703,6,0,L|498:247,1,159.5,2|2,0:0|0:0,0:0:0:0:
378,197,37295,2,0,P|328:138|399:97,1,159.5,2|0,0:0|0:0,0:0:0:0:
456,99,37887,2,0,L|461:0,1,79.75,2|2,0:0|0:0,0:0:0:0:
295,73,38282,6,0,L|116:75,1,159.5,2|2,1:2|0:0,0:0:0:0:
212,162,38874,2,0,P|266:98|195:78,1,159.5,2|0,0:0|0:0,0:0:0:0:
141,103,39466,2,0,L|136:13,1,79.75,2|2,0:0|0:0,0:0:0:0:
298,99,39861,6,0,L|300:-7,1,79.75,12|0,0:0|0:0,0:0:0:0:
219,41,40256,2,0,L|211:-64,1,79.75,8|0,0:3|0:0,0:0:0:0:
376,85,40651,2,0,L|381:-19,1,79.75,8|4,0:3|0:3,0:0:0:0:
301,24,41045,2,0,L|403:28,1,79.75,8|2,0:3|0:0,0:0:0:0:
203,146,41440,6,0,L|30:148,1,159.5,6|2,1:2|0:0,0:0:0:0:
203,146,42230,2,0,L|30:148,1,159.5,10|2,0:0|0:0,0:0:0:0:
329,249,43019,6,0,L|514:245,1,159.5,2|2,1:2|1:2,0:0:0:0:
329,249,43809,2,0,L|514:245,1,159.5,10|2,0:0|0:0,0:0:0:0:
189,190,44598,6,0,L|188:-7,1,159.5,2|2,1:2|0:0,0:0:0:0:
268,30,45190,1,0,1:2:0:0:
190,44,45387,2,0,L|184:-44,1,79.75,8|0,0:0|0:0,0:0:0:0:
268,30,45782,2,0,L|363:26,1,79.75,2|0,0:0|0:0,0:0:0:0:
187,190,46177,6,0,L|173:4,1,159.5,2|2,1:2|1:2,0:0:0:0:
327,50,46966,2,0,L|138:52,1,159.5,10|2,0:0|0:0,0:0:0:0:
454,101,47756,6,0,L|468:299,1,159.5,2|2,1:2|0:0,0:0:0:0:
311,292,48545,2,0,L|483:287,1,159.5,10|2,0:0|0:0,0:0:0:0:
305,288,49335,6,0,L|121:283,1,159.5,2|0,1:2|1:2,0:0:0:0:
292,289,50124,2,0,L|466:282,1,159.5,10|6,0:0|0:0,0:0:0:0:
158,229,50914,6,0,L|148:43,1,159.5,0|2,1:2|0:0,0:0:0:0:
229,56,51506,1,0,1:0:0:0:
154,63,51703,2,0,L|58:65,1,79.75,8|0,0:0|0:0,0:0:0:0:
154,63,52098,2,0,L|239:60,1,79.75,2|0,0:0|0:0,0:0:0:0:
70,210,52493,6,0,L|56:11,1,159.5,2|2,1:2|1:2,0:0:0:0:
138,40,53085,1,2,0:0:0:0:
57,60,53282,2,0,L|45:-37,1,79.75,10|0,0:0|0:0,0:0:0:0:
136,57,53677,1,0,0:0:0:0:
56,59,53874,1,0,0:0:0:0:
223,177,54072,6,0,L|410:177,1,159.5,6|0,1:2|0:0,0:0:0:0:
298,122,54664,2,0,L|124:119,1,159.5,2|2,1:2|0:0,0:0:0:0:
223,184,55256,1,0,0:0:0:0:
224,104,55453,1,0,0:0:0:0:
146,126,55651,6,0,P|143:47|265:25,1,159.5,2|0,1:2|1:2,0:0:0:0:
283,41,56243,2,0,L|86:48,1,159.5,2|0,0:0|0:0,0:0:0:0:
201,128,56835,1,0,0:0:0:0:
121,126,57032,1,0,0:0:0:0:
304,219,57230,6,0,L|483:219,1,159.5,2|0,1:2|0:0,0:0:0:0:
375,167,57822,2,0,P|378:83|484:83,1,159.5,2|2,1:2|0:0,0:0:0:0:
359,69,58414,2,0,L|260:72,1,79.75,2|2,0:0|0:0,0:0:0:0:
361,146,58809,6,0,P|418:83|331:52,1,159.5,2|0,1:2|1:2,0:0:0:0:
301,76,59401,2,0,L|487:80,1,159.5,2|0,0:0|0:0,0:0:0:0:
379,156,59993,1,0,0:0:0:0:
458,154,60190,1,0,0:0:0:0:
283,214,60387,6,0,L|99:214,1,159.5,2|0,1:2|0:0,0:0:0:0:
317,235,61177,2,0,L|501:232,1,159.5,10|2,0:0|0:0,0:0:0:0:
384,166,61769,1,2,0:0:0:0:
217,190,61966,6,0,L|214:13,1,159.5,2|2,1:2|1:2,0:0:0:0:
368,13,62756,2,0,L|463:13,1,79.75,10|0,0:0|0:0,0:0:0:0:
286,106,63151,6,0,L|116:108,1,159.5,6|0,1:2|0:0,0:0:0:0:
279,127,63940,2,0,L|280:22,1,79.75,4|0,0:3|0:0,0:0:0:0:
120,99,64335,2,0,L|112:-11,1,79.75,14|0,0:0|0:0,0:0:0:0:
194,18,64730,2,0,L|99:18,1,79.75,0|0,1:2|1:2,0:0:0:0:
287,123,65124,6,0,L|463:123,1,159.5,14|8,0:0|0:0,0:0:0:0:
162,235,65914,2,0,L|155:136,1,79.75,0|12,1:2|0:3,0:0:0:0:
323,132,66309,2,0,L|432:125,1,79.75,4|4,0:3|0:3,0:0:0:0:
234,72,66703,6,0,L|56:80,1,159.5,6|0,1:2|0:0,0:0:0:0:
231,165,67493,2,0,L|233:78,1,79.75,10|2,0:0|0:0,0:0:0:0:
153,95,67887,2,0,L|147:2,1,79.75,2|2,0:0|0:0,0:0:0:0:
320,66,68282,6,0,L|507:62,1,159.5,2|0,1:2|1:2,0:0:0:0:
322,206,69072,1,10,0:0:0:0:
315,128,69269,1,2,0:0:0:0:
364,68,69466,1,2,0:0:0:0:
441,58,69664,1,2,0:0:0:0:
274,114,69861,6,0,L|102:114,1,159.5,2|2,1:2|1:2,0:0:0:0:
201,191,70453,2,0,P|245:122|177:90,1,159.5,2|0,0:0|0:0,0:0:0:0:
116,120,71045,2,0,L|109:35,1,79.75,2|2,0:0|0:0,0:0:0:0:
278,101,71440,6,0,L|478:103,1,159.5,0|0,1:2|1:2,0:0:0:0:
278,101,72230,2,0,L|478:103,1,159.5,8|2,0:0|0:0,0:0:0:0:
352,167,72822,1,2,0:0:0:0:
186,172,73019,6,0,L|6:177,1,159.5,2|2,1:2|1:2,0:0:0:0:
110,113,73611,2,0,L|111:25,1,79.75,2|8,0:0|0:0,0:0:0:0:
32,34,74006,1,2,0:0:0:0:
320,117,74401,1,2,0:0:0:0:
247,112,74598,6,0,L|241:14,1,79.75,2|0,1:2|0:0,0:0:0:0:
318,42,74993,2,0,L|323:-43,1,79.75,2|0,1:2|0:0,0:0:0:0:
158,73,75387,2,0,L|61:76,1,79.75,10|0,0:0|0:0,0:0:0:0:
252,178,75782,6,0,L|446:177,2,159.5,6|0|2,1:2|0:0|1:2,0:0:0:0:
96,172,76966,2,0,L|196:170,1,79.75,10|2,0:0|0:0,0:0:0:0:
250,102,77361,2,0,L|258:275,1,159.5,2|14,1:2|1:2,0:0:0:0:
109,184,78151,5,0,1:2:0:0:
392,165,78545,2,0,L|400:58,1,79.75,10|8,0:0|0:3,0:0:0:0:
231,116,78940,2,0,L|227:26,1,79.75,4|4,0:3|0:3,0:0:0:0:
416,92,79335,6,0,L|436:272,1,159.5,6|0,1:2|0:0,0:0:0:0:
282,248,80124,2,0,L|276:156,1,79.75,10|2,0:0|0:0,0:0:0:0:
354,160,80519,2,0,L|359:64,1,79.75,2|2,0:0|0:0,0:0:0:0:
193,64,80914,6,0,L|21:65,1,159.5,2|0,1:2|1:2,0:0:0:0:
193,64,81703,2,0,L|21:65,1,159.5,10|2,0:0|0:0,0:0:0:0:
117,133,82295,1,2,0:0:0:0:
279,194,82493,6,0,L|283:16,1,159.5,2|2,1:2|1:2,0:0:0:0:
206,52,83085,2,0,L|404:53,1,159.5,2|0,0:0|0:0,0:0:0:0:
275,127,83677,2,0,L|156:130,1,79.75,2|0,0:0|0:0,0:0:0:0:
347,240,84072,6,0,L|346:69,1,159.5,2|2,1:2|1:2,0:0:0:0:
184,76,84861,1,10,0:0:0:0:
503,76,85256,6,0,L|503:244,1,159.5,6|0,1:2|0:0,0:0:0:0:
316,231,86045,1,2,1:2:0:0:
62,268,86440,2,0,L|60:43,1,159.5,10|2,0:0|0:0,0:0:0:0:
155,95,87032,1,2,0:0:0:0:
340,221,87230,6,0,P|389:157|312:117,1,159.5,2|2,1:2|1:2,0:0:0:0:
269,107,87822,1,2,0:0:0:0:
361,112,88019,2,0,L|365:-2,1,79.75,10|0,0:0|0:0,0:0:0:0:
277,23,88414,2,0,L|369:21,1,79.75,2|2,0:0|0:0,0:0:0:0:
201,177,88809,6,0,P|152:109|221:84,1,159.5,2|2,1:2|0:0,0:0:0:0:
277,89,89401,2,0,L|64:89,1,159.5,2|0,0:0|0:0,0:0:0:0:
286,225,89993,6,0,L|445:226,2,159.5,6|0|0,1:2|0:0|1:2,0:0:0:0:
208,180,90980,1,8,0:3:0:0:
288,148,91177,2,0,L|291:37,1,79.75,4|4,0:3|0:3,0:0:0:0:
213,52,91572,2,0,L|112:53,1,79.75,0|0,1:2|0:0,0:0:0:0:
304,191,91966,6,0,L|493:191,1,159.5,6|2,1:2|0:0,0:0:0:0:
268,115,92756,2,0,L|89:113,1,159.5,2|2,0:0|0:0,0:0:0:0:
396,238,93545,6,0,L|406:65,1,159.5,6|2,1:2|0:0,0:0:0:0:
253,75,94335,2,0,L|438:68,1,159.5,2|0,0:0|0:0,0:0:0:0:
249,260,95124,6,0,P|156:210|256:59,1,319,2|2,0:0|0:0,0:0:0:0:
350,133,96309,1,2,0:0:0:0:
188,175,96703,6,0,L|372:170,1,159.5,2|0,0:0|0:0,0:0:0:0:
224,88,97493,2,0,L|35:89,1,159.5,2|2,0:0|0:0,0:0:0:0:
348,230,98282,6,0,L|359:28,1,159.5,2|2,0:0|0:0,0:0:0:0:
218,123,99072,2,0,L|208:26,1,79.75,2|0,0:0|0:0,0:0:0:0:
290,34,99466,6,0,P|375:75|248:249,1,319,2|0,0:0|0:0,0:0:0:0:
182,187,100651,2,0,L|391:180,1,159.5,2|2,0:0|0:0,0:0:0:0:
56,238,101440,6,0,L|42:44,1,159.5,2|2,1:2|0:0,0:0:0:0:
195,93,102230,2,0,L|24:103,1,159.5,8|0,0:1|3:0,0:0:0:0:
337,219,103019,6,0,L|348:41,1,159.5,2|0,1:2|0:0,0:0:0:0:
192,110,103809,2,0,L|169:-68,1,159.5,8|2,0:1|0:0,0:0:0:0:
443,159,104598,6,0,L|235:152,1,159.5,2|2,1:2|0:0,0:0:0:0:
430,105,105387,2,0,L|437:-5,1,79.75,8|0,0:1|0:0,0:0:0:0:
269,151,105782,6,0,P|250:59|392:205,1,638,2|0,1:2|0:0,0:0:0:0:
256,192,107756,12,0,109730,0:0:0:0:
250,196,110124,6,0,L|242:94,1,79.75,0|2,0:0|0:0,0:0:0:0:
321,103,110519,1,2,0:0:0:0:
47,242,110914,6,0,L|39:48,1,159.5,2|2,1:2|0:0,0:0:0:0:
133,73,111506,1,2,0:0:0:0:
224,73,111703,2,0,L|403:72,1,159.5,8|0,0:1|1:2,0:0:0:0:
206,221,112493,6,0,L|199:58,1,159.5,2|2,0:0|0:0,0:0:0:0:
282,54,113085,1,0,0:0:0:0:
201,51,113282,2,0,L|20:57,1,159.5,8|0,0:1|0:0,0:0:0:0:
313,203,114072,6,0,L|322:31,1,159.5,0|0,1:2|0:0,0:0:0:0:
246,47,114664,2,0,L|457:48,1,159.5,2|0,0:0|0:0,0:0:0:0:
326,113,115256,1,2,1:2:0:0:
179,130,115651,1,0,0:0:0:0:
326,113,116045,6,0,L|503:108,1,159.5,2|8,0:0|0:1,0:0:0:0:
331,184,116835,2,0,L|416:183,1,79.75,2|0,0:0|0:0,0:0:0:0:
251,246,117230,6,0,L|80:246,1,159.5,2|2,1:2|0:0,0:0:0:0:
171,184,117822,2,0,L|357:184,1,159.5,2|0,0:0|0:0,0:0:0:0:
241,231,118414,1,0,1:2:0:0:
395,190,118809,6,0,L|401:-10,1,159.5,2|2,0:0|0:0,0:0:0:0:
261,45,119598,2,0,L|442:53,1,159.5,8|2,0:1|0:0,0:0:0:0:
341,109,120190,1,2,0:0:0:0:
166,178,120387,6,0,L|162:-3,1,159.5,2|2,1:2|0:0,0:0:0:0:
247,28,120980,2,0,L|52:31,1,159.5,2|0,0:0|0:0,0:0:0:0:
166,94,121572,1,0,1:2:0:0:
323,97,121966,5,0,0:0:0:0:
166,94,122361,2,0,L|345:92,2,159.5,2|8|2,0:0|0:1|0:0,0:0:0:0:
431,267,123545,6,0,L|438:71,1,159.5,6|2,1:2|0:0,0:0:0:0:
357,108,124137,1,2,0:0:0:0:
434,103,124335,2,0,L|440:299,1,159.5,8|0,0:1|1:2,0:0:0:0:
286,297,125124,6,0,L|463:291,1,159.5,2|2,0:0|0:0,0:0:0:0:
366,234,125716,1,2,0:0:0:0:
443,214,125914,2,0,L|446:35,1,159.5,8|0,0:1|0:0,0:0:0:0:
166,123,126703,6,0,L|360:124,2,159.5,2|2|8,1:2|0:0|0:1,0:0:0:0:
428,286,127887,2,0,L|437:75,1,159.5,2|0,1:2|0:0,0:0:0:0:
293,133,128677,6,0,L|470:135,1,159.5,2|8,0:0|0:1,0:0:0:0:
310,230,129466,2,0,L|206:225,1,79.75,2|2,0:0|0:0,0:0:0:0:
395,260,129861,6,0,L|407:70,1,159.5,2|2,1:2|0:0,0:0:0:0:
334,92,130453,2,0,L|144:90,2,159.5,2|2|2,0:0|0:0|0:0,0:0:0:0:
248,159,131440,6,0,L|74:160,1,159.5,2|2,0:0|0:0,0:0:0:0:
248,159,132230,2,0,L|74:160,1,159.5,8|2,0:1|0:0,0:0:0:0:
168,235,132822,1,2,0:0:0:0:
337,253,133019,6,0,L|512:249,1,159.5,2|2,1:2|0:0,0:0:0:0:
413,196,133611,2,0,L|252:192,1,159.5,2|2,0:0|0:0,0:0:0:0:
336,133,134203,1,2,1:2:0:0:
64,222,134598,6,0,L|49:22,1,159.5,14|8,0:0|0:3,0:0:0:0:
346,109,135387,2,0,L|162:108,1,159.5,8|4,1:2|0:3,0:0:0:0:
270,190,135980,1,4,0:3:0:0:
440,56,136177,6,0,L|444:220,1,159.5,6|2,1:2|0:0,0:0:0:0:
296,146,136967,2,0,L|469:148,1,159.5,10|2,0:0|0:0,0:0:0:0:
183,249,137756,6,0,L|-2:245,1,159.5,2|2,1:2|1:2,0:0:0:0:
183,249,138546,2,0,L|-2:245,1,159.5,10|2,0:0|0:0,0:0:0:0:
323,190,139335,6,0,L|324:-7,1,159.5,2|2,1:2|0:0,0:0:0:0:
244,30,139927,1,0,1:2:0:0:
322,44,140124,2,0,L|328:-44,1,79.75,8|0,0:0|0:0,0:0:0:0:
244,30,140519,2,0,L|149:26,1,79.75,2|2,0:0|0:0,0:0:0:0:
325,190,140914,6,0,L|339:4,1,159.5,2|2,1:2|1:2,0:0:0:0:
185,50,141703,2,0,L|374:52,1,159.5,8|2,0:0|0:0,0:0:0:0:
58,101,142493,6,0,L|44:299,1,159.5,2|2,1:2|0:0,0:0:0:0:
201,292,143282,2,0,L|29:287,1,159.5,10|2,0:0|0:0,0:0:0:0:
354,229,144072,6,0,L|355:39,1,159.5,2|2,1:2|1:2,0:0:0:0:
200,285,144861,2,0,L|26:278,1,159.5,10|0,0:0|0:0,0:0:0:0:
354,229,145651,6,0,L|364:43,1,159.5,2|2,1:2|0:0,0:0:0:0:
283,56,146243,1,0,1:2:0:0:
358,63,146440,2,0,L|454:65,1,79.75,8|0,0:0|0:0,0:0:0:0:
358,63,146835,2,0,L|273:60,1,79.75,2|2,0:0|0:0,0:0:0:0:
442,210,147230,6,0,L|456:11,1,159.5,2|2,1:2|1:2,0:0:0:0:
374,40,147822,1,2,0:0:0:0:
455,60,148019,2,0,L|467:-37,1,79.75,10|0,0:0|0:0,0:0:0:0:
376,57,148414,2,0,L|479:60,1,79.75,6|2,1:2|0:0,0:0:0:0:
289,177,148809,6,0,L|102:177,1,159.5,6|0,1:2|0:0,0:0:0:0:
214,122,149401,2,0,L|388:119,1,159.5,2|2,1:2|0:0,0:0:0:0:
289,184,149993,1,0,0:0:0:0:
287,104,150190,1,0,0:0:0:0:
366,126,150388,6,0,P|369:47|247:25,1,159.5,2|0,1:2|1:2,0:0:0:0:
229,41,150980,2,0,L|426:48,1,159.5,2|2,0:0|0:0,0:0:0:0:
311,128,151572,1,0,0:0:0:0:
390,126,151769,1,0,0:0:0:0:
208,219,151967,6,0,L|29:219,1,159.5,2|0,1:2|0:0,0:0:0:0:
137,167,152559,2,0,P|134:83|28:83,1,159.5,2|2,1:2|0:0,0:0:0:0:
153,69,153151,1,0,0:0:0:0:
232,71,153348,1,0,0:0:0:0:
151,146,153546,6,0,P|94:83|181:52,1,159.5,2|0,1:2|1:2,0:0:0:0:
211,76,154138,2,0,L|25:80,1,159.5,2|0,0:0|0:0,0:0:0:0:
133,156,154730,1,0,0:0:0:0:
53,154,154927,1,0,0:0:0:0:
229,214,155124,6,0,L|413:214,1,159.5,2|2,1:2|0:0,0:0:0:0:
195,235,155914,2,0,L|11:232,1,159.5,14|0,0:0|0:0,0:0:0:0:
127,167,156506,1,2,0:0:0:0:
316,175,156703,6,0,L|328:-2,1,159.5,2|2,1:2|1:2,0:0:0:0:
143,86,157493,2,0,L|64:87,1,79.75,14|0,0:0|0:0,0:0:0:0:
226,106,157888,6,0,L|396:108,1,159.5,6|0,1:2|0:0,0:0:0:0:
233,127,158677,2,0,L|232:22,1,79.75,8|0,0:3|0:0,0:0:0:0:
392,99,159072,2,0,L|400:-11,1,79.75,14|2,0:0|0:0,0:0:0:0:
318,18,159467,2,0,L|413:18,1,79.75,2|0,1:2|0:0,0:0:0:0:
225,123,159861,6,0,L|49:123,1,159.5,14|8,0:0|0:0,0:0:0:0:
148,206,160453,1,8,0:0:0:0:
328,176,160651,2,0,L|332:92,1,53.1666666666667,12|12,0:3|0:3,0:0:0:0:
274,94,160914,1,12,0:3:0:0:
213,82,161045,2,0,L|209:9,1,53.1666666666667,0|0,1:2|1:2,0:0:0:0:
276,13,161309,1,0,1:2:0:0:
410,50,161440,6,0,L|410:259,1,159.5,6|0,1:2|0:0,0:0:0:0:
326,222,162032,1,0,0:0:0:0:
410,213,162230,1,8,0:0:0:0:
138,136,162624,6,0,L|354:140,2,159.5,2|0|0,0:0|1:2|1:2,0:0:0:0:
308,143,163809,2,0,L|508:137,1,159.5,10|2,0:0|0:0,0:0:0:0:
175,181,164598,5,0,1:0:0:0:
321,124,164993,2,0,L|106:122,2,159.5,2|10|2,0:0|0:0|0:0,0:0:0:0:
51,254,166177,6,0,L|39:67,1,159.5,2|0,1:2|1:2,0:0:0:0:
126,83,166769,1,0,1:2:0:0:
292,102,166966,2,0,L|301:6,1,79.75,14|0,0:0|0:0,0:0:0:0:
215,13,167361,2,0,L|118:15,1,79.75,2|2,1:2|0:0,0:0:0:0:
307,138,167756,6,0,L|474:135,1,159.5,6|0,1:2|0:0,0:0:0:0:
383,204,168348,1,0,0:0:0:0:
466,196,168545,1,14,0:0:0:0:
178,136,168940,6,0,L|394:137,2,159.5,2|0|0,0:0|1:2|1:2,0:0:0:0:
339,206,170124,2,0,L|129:206,1,159.5,10|2,0:0|0:0,0:0:0:0:
267,147,170716,1,0,0:0:0:0:
440,121,170914,6,0,L|444:26,1,79.75,6|8,1:2|0:0,0:0:0:0:
363,35,171309,2,0,L|244:36,1,79.75,0|0,0:0|1:2,0:0:0:0:
451,83,171703,2,0,L|466:269,1,159.5,12|0,0:0|1:2,0:0:0:0:
380,253,172295,1,0,1:2:0:0:
216,205,172493,6,0,L|206:113,1,79.75,14|0,0:0|0:0,0:0:0:0:
288,117,172887,2,0,L|292:24,1,79.75,8|0,0:3|0:0,0:0:0:0:
122,180,173282,1,10,0:0:0:0:
55,144,173479,1,8,0:3:0:0:
59,69,173676,1,8,0:3:0:0:
129,41,173874,1,0,1:2:0:0:
299,137,174072,6,0,L|506:135,1,159.5,6|2,1:2|0:0,0:0:0:0:
377,198,174664,2,0,L|373:103,1,79.75,2|8,0:0|0:0,0:0:0:0:
460,106,175059,2,0,L|459:9,1,79.75,2|0,0:0|0:0,0:0:0:0:
375,39,175453,1,2,0:0:0:0:
208,113,175651,6,0,L|208:295,1,159.5,2|2,1:2|1:2,0:0:0:0:
352,227,176440,1,8,0:0:0:0:
64,207,176835,6,0,L|49:1,1,159.5,6|0,1:2|0:0,0:0:0:0:
135,37,177427,1,0,0:0:0:0:
299,126,177624,2,0,L|303:20,1,79.75,2|0,1:2|0:0,0:0:0:0:
216,50,178019,2,0,L|202:-52,1,79.75,10|0,0:0|0:0,0:0:0:0:
294,98,178414,2,0,L|296:7,1,79.75,2|0,0:0|0:0,0:0:0:0:
130,148,178809,5,0,1:2:0:0:
264,106,179203,2,0,L|271:9,1,79.75,2|2,1:2|0:0,0:0:0:0:
187,27,179598,2,0,L|22:31,1,159.5,10|2,0:0|0:0,0:0:0:0:
113,97,180190,1,0,1:2:0:0:
283,167,180387,6,0,L|456:164,1,159.5,6|2,1:2|0:0,0:0:0:0:
245,72,181177,2,0,L|73:77,1,159.5,10|2,0:0|0:0,0:0:0:0:
172,165,181769,1,2,0:0:0:0:
256,144,181966,6,0,L|261:320,1,159.5,2|2,1:2|1:2,0:0:0:0:
107,302,182756,2,0,L|294:302,1,159.5,10|2,0:0|1:2,0:0:0:0:
186,240,183348,1,2,0:0:0:0:
21,200,183545,6,0,L|16:30,1,159.5,6|2,1:2|0:0,0:0:0:0:
170,37,184335,1,10,0:0:0:0:
19,111,184730,2,0,L|201:114,1,159.5,2|0,0:0|1:2,0:0:0:0:
41,205,185519,6,0,L|39:97,1,79.75,2|0,1:2|0:0,0:0:0:0:
128,118,185914,2,0,L|294:122,1,159.5,10|2,0:0|1:2,0:0:0:0:
376,135,186506,1,0,0:0:0:0:
202,211,186703,6,0,L|198:46,1,159.5,6|2,1:2|0:0,0:0:0:0:
339,65,187493,2,0,L|137:68,1,159.5,8|0,0:0|0:0,0:0:0:0:
454,100,188282,6,0,L|465:292,1,159.5,0|0,1:2|1:2,0:0:0:0:
317,288,189072,2,0,L|520:288,1,159.5,8|4,0:0|0:0,0:0:0:0:
397,224,189664,1,0,0:0:0:0:
230,185,189861,5,6,0:0:0:0:
256,192,190256,12,0,192624,0:0:0:0:
184,189,193019,6,0,L|178:27,1,159.5,2|0,1:2|0:0,0:0:0:0:
320,47,193809,2,0,L|125:50,1,159.5,2|2,3:0|0:0,0:0:0:0:
306,199,194598,6,0,L|497:198,1,159.5,2|2,1:2|0:0,0:0:0:0:
290,136,195387,2,0,L|126:136,1,159.5,2|2,3:0|0:0,0:0:0:0:
421,207,196177,6,0,L|420:13,1,159.5,2|2,1:2|0:0,0:0:0:0:
343,49,196769,1,0,0:0:0:0:
417,54,196966,2,0,L|422:-44,1,79.75,2|0,3:0|0:0,0:0:0:0:
256,171,197361,6,0,P|204:96|445:146,1,638,2|0,0:0|0:0,0:0:0:0:
176,206,199335,6,0,L|172:88,1,79.75,14|8,0:0|0:0,0:0:0:0:
255,107,199730,2,0,L|378:108,1,79.75,0|0,1:2|1:2,0:0:0:0:
161,140,200124,2,0,L|154:24,1,79.75,10|0,0:0|1:2,0:0:0:0:
236,47,200519,2,0,L|237:-47,1,79.75,0|8,1:2|0:3,0:0:0:0:
155,78,200914,6,0,L|143:-24,1,79.75,0|0,1:2|1:2,0:0:0:0:
311,69,201309,2,0,L|422:71,1,79.75,10|2,0:0|1:2,0:0:0:0:
218,151,201703,2,0,L|121:148,1,79.75,8|4,0:3|0:3,0:0:0:0:
218,151,202098,2,0,L|226:50,1,79.75,4|4,0:3|0:3,0:0:0:0:
56,209,202493,6,0,L|45:33,1,159.5,6|0,1:2|0:0,0:0:0:0:
193,177,203282,2,0,L|192:78,1,79.75,10|2,0:0|0:0,0:0:0:0:
110,100,203677,2,0,L|104:-1,1,79.75,2|2,0:0|0:0,0:0:0:0:
271,90,204072,6,0,L|440:88,1,159.5,2|0,1:2|1:2,0:0:0:0:
271,237,204861,2,0,L|268:142,1,79.75,10|2,0:0|0:0,0:0:0:0:
352,147,205256,2,0,L|354:51,1,79.75,2|2,0:0|0:0,0:0:0:0:
186,72,205651,6,0,L|20:74,1,159.5,2|2,1:2|0:0,0:0:0:0:
117,152,206243,2,0,L|287:149,1,159.5,2|2,0:0|0:0,0:0:0:0:
183,95,206835,2,0,L|175:9,1,79.75,2|2,0:0|0:0,0:0:0:0:
332,60,207230,6,0,L|500:58,1,159.5,0|0,1:2|1:2,0:0:0:0:
407,131,207822,1,0,1:2:0:0:
241,160,208019,2,0,L|231:62,1,79.75,12|0,0:0|0:0,0:0:0:0:
314,67,208414,2,0,L|422:66,1,79.75,2|2,1:2|0:0,0:0:0:0:
232,187,208809,6,0,L|67:190,1,159.5,6|2,1:2|1:2,0:0:0:0:
161,247,209401,2,0,L|161:162,1,79.75,2|8,0:0|0:0,0:0:0:0:
82,167,209795,2,0,L|78:74,1,79.75,2|2,0:0|0:0,0:0:0:0:
154,83,210190,6,0,L|321:82,1,159.5,2|2,0:0|0:0,0:0:0:0:
231,165,210782,2,0,L|221:73,1,79.75,0|0,1:2|0:0,0:0:0:0:
385,120,211177,2,0,L|391:31,1,79.75,10|0,0:0|0:0,0:0:0:0:
226,57,211572,6,0,L|34:65,1,159.5,6|0,1:2|0:0,0:0:0:0:
220,168,212361,2,0,L|218:67,1,79.75,2|0,1:2|0:0,0:0:0:0:
136,111,212756,2,0,L|121:24,1,79.75,10|2,0:0|0:0,0:0:0:0:
283,67,213151,6,0,L|463:66,2,159.5,2|0|0,0:0|1:2|1:2,0:0:0:0:
128,164,214335,2,0,L|128:73,1,79.75,14|8,0:0|0:3,0:0:0:0:
209,80,214730,2,0,L|109:78,1,79.75,4|4,0:3|0:3,0:0:0:0:
298,183,215124,6,0,L|489:184,1,159.5,6|0,1:2|0:0,0:0:0:0:
298,240,215914,2,0,L|291:142,1,79.75,10|2,0:0|0:0,0:0:0:0:
376,141,216309,2,0,L|378:32,1,79.75,2|2,0:0|0:0,0:0:0:0:
214,67,216703,6,0,L|42:74,2,159.5,2|0|10,1:2|1:2|0:0,0:0:0:0:
366,158,217887,2,0,L|377:73,1,79.75,2|2,0:0|0:0,0:0:0:0:
215,117,218282,6,0,L|213:331,1,159.5,2|2,1:2|0:0,0:0:0:0:
296,270,218874,2,0,L|111:273,1,159.5,2|0,0:0|0:0,0:0:0:0:
222,219,219466,2,0,L|224:122,1,79.75,2|0,0:0|0:0,0:0:0:0:
60,164,219861,6,0,L|53:-3,1,159.5,2|4,1:2|0:3,0:0:0:0:
108,19,220387,1,4,0:3:0:0:
164,18,220519,1,4,0:3:0:0:
218,120,220651,2,0,L|217:28,1,79.75,2|0,1:2|0:0,0:0:0:0:
54,191,221045,6,0,L|39:18,1,159.5,6|0,1:2|0:0,0:0:0:0:
204,108,221835,2,0,L|21:110,2,159.5,2|10|2,1:2|0:0|0:0,0:0:0:0:
359,149,223019,6,0,L|369:353,1,159.5,2|2,1:2|1:2,0:0:0:0:
287,309,223611,2,0,L|468:307,1,159.5,2|0,0:0|0:0,0:0:0:0:
363,248,224203,2,0,L|248:245,1,79.75,2|0,1:2|0:0,0:0:0:0:
444,220,224598,6,0,L|447:40,1,159.5,6|8,1:2|0:3,0:0:0:0:
365,58,225190,2,0,L|358:-51,1,79.75,8|0,0:3|1:2,0:0:0:0:
442,7,225585,1,0,0:0:0:0:
275,137,225782,6,0,L|86:141,1,159.5,6|0,1:2|0:0,0:0:0:0:
271,194,226572,2,0,L|273:81,1,79.75,0|0,1:2|1:2,0:0:0:0:
194,98,226966,1,8,0:0:0:0:
337,112,227361,2,0,L|344:6,1,79.75,0|0,1:2|0:0,0:0:0:0:
176,41,227756,5,4,1:2:0:0:
328,148,228151,2,0,L|138:145,2,159.5,2|10|2,0:0|0:0|1:2,0:0:0:0:
52,286,229335,6,0,L|43:86,1,159.5,2|2,1:2|1:2,0:0:0:0:
122,116,229927,2,0,L|301:111,1,159.5,2|0,0:0|0:0,0:0:0:0:
199,184,230519,2,0,L|83:190,1,79.75,2|0,1:2|0:0,0:0:0:0:
287,251,230914,6,0,L|475:245,1,159.5,6|2,1:2|0:0,0:0:0:0:
367,192,231506,2,0,L|358:93,1,79.75,2|8,0:0|0:0,0:0:0:0:
438,89,231901,1,2,0:0:0:0:
354,83,232098,2,0,L|238:88,1,79.75,2|0,0:0|1:2,0:0:0:0:
439,134,232493,6,0,L|452:319,1,159.5,0|0,1:2|1:2,0:0:0:0:
366,307,233085,1,0,0:0:0:0:
189,264,233282,2,0,L|176:97,1,159.5,8|0,0:0|1:2,0:0:0:0:
267,81,233874,1,2,0:0:0:0:
436,114,234072,5,6,1:2:0:0:
291,178,234466,2,0,L|462:180,2,159.5,2|10|2,0:0|0:0|0:0,0:0:0:0:
136,264,235651,6,0,L|129:74,1,159.5,2|2,1:2|1:2,0:0:0:0:
210,90,236243,2,0,L|24:93,1,159.5,2|0,0:0|0:0,0:0:0:0:
134,158,236835,1,2,1:2:0:0:
421,235,237230,6,0,L|417:53,1,159.5,2|2,1:2|0:0,0:0:0:0:
284,108,238019,2,0,L|271:8,1,79.75,10|2,0:0|0:0,0:0:0:0:
443,33,238414,6,0,L|458:210,1,159.5,6|0,1:2|0:0,0:0:0:0:
299,247,239203,2,0,L|294:147,1,79.75,8|0,0:3|0:0,0:0:0:0:
379,138,239598,2,0,L|380:35,1,79.75,8|0,0:3|0:0,0:0:0:0:
299,62,239993,2,0,L|291:-40,1,79.75,0|0,1:2|0:0,0:0:0:0:
459,52,240387,6,0,L|472:254,1,159.5,6|2,1:2|0:0,0:0:0:0:
329,288,241177,2,0,L|494:284,1,159.5,2|2,0:0|0:0,0:0:0:0:
206,196,241966,6,0,L|23:197,1,159.5,6|0,1:2|0:0,0:0:0:0:
206,196,242756,2,0,L|23:197,1,159.5
336,279,243545,6,0,P|411:237|298:88,1,319,2|0,0:0|0:0,0:0:0:0:
179,122,244730,1,0,0:0:0:0:
316,89,245124,6,0,L|329:284,1,159.5,2|0,0:0|0:0,0:0:0:0:
184,270,245914,2,0,L|382:264,1,159.5
61,220,246703,6,0,L|55:29,1,159.5,2|2,0:0|0:0,0:0:0:0:
198,101,247493,2,0,L|207:211,1,79.75,2|0,0:0|0:0,0:0:0:0:
124,238,247887,6,0,P|124:148|302:192,1,319,2|0,0:0|0:0,0:0:0:0:
153,236,249072,2,0,L|141:41,1,159.5,2|0,0:0|0:0,0:0:0:0:
446,62,249861,6,0,P|468:146|273:251,1,319,2|0,0:0|0:0,0:0:0:0:
431,156,251045,1,2,0:0:0:0:
144,172,251440,6,0,L|132:-9,1,159.5,2|0,0:0|0:0,0:0:0:0:
275,43,252230,2,0,L|84:47,1,159.5,2|2,0:0|0:0,0:0:0:0:
422,64,253019,6,0,L|428:249,1,159.5,2|2,0:0|0:0,0:0:0:0:
270,259,253809,2,0,L|260:171,1,79.75,2|2,0:0|0:0,0:0:0:0:
422,202,254203,6,0,P|433:120|221:98,1,319,2|2,0:0|0:0,0:0:0:0:
399,156,255387,2,0,L|401:-12,1,159.5,2|2,0:0|0:0,0:0:0:0:
316,47,255980,1,0,0:0:0:0:
146,185,256177,6,0,L|145:-1,1,159.5,2|2,1:2|0:0,0:0:0:0:
286,81,256966,2,0,L|92:84,1,159.5,2|0,0:0|1:2,0:0:0:0:
426,104,257756,6,0,L|430:283,1,159.5,2|2,1:2|0:0,0:0:0:0:
270,199,258545,2,0,L|89:200,1,159.5,8|2,0:1|0:0,0:0:0:0:
411,273,259335,6,0,L|414:81,1,159.5,0|2,1:2|0:0,0:0:0:0:
331,96,259927,1,0,0:0:0:0:
412,85,260124,2,0,L|418:188,1,79.75,2|0,0:0|0:0,0:0:0:0:
249,221,260519,5,4,1:2:0:0:
256,192,260914,12,0,268809,0:0:0:0:
