osu file format v14

[General]
AudioFilename: audio.mp3
AudioLeadIn: 0
PreviewTime: 201703
Countdown: 0
SampleSet: Soft
StackLeniency: 0.7
Mode: 2
LetterboxInBreaks: 0
WidescreenStoryboard: 1

[Editor]
Bookmarks: 41440,66703,161440,202493,268809
DistanceSpacing: 1.3
BeatDivisor: 8
GridSize: 8
TimelineZoom: 1.2

[Metadata]
Title:Homura
TitleUnicode:炎
Artist:LiSA
ArtistUnicode:LiSA
Creator:Secre
Version:Purgatory
Source:劇場版「鬼滅の刃」無限列車編
Tags:chickenbible HeTo Demon Slayer Kimetsu no Yaiba the Movie Mugen Train Ressha-hen Ressha hen Japanese anime movie jpop pop j-pop ed ending 梶浦由記 Yuki Kajiura 煉獄杏寿郎 Rengoku Kyojuro
BeatmapID:2883811
BeatmapSetID:1397428

[Difficulty]
HPDrainRate:5
CircleSize:4.1
OverallDifficulty:8.3
ApproachRate:8.3
SliderMultiplier:3.19
SliderTickRate:4

[Events]
//Background and Video events
0,0,"pain peko.jpg",0,0
//Break Periods
//Storyboard Layer 0 (Background)
//Storyboard Layer 1 (Fail)
//Storyboard Layer 2 (Pass)
//Storyboard Layer 3 (Foreground)
//Storyboard Layer 4 (Overlay)
//Storyboard Sound Samples

[TimingPoints]
388,789.473684210526,4,2,5,30,1,0
388,-100,4,2,5,30,0,0
6703,-100,4,2,5,30,0,0
13414,-100,4,2,5,20,0,0
15387,-100,4,2,5,20,0,0
16177,-100,4,2,5,30,0,0
39466,-100,4,2,5,30,0,0
39664,-100,4,2,5,30,0,0
39861,-100,4,2,5,55,0,0
41440,-100,4,2,5,50,0,0
46177,-100,4,2,5,50,0,0
50914,-100,4,2,5,50,0,0
63151,-100,4,2,5,65,0,0
63940,-100,4,2,5,65,0,0
65519,-100,4,2,5,65,0,0
66703,-80,4,2,5,70,0,1
75782,-80,4,2,5,70,0,1
76572,-80,4,2,5,70,0,1
84072,-80,4,2,5,70,0,1
86045,-80,4,2,5,70,0,1
89993,-80,4,2,5,70,0,1
90782,-80,4,2,5,70,0,1
91966,-100,4,2,5,60,0,0
92361,-100,4,2,5,50,0,0
93545,-100,4,2,5,60,0,0
94335,-100,4,2,5,40,0,0
95124,-100,4,2,5,30,0,0
101440,-100,4,2,5,30,0,0
107756,-100,4,2,5,20,0,0
110124,-100,4,2,5,20,0,0
110914,-100,4,2,5,30,0,0
134598,-100,4,2,5,55,0,0
134993,-100,4,2,5,55,0,0
136177,-100,4,2,5,50,0,0
157295,-100,4,2,5,50,0,0
157493,-100,4,2,5,50,0,0
157887,-100,4,2,5,60,0,0
158677,-100,4,2,5,60,0,0
161440,-80,4,2,5,70,0,1
167361,-80,4,2,5,70,0,1
172887,-80,4,2,5,70,0,1
174072,-80,4,2,5,70,0,1
186703,-80,4,2,5,70,0,1
189466,-80,4,2,5,30,0,1
189861,-100,4,2,5,40,0,0
193019,-100,4,2,5,35,0,0
197361,-100,4,2,5,35,0,0
199335,-100,4,2,5,65,0,0
202493,-80,4,2,5,70,0,1
211572,-80,4,2,5,70,0,1
219861,-80,4,2,5,70,0,1
221045,-80,4,2,5,70,0,1
221835,-80,4,2,5,70,0,1
224598,-80,4,2,5,70,0,1
226572,-80,4,2,5,70,0,1
227756,-80,4,2,5,70,0,1
230914,-80,4,2,5,70,0,1
236045,-80,4,2,5,70,0,1
237230,-80,4,2,5,70,0,1
239203,-80,4,2,5,70,0,1
240387,-100,4,2,5,60,0,0
241966,-100,4,2,5,60,0,0
243545,-100,4,2,5,25,0,0
253019,-100,4,2,5,25,0,0
256177,-100,4,2,5,35,0,0
260519,-100,4,2,5,35,0,0
262493,-100,4,2,5,25,0,0
265651,-100,4,2,5,15,0,0
268809,-100,4,2,5,5,0,0

[Colours]
Combo1 : 253,219,128
Combo2 : 192,192,192
Combo3 : 255,115,47
Combo4 : 176,0,0

[HitObjects]
373,285,388,6,0,P|432:241|306:95,1,319,2|0,0:0|0:0,0:0:0:0:
115,208,1966,2,0,P|319:183|384:76,1,319,2|0,0:0|0:0,0:0:0:0:
120,292,3545,6,0,P|60:260|232:42,2,478.5,2|2|0,0:0|0:0|0:0,0:0:0:0:
422,239,6703,6,0,L|244:258,1,159.5,2|2,0:0|0:0,0:0:0:0:
407,263,7493,2,0,P|456:218|404:147,1,159.5,2|2,0:0|0:0,0:0:0:0:
136,214,8282,2,0,L|118:40,1,159.5,2|2,0:0|0:0,0:0:0:0:
286,65,9072,2,0,L|456:111,1,159.5,2|2,0:0|0:0,0:0:0:0:
158,233,9861,6,0,L|167:69,1,159.5,2|2,0:0|0:0,0:0:0:0:
248,75,10453,1,0,0:0:0:0:
166,73,10651,1,2,0:0:0:0:
427,259,11045,2,0,P|479:232|296:51,1,478.5,2|0,0:0|0:0,0:0:0:0:
103,152,13414,6,0,B|101:343|101:343|224:344|225:344|227:142|226:68|212:62|378:80,1,638,2|2,0:0|0:0,0:0:0:0:
280,140,15190,1,0,0:0:0:0:
356,138,15387,1,8,0:1:0:0:
126,217,15782,2,0,L|118:112,1,79.75
262,75,16177,6,0,P|312:101|250:171,1,159.5,2|0,1:2|0:0,0:0:0:0:
194,202,16769,2,0,L|379:196,1,159.5,2|0,0:0|0:0,0:0:0:0:
263,147,17361,2,0,L|255:37,1,79.75
401,73,17756,6,0,P|456:93|403:157,1,159.5,2|0,1:2|0:0,0:0:0:0:
312,159,18348,2,0,L|119:163,1,159.5,2|0,0:0|0:0,0:0:0:0:
310,260,18940,2,0,L|313:158,1,79.75,2|0,0:0|0:0,0:0:0:0:
165,211,19335,6,0,P|113:180|178:122,1,159.5,2|2,1:2|0:0,0:0:0:0:
258,130,19927,2,0,L|440:132,1,159.5
237,221,20519,2,0,L|62:210,1,159.5,2|0,1:2|0:0,0:0:0:0:
248,148,21309,6,0,L|428:144,1,159.5,2|2,0:0|0:0,0:0:0:0:
181,195,22098,1,2,0:0:0:0:
290,181,22295,1,2,0:0:0:0:
141,289,22493,6,0,P|90:260|158:194,1,159.5,2|2,1:2|0:0,0:0:0:0:
301,218,23085,2,0,P|359:186|289:132,1,159.5,2|0,0:0|0:0,0:0:0:0:
145,155,23677,2,0,L|140:53,1,79.75,2|0,0:0|0:0,0:0:0:0:
301,110,24072,6,0,L|130:124,2,159.5,2|2|0,0:0|0:0|0:0,0:0:0:0:
86,239,25256,2,0,L|77:147,1,79.75,2|2,0:0|0:0,0:0:0:0:
248,133,25651,6,0,L|430:152,1,159.5,2|2,1:2|0:0,0:0:0:0:
318,212,26243,2,0,L|308:132,1,79.75,2|8,0:0|0:1,0:0:0:0:
383,113,26637,1,0,0:0:0:0:
210,243,26835,6,0,P|164:220|220:141,1,159.5,2|0,1:2|0:0,0:0:0:0:
485,236,27624,2,0,L|292:244,2,159.5,2|2|0,0:0|0:0|0:0,0:0:0:0:
208,258,28809,6,0,P|165:226|226:146,1,159.5,2|2,1:2|0:0,0:0:0:0:
285,143,29401,1,2,0:0:0:0:
136,187,29598,2,0,L|128:73,1,79.75,2|0,0:0|0:0,0:0:0:0:
278,87,29993,2,0,L|386:88,1,79.75,2|2,0:0|0:0,0:0:0:0:
183,273,30387,6,0,P|131:236|205:180,1,159.5,2|2,0:0|0:0,0:0:0:0:
258,164,30980,1,2,0:0:0:0:
421,192,31177,2,0,L|431:95,1,79.75,2|0,1:2|0:0,0:0:0:0:
267,71,31572,2,0,L|155:73,1,79.75,2|2,0:0|0:0,0:0:0:0:
370,256,31966,6,0,P|421:229|349:167,1,159.5,2|2,1:2|0:0,0:0:0:0:
283,148,32559,1,2,0:0:0:0:
121,118,32756,2,0,L|29:119,1,79.75,8|0,0:1|0:0,0:0:0:0:
218,230,33151,2,0,L|403:227,1,159.5,2|0,1:2|0:0,0:0:0:0:
99,194,33940,6,0,L|84:27,1,159.5,2|2,0:0|0:0,0:0:0:0:
341,94,34730,1,2,0:0:0:0:
196,94,34927,1,2,0:0:0:0:
384,262,35124,6,0,P|436:229|373:157,1,159.5,2|2,1:2|0:0,0:0:0:0:
238,156,35716,1,2,0:0:0:0:
74,205,35914,2,0,L|68:94,1,79.75,8|0,0:1|0:0,0:0:0:0:
156,88,36309,2,0,L|46:83,1,79.75,2|0,1:2|0:0,0:0:0:0:
234,256,36703,6,0,P|286:225|219:178,1,159.5,2|2,0:0|0:0,0:0:0:0:
128,192,37295,1,2,0:0:0:0:
36,182,37493,1,2,0:0:0:0:
128,192,37690,1,0,0:0:0:0:
301,151,37887,2,0,L|386:152,1,79.75,2|2,0:0|0:0,0:0:0:0:
220,192,38282,6,0,L|38:190,1,159.5,2|2,1:2|0:0,0:0:0:0:
228,276,38874,2,0,P|281:227|223:197,1,159.5,2|0,0:0|0:0,0:0:0:0:
52,179,39466,2,0,L|41:72,1,79.75,2|2,0:0|0:0,0:0:0:0:
311,137,39861,6,0,L|444:137,1,119.625,12|0,0:0|0:0,0:0:0:0:
243,90,40256,2,0,L|148:90,1,79.75,8|0,0:3|0:0,0:0:0:0:
419,209,40651,1,8,0:3:0:0:
257,207,40848,1,4,0:3:0:0:
419,209,41045,2,0,L|434:113,1,79.75,8|2,0:3|0:0,0:0:0:0:
158,182,41440,6,0,P|118:148|179:113,1,119.625,6|0,1:2|0:0,0:0:0:0:
258,122,41835,2,0,L|346:117,1,79.75,2|0,0:0|0:0,0:0:0:0:
166,229,42230,2,0,L|162:116,1,79.75,10|0,0:0|0:0,0:0:0:0:
336,148,42624,2,0,L|345:39,1,79.75,2|0,0:0|0:0,0:0:0:0:
161,204,43019,6,0,L|343:207,1,159.5,2|2,1:2|1:2,0:0:0:0:
229,138,43611,1,0,0:0:0:0:
39,166,43809,2,0,L|29:58,1,79.75,10|0,0:0|0:0,0:0:0:0:
120,70,44203,2,0,L|4:80,1,79.75,2|2,0:0|0:0,0:0:0:0:
216,191,44598,6,0,L|414:180,1,159.5,2|2,1:2|0:0,0:0:0:0:
227,109,45190,1,0,1:2:0:0:
73,172,45387,2,0,L|61:63,1,79.75,8|0,0:0|0:0,0:0:0:0:
221,171,45782,2,0,L|336:169,1,79.75,2|0,0:0|0:0,0:0:0:0:
103,261,46177,6,0,P|74:220|120:157,1,119.625,2|0,1:2|0:0,0:0:0:0:
212,189,46572,2,0,L|317:189,1,79.75,2|0,1:2|0:0,0:0:0:0:
493,172,46966,2,0,P|505:225|437:261,1,119.625,10|0,0:0|0:0,0:0:0:0:
337,206,47361,2,0,L|240:203,1,79.75,2|0,0:0|0:0,0:0:0:0:
445,218,47756,6,0,L|454:126,1,79.75,2|0,1:2|0:0,0:0:0:0:
278,122,48151,2,0,L|273:21,1,79.75,2|0,0:0|0:0,0:0:0:0:
91,112,48545,2,0,L|85:16,1,79.75,10|0,0:0|0:0,0:0:0:0:
262,114,48940,2,0,L|266:12,1,79.75,2|0,0:0|0:0,0:0:0:0:
80,249,49335,6,0,L|246:244,1,159.5,2|0,1:2|1:2,0:0:0:0:
141,176,49927,1,0,0:0:0:0:
309,163,50124,2,0,L|405:162,1,79.75,10|0,0:0|0:0,0:0:0:0:
212,87,50519,2,0,L|124:87,1,79.75,6|0,0:0|0:0,0:0:0:0:
328,160,50914,6,0,L|334:61,1,79.75,0|0,1:2|0:0,0:0:0:0:
495,163,51309,2,0,L|502:56,1,79.75,2|0,0:0|1:0,0:0:0:0:
306,182,51703,2,0,P|256:127|315:105,1,159.5,8|2,0:0|0:0,0:0:0:0:
381,103,52197,1,0,0:0:0:0:
313,104,52295,1,0,0:0:0:0:
148,211,52493,6,0,P|116:176|175:126,1,119.625,2|0,1:2|0:0,0:0:0:0:
204,111,52887,1,2,1:2:0:0:
260,111,52986,1,2,0:0:0:0:
204,111,53085,1,2,0:0:0:0:
364,250,53282,2,0,L|466:242,1,79.75,10|0,0:0|0:0,0:0:0:0:
261,161,53677,1,2,1:2:0:0:
414,146,53874,1,2,0:0:0:0:
157,281,54072,6,0,P|117:248|180:169,1,159.5,6|0,1:2|0:0,0:0:0:0:
303,212,54664,2,0,L|395:212,2,79.75,2|8|2,1:2|0:0|0:0,0:0:0:0:
130,218,55256,2,0,L|125:126,1,79.75,2|2,0:0|0:0,0:0:0:0:
300,138,55651,6,0,L|111:138,1,159.5,2|0,1:2|1:2,0:0:0:0:
297,228,56243,1,2,0:0:0:0:
129,197,56440,1,8,0:0:0:0:
125,157,56538,1,0,0:0:0:0:
121,117,56637,1,0,0:0:0:0:
296,117,56835,1,2,0:0:0:0:
218,114,56933,1,0,0:0:0:0:
139,114,57032,1,2,0:0:0:0:
329,251,57230,6,0,P|385:214|309:175,1,159.5,2|0,1:2|0:0,0:0:0:0:
183,147,57822,1,2,1:2:0:0:
350,122,58019,1,8,0:0:0:0:
264,101,58216,1,2,0:0:0:0:
445,191,58414,2,0,L|456:90,1,79.75,2|2,0:0|0:0,0:0:0:0:
282,150,58809,6,0,L|281:68,1,79.75,2|0,1:2|0:0,0:0:0:0:
113,107,59203,2,0,L|103:9,1,79.75,0|2,1:2|0:0,0:0:0:0:
281,70,59598,1,10,0:0:0:0:
113,112,59795,1,0,0:0:0:0:
281,70,59993,1,2,0:0:0:0:
450,78,60190,1,2,0:0:0:0:
141,252,60387,6,0,P|101:227|162:146,1,159.5,2|0,1:2|0:0,0:0:0:0:
280,150,60980,1,0,1:2:0:0:
102,216,61177,2,0,L|90:113,1,79.75,10|0,0:0|0:0,0:0:0:0:
280,150,61572,2,0,L|393:148,1,79.75,2|2,0:0|0:0,0:0:0:0:
158,194,61966,5,2,1:2:0:0:
446,206,62361,2,0,L|342:202,1,79.75,2|0,1:2|0:0,0:0:0:0:
194,124,62756,1,10,0:0:0:0:
359,105,62953,1,0,0:0:0:0:
73,257,63151,6,0,P|36:231|102:152,1,159.5,6|0,1:2|0:0,0:0:0:0:
210,143,63743,1,0,0:0:0:0:
399,206,63940,2,0,L|413:103,1,79.75,4|0,0:3|0:0,0:0:0:0:
153,100,64335,1,14,0:0:0:0:
303,83,64532,1,0,0:0:0:0:
21,175,64730,2,0,L|13:85,1,79.75,0|0,1:2|1:2,0:0:0:0:
304,127,65124,6,0,P|344:162|299:202,1,119.625,14|0,0:0|0:0,0:0:0:0:
101,94,65519,2,0,L|-3:98,1,79.75,8|0,0:0|0:0,0:0:0:0:
291,176,65914,1,0,1:2:0:0:
135,179,66111,1,12,0:3:0:0:
401,122,66309,1,4,0:3:0:0:
233,112,66506,1,4,0:3:0:0:
490,154,66703,6,0,P|484:85|354:46,1,199.375,6|0,1:2|0:0,0:0:0:0:
481,89,67295,1,0,0:0:0:0:
298,172,67493,2,0,L|181:172,1,99.6875,10|2,0:0|0:0,0:0:0:0:
388,285,67887,2,0,L|396:173,1,99.6875,2|2,0:0|0:0,0:0:0:0:
116,240,68282,6,0,P|114:178|255:113,1,199.375,2|0,1:2|1:2,0:0:0:0:
121,127,68874,1,0,0:0:0:0:
314,203,69072,2,0,L|433:204,1,99.6875,10|2,0:0|0:0,0:0:0:0:
219,109,69466,2,0,L|95:110,1,99.6875,2|2,0:0|0:0,0:0:0:0:
407,279,69861,6,0,P|466:248|388:160,1,199.375,2|2,1:2|1:2,0:0:0:0:
224,157,70453,1,2,0:0:0:0:
410,171,70651,2,0,L|423:28,1,99.6875,10|0,0:0|0:0,0:0:0:0:
320,69,71045,1,2,0:0:0:0:
414,62,71243,1,2,0:0:0:0:
149,202,71440,6,0,P|106:163|183:93,1,149.53125,0|0,1:2|0:0,0:0:0:0:
279,175,71835,2,0,L|385:174,1,99.6875,0|0,1:2|0:0,0:0:0:0:
188,124,72230,2,0,L|181:2,1,99.6875,8|0,0:0|0:0,0:0:0:0:
358,30,72624,1,2,0:0:0:0:
182,24,72822,1,2,0:0:0:0:
445,232,73019,6,0,P|491:198|425:97,1,199.375,2|2,1:2|1:2,0:0:0:0:
279,101,73611,1,2,0:0:0:0:
92,170,73809,2,0,L|87:50,1,99.6875,8|2,0:0|0:0,0:0:0:0:
253,62,74203,1,0,0:0:0:0:
87,70,74401,1,2,0:0:0:0:
275,198,74598,6,0,L|490:192,1,199.375,2|2,1:2|1:2,0:0:0:0:
128,179,75387,2,0,P|85:134|154:78,1,149.53125,10|0,0:0|0:0,0:0:0:0:
371,114,75782,6,0,L|133:122,1,199.375,6|0,1:2|0:0,0:0:0:0:
288,163,76374,1,0,0:0:0:0:
115,199,76572,2,0,L|104:85,1,99.6875,2|0,1:2|0:0,0:0:0:0:
271,84,76966,1,10,0:0:0:0:
105,99,77164,1,2,0:0:0:0:
294,205,77361,2,0,L|425:199,1,99.6875,2|0,1:2|0:0,0:0:0:0:
122,285,77756,6,0,P|106:236|100:181,1,99.6875,14|0,1:2|0:0,0:0:0:0:
364,226,78151,2,0,L|469:225,1,99.6875,0|0,1:2|0:0,0:0:0:0:
243,123,78545,1,10,0:0:0:0:
411,107,78743,1,8,0:3:0:0:
154,196,78940,1,4,0:3:0:0:
323,181,79138,1,4,0:3:0:0:
22,179,79335,6,0,P|27:116|152:70,1,199.375,6|0,1:2|0:0,0:0:0:0:
231,98,79927,1,0,0:0:0:0:
68,237,80124,2,0,L|58:114,1,99.6875,10|2,0:0|0:0,0:0:0:0:
236,171,80519,2,0,L|364:169,1,99.6875,2|2,0:0|0:0,0:0:0:0:
76,293,80914,6,0,P|30:261|118:182,1,199.375,2|0,1:2|1:2,0:0:0:0:
193,173,81506,1,0,0:0:0:0:
366,201,81703,2,0,L|373:83,1,99.6875,10|0,0:0|0:0,0:0:0:0:
201,73,82098,1,2,0:0:0:0:
379,66,82295,1,2,0:0:0:0:
122,242,82493,6,0,L|366:241,1,199.375,2|2,1:2|1:2,0:0:0:0:
141,198,83085,2,0,L|15:199,2,99.6875,2|10|0,0:0|0:0|0:0,0:0:0:0:
309,165,83677,2,0,L|427:166,1,99.6875,2|0,0:0|0:0,0:0:0:0:
141,162,84072,6,0,L|123:27,1,99.6875,2|0,1:2|0:0,0:0:0:0:
421,124,84466,2,0,L|428:16,1,99.6875,2|0,1:2|0:0,0:0:0:0:
132,51,84861,2,0,L|2:53,1,99.6875,10|0,0:0|0:0,0:0:0:0:
319,254,85256,6,0,P|380:221|289:146,1,199.375,6|0,1:2|0:0,0:0:0:0:
229,126,85848,1,0,0:0:0:0:
408,194,86045,2,0,P|447:149|381:95,1,149.53125,2|0,1:2|0:0,0:0:0:0:
190,88,86440,2,0,L|48:89,1,99.6875,10|0,0:0|0:0,0:0:0:0:
256,159,86835,1,2,0:0:0:0:
96,162,87032,1,2,0:0:0:0:
359,245,87230,6,0,L|363:129,1,99.6875,2|0,1:2|0:0,0:0:0:0:
209,138,87624,1,2,1:2:0:0:
351,124,87822,1,2,0:0:0:0:
209,138,88019,2,0,L|201:18,1,99.6875,10|0,0:0|0:0,0:0:0:0:
363,53,88414,2,0,L|498:56,1,99.6875,2|2,0:0|0:0,0:0:0:0:
277,272,88809,6,0,P|231:238|307:152,1,199.375,2|2,1:2|0:0,0:0:0:0:
467,231,89401,1,2,0:0:0:0:
298,167,89598,2,0,L|415:163,1,99.6875,10|0,0:0|0:0,0:0:0:0:
120,255,89993,6,0,P|67:224|140:124,1,199.375,6|0,1:2|0:0,0:0:0:0:
211,106,90585,1,0,0:0:0:0:
372,168,90782,2,0,L|377:58,1,99.6875,0|8,1:2|0:3,0:0:0:0:
211,106,91177,1,4,0:3:0:0:
368,67,91374,1,4,0:3:0:0:
195,116,91572,2,0,L|59:112,1,99.6875,0|0,1:2|0:0,0:0:0:0:
362,264,91966,6,0,P|426:230|330:60,1,319,6|2,1:2|0:0,0:0:0:0:
170,143,93151,2,0,L|260:136,1,79.75,2|2,0:0|0:0,0:0:0:0:
417,137,93545,6,0,P|469:166|395:227,1,159.5,6|2,1:2|0:0,0:0:0:0:
253,232,94335,2,0,L|269:131,1,79.75,2|0,0:0|0:0,0:0:0:0:
350,155,94730,2,0,L|365:66,1,79.75
212,116,95124,6,0,P|81:125|35:314,1,319,2|2,0:0|0:0,0:0:0:0:
174,258,96309,1,2,0:0:0:0:
339,211,96703,6,0,L|356:27,1,159.5,2|0,0:0|0:0,0:0:0:0:
199,66,97493,2,0,L|20:83,1,159.5,2|2,0:0|0:0,0:0:0:0:
365,235,98282,6,0,L|183:241,2,159.5,2|2|2,0:0|0:0|0:0,0:0:0:0:
439,186,99269,1,0,0:0:0:0:
278,192,99466,6,0,P|232:156|387:53,1,319,2|0,0:0|0:0,0:0:0:0:
220,104,100651,2,0,L|45:107,1,159.5,2|2,0:0|0:0,0:0:0:0:
164,177,101243,1,0,0:0:0:0:
425,169,101440,5,2,1:2:0:0:
295,209,101835,2,0,L|385:205,1,79.75,2|0,0:0|0:0,0:0:0:0:
194,140,102230,1,8,0:1:0:0:
340,116,102624,1,0,3:0:0:0:
76,243,103019,6,0,L|273:241,1,159.5,2|0,1:2|0:0,0:0:0:0:
138,169,103611,1,0,0:0:0:0:
316,219,103809,1,8,0:1:0:0:
384,186,104006,1,0,0:0:0:0:
385,111,104203,1,2,0:0:0:0:
317,77,104401,1,0,0:0:0:0:
57,152,104598,6,0,L|242:150,1,159.5,2|2,1:2|0:0,0:0:0:0:
126,86,105190,1,0,0:0:0:0:
36,150,105387,1,8,0:1:0:0:
126,86,105585,1,0,0:0:0:0:
381,186,105782,6,0,P|447:151|200:32,1,638,2|0,1:2|0:0,0:0:0:0:
256,192,107756,12,0,109730,0:0:0:0:
384,191,110124,6,0,L|275:187,1,79.75,0|2,0:0|0:0,0:0:0:0:
139,170,110519,1,2,0:0:0:0:
408,125,110914,6,0,P|455:154|391:231,1,159.5,2|2,1:2|0:0,0:0:0:0:
322,230,111506,1,2,0:0:0:0:
149,173,111703,2,0,L|154:81,1,79.75,8|0,0:1|0:0,0:0:0:0:
254,102,112098,2,0,L|262:14,1,79.75,0|2,1:2|0:0,0:0:0:0:
79,199,112493,6,0,P|29:160|96:95,1,159.5,2|2,0:0|0:0,0:0:0:0:
166,93,113085,1,0,0:0:0:0:
345,229,113282,2,0,L|504:229,1,159.5,8|0,0:1|0:0,0:0:0:0:
403,167,113874,1,2,0:0:0:0:
215,233,114072,6,0,P|158:198|222:140,1,159.5,0|0,1:2|0:0,0:0:0:0:
303,130,114664,2,0,L|116:131,1,159.5,2|0,0:0|0:0,0:0:0:0:
317,275,115256,2,0,P|369:247|298:193,1,159.5,2|0,1:2|0:0,0:0:0:0:
66,195,116045,2,0,L|58:94,1,79.75,2|0,0:0|0:0,0:0:0:0:
242,118,116440,5,8,0:1:0:0:
470,130,116835,2,0,L|480:216,1,79.75,2|0,0:0|0:0,0:0:0:0:
168,270,117230,6,0,P|115:239|174:178,1,159.5,2|2,1:2|0:0,0:0:0:0:
332,200,117822,2,0,L|502:199,1,159.5,2|0,0:0|0:0,0:0:0:0:
313,126,118414,2,0,L|212:125,1,79.75,0|0,1:2|0:0,0:0:0:0:
433,284,118809,6,0,P|487:255|428:195,1,159.5,2|2,0:0|0:0,0:0:0:0:
341,184,119401,1,2,0:0:0:0:
163,108,119598,2,0,L|4:105,1,159.5,8|2,0:1|0:0,0:0:0:0:
98,193,120190,1,2,0:0:0:0:
366,264,120387,6,0,P|411:238|352:166,1,159.5,2|2,1:2|0:0,0:0:0:0:
191,171,120980,2,0,P|144:145|213:77,1,159.5,2|0,0:0|0:0,0:0:0:0:
370,165,121572,2,0,L|377:70,1,79.75,0|0,1:2|0:0,0:0:0:0:
285,88,121966,6,0,L|281:0,1,79.75
447,40,122361,2,0,L|266:39,2,159.5,2|8|2,0:0|0:1|0:0,0:0:0:0:
105,277,123545,6,0,P|61:247|120:178,1,159.5,6|2,1:2|0:0,0:0:0:0:
283,227,124137,2,0,L|467:221,1,159.5,2|0,0:0|0:0,0:0:0:0:
251,173,124730,2,0,L|249:77,1,79.75,0|2,1:2|0:0,0:0:0:0:
426,118,125124,6,0,L|248:117,1,159.5,2|2,0:0|0:0,0:0:0:0:
440,174,125716,2,0,P|490:198|431:255,1,159.5,2|0,0:0|0:0,0:0:0:0:
271,199,126309,2,0,L|176:201,1,79.75,0|2,0:0|0:0,0:0:0:0:
364,248,126703,6,0,L|374:159,1,79.75,2|0,1:2|0:0,0:0:0:0:
203,100,127098,2,0,L|110:98,1,79.75,2|0,0:0|0:0,0:0:0:0:
303,189,127493,2,0,L|391:191,1,79.75,8|0,0:1|0:0,0:0:0:0:
184,295,127887,6,0,P|131:255|197:191,1,159.5,2|0,1:2|0:0,0:0:0:0:
276,162,128480,1,0,0:0:0:0:
105,155,128677,2,0,L|96:51,1,79.75,2|0,0:0|0:0,0:0:0:0:
291,94,129072,2,0,L|296:3,1,79.75,8|0,0:1|0:0,0:0:0:0:
114,31,129466,2,0,L|21:34,1,79.75,2|2,0:0|0:0,0:0:0:0:
297,251,129861,6,0,P|346:223|284:161,1,159.5,2|2,1:2|0:0,0:0:0:0:
123,181,130453,2,0,L|116:88,1,79.75,2|8,0:0|0:1,0:0:0:0:
302,149,130848,2,0,L|300:48,1,79.75,2|0,0:0|1:2,0:0:0:0:
143,88,131243,1,2,0:0:0:0:
315,204,131440,6,0,L|480:201,1,159.5,2|2,0:0|0:0,0:0:0:0:
376,135,132032,1,0,0:0:0:0:
201,153,132230,2,0,L|202:57,1,79.75,8|0,0:1|0:0,0:0:0:0:
376,73,132624,2,0,L|475:72,1,79.75,2|2,0:0|0:0,0:0:0:0:
195,171,133019,6,0,L|16:172,1,159.5,2|2,1:2|0:0,0:0:0:0:
221,303,133611,2,0,L|403:304,1,159.5,2|2,0:0|0:0,0:0:0:0:
110,207,134203,2,0,L|103:100,1,79.75,2|0,1:2|0:0,0:0:0:0:
377,117,134598,6,0,P|411:161|362:216,1,119.625,14|0,0:0|0:0,0:0:0:0:
147,158,134993,2,0,L|39:161,1,79.75,8|8,0:3|0:3,0:0:0:0:
324,213,135387,1,8,1:2:0:0:
475,215,135585,1,8,0:3:0:0:
202,135,135782,1,4,0:3:0:0:
51,137,135980,1,4,0:3:0:0:
319,286,136177,6,0,P|359:243|308:220,1,119.625,6|0,1:2|0:0,0:0:0:0:
197,192,136572,2,0,L|193:100,1,79.75,2|0,0:0|0:0,0:0:0:0:
380,194,136966,2,0,P|393:140|393:89,1,79.75,10|0,0:0|0:0,0:0:0:0:
241,103,137361,2,0,L|159:103,1,79.75,2|0,0:0|0:0,0:0:0:0:
372,244,137756,6,0,P|409:208|364:167,1,119.625,2|0,1:2|0:0,0:0:0:0:
254,141,138151,2,0,L|245:51,1,79.75,2|0,1:2|0:0,0:0:0:0:
442,73,138545,2,0,P|481:93|425:174,1,159.5,10|2,0:0|0:0,0:0:0:0:
264,142,139137,1,2,0:0:0:0:
441,177,139335,6,0,L|446:78,1,79.75,2|0,1:2|0:0,0:0:0:0:
296,85,139730,1,2,0:0:0:0:
445,97,139927,1,0,1:2:0:0:
270,200,140124,2,0,L|154:198,1,79.75,8|0,0:0|0:0,0:0:0:0:
362,243,140519,1,2,0:0:0:0:
363,203,140617,1,0,0:0:0:0:
365,163,140716,1,2,0:0:0:0:
111,204,140914,6,0,P|73:168|119:125,1,119.625,2|0,1:2|0:0,0:0:0:0:
301,135,141309,2,0,L|397:135,1,79.75,2|0,1:2|0:0,0:0:0:0:
217,235,141703,1,8,0:0:0:0:
369,232,141901,1,0,0:0:0:0:
189,159,142098,2,0,L|79:160,1,79.75,2|2,0:0|0:0,0:0:0:0:
372,302,142493,6,0,P|370:247|299:208,1,119.625,2|0,1:2|0:0,0:0:0:0:
207,206,142887,2,0,L|196:110,1,79.75,2|0,0:0|0:0,0:0:0:0:
351,137,143282,2,0,L|441:137,1,79.75,10|0,0:0|0:0,0:0:0:0:
251,81,143677,2,0,L|170:80,1,79.75,2|0,0:0|0:0,0:0:0:0:
430,287,144072,6,0,P|480:262|421:207,1,159.5,2|2,1:2|1:2,0:0:0:0:
335,193,144664,1,0,0:0:0:0:
167,194,144861,2,0,L|351:195,1,159.5,10|0,0:0|0:0,0:0:0:0:
427,132,145453,1,2,0:0:0:0:
169,129,145651,6,0,L|0:133,1,159.5,2|2,1:2|0:0,0:0:0:0:
104,207,146243,1,0,1:2:0:0:
278,202,146440,2,0,L|290:106,1,79.75,8|0,0:0|0:0,0:0:0:0:
126,143,146835,1,2,0:0:0:0:
91,127,146933,1,0,0:0:0:0:
90,90,147032,1,2,0:0:0:0:
124,73,147131,1,2,0:0:0:0:
290,153,147230,6,0,L|401:148,1,79.75,2|0,1:2|0:0,0:0:0:0:
195,220,147624,1,2,1:2:0:0:
195,180,147722,1,2,0:0:0:0:
195,140,147821,1,2,0:0:0:0:
381,110,148019,2,0,L|487:109,1,79.75,10|0,0:0|0:0,0:0:0:0:
295,194,148414,1,6,1:2:0:0:
464,189,148611,1,2,0:0:0:0:
186,284,148809,6,0,P|141:251|209:184,1,159.5,6|0,1:2|0:0,0:0:0:0:
337,160,149401,1,2,1:2:0:0:
153,152,149598,2,0,L|141:47,1,79.75,8|2,0:0|0:0,0:0:0:0:
315,95,149993,1,2,0:0:0:0:
354,96,150091,1,0,0:0:0:0:
394,97,150190,1,2,0:0:0:0:
225,255,150387,6,0,L|213:151,1,79.75,2|0,1:2|0:0,0:0:0:0:
375,143,150782,1,0,1:2:0:0:
216,137,150980,1,2,0:0:0:0:
406,197,151177,2,0,L|415:92,1,79.75,8|2,0:0|0:0,0:0:0:0:
259,102,151572,1,2,0:0:0:0:
333,86,151670,1,0,0:0:0:0:
408,77,151769,1,2,0:0:0:0:
155,196,151966,6,0,L|152:86,1,79.75,2|0,1:2|0:0,0:0:0:0:
306,116,152361,1,0,0:0:0:0:
141,108,152559,1,2,1:2:0:0:
402,191,152756,2,0,L|414:88,1,79.75,8|2,0:0|0:0,0:0:0:0:
239,87,153151,1,2,0:0:0:0:
191,88,153249,1,0,0:0:0:0:
143,90,153348,1,2,0:0:0:0:
305,193,153545,6,0,L|321:82,1,79.75,2|0,1:2|0:0,0:0:0:0:
492,150,153940,2,0,L|499:65,1,79.75,0|2,1:2|0:0,0:0:0:0:
240,86,154335,2,0,L|131:89,1,79.75,8|0,0:0|0:0,0:0:0:0:
328,175,154730,1,2,0:0:0:0:
143,185,154927,1,2,0:0:0:0:
425,286,155124,6,0,P|467:263|398:186,1,159.5,2|2,1:2|0:0,0:0:0:0:
312,155,155716,1,0,1:2:0:0:
47,165,155914,2,0,L|41:65,1,79.75,14|0,0:0|0:0,0:0:0:0:
231,84,156309,2,0,L|317:79,1,79.75,0|2,0:0|0:0,0:0:0:0:
47,259,156703,6,0,P|26:198|128:166,1,159.5,2|2,1:2|1:2,0:0:0:0:
207,176,157295,1,0,1:2:0:0:
472,218,157493,2,0,L|480:111,1,79.75,14|0,0:0|0:0,0:0:0:0:
205,73,157887,6,0,L|13:74,1,159.5,6|0,1:2|0:0,0:0:0:0:
141,157,158480,1,0,0:0:0:0:
416,197,158677,2,0,L|426:112,1,79.75,8|0,0:3|0:0,0:0:0:0:
156,113,159072,2,0,L|155:19,1,79.75,14|2,0:0|0:0,0:0:0:0:
305,50,159466,1,2,1:2:0:0:
155,34,159664,1,0,0:0:0:0:
431,184,159861,6,0,L|447:76,1,79.75,14|2,0:0|0:0,0:0:0:0:
277,132,160256,1,8,0:0:0:0:
341,126,160355,1,8,0:0:0:0:
405,119,160453,1,8,0:0:0:0:
341,126,160552,1,8,0:0:0:0:
174,142,160651,1,12,0:3:0:0:
77,140,160782,1,12,0:3:0:0:
174,142,160914,1,12,0:3:0:0:
374,181,161045,1,0,1:2:0:0:
474,181,161176,1,0,1:2:0:0:
374,181,161308,1,0,1:2:0:0:
148,247,161440,6,0,L|369:247,1,199.375,6|0,1:2|0:0,0:0:0:0:
492,195,162032,1,0,0:0:0:0:
303,116,162230,2,0,L|181:118,1,99.6875,8|0,0:0|0:0,0:0:0:0:
469,227,162624,2,0,L|481:106,1,99.6875,2|2,0:0|0:0,0:0:0:0:
289,120,163019,6,0,L|498:109,1,199.375,0|0,1:2|1:2,0:0:0:0:
199,207,163809,2,0,L|203:94,1,99.6875,10|2,0:0|0:0,0:0:0:0:
389,167,164203,2,0,L|393:53,1,99.6875,2|0,0:0|0:0,0:0:0:0:
126,93,164598,5,0,1:0:0:0:
367,167,164993,2,0,L|238:166,1,99.6875,2|0,0:0|0:0,0:0:0:0:
111,188,165387,2,0,L|111:74,1,99.6875,10|0,0:0|0:0,0:0:0:0:
274,81,165782,2,0,L|400:81,1,99.6875,2|2,0:0|0:0,0:0:0:0:
94,238,166177,6,0,P|44:144|138:116,1,199.375,2|0,1:2|1:2,0:0:0:0:
217,101,166769,1,0,1:2:0:0:
479,180,166966,2,0,L|486:70,1,99.6875,14|0,0:0|0:0,0:0:0:0:
186,77,167361,1,2,1:2:0:0:
336,65,167559,1,2,0:0:0:0:
62,245,167756,6,0,L|315:243,1,199.375,6|0,1:2|0:0,0:0:0:0:
108,153,168348,1,0,0:0:0:0:
387,181,168545,2,0,L|404:69,1,99.6875,14|0,0:0|0:0,0:0:0:0:
121,132,168940,6,0,P|59:53|141:11,1,199.375,2|0,0:0|1:2,0:0:0:0:
224,33,169532,1,0,0:0:0:0:
397,142,169730,2,0,L|404:7,1,99.6875,0|0,1:2|0:0,0:0:0:0:
226,46,170124,2,0,L|108:53,1,99.6875,10|2,0:0|0:0,0:0:0:0:
309,210,170519,2,0,L|419:203,1,99.6875,2|0,0:0|0:0,0:0:0:0:
132,140,170914,5,6,1:2:0:0:
272,127,171111,1,8,0:0:0:0:
109,152,171309,2,0,L|8:153,1,99.6875,0|0,0:0|1:2,0:0:0:0:
294,227,171703,2,0,L|307:110,1,99.6875,12|0,0:0|0:0,0:0:0:0:
150,111,172098,1,0,1:2:0:0:
331,101,172295,1,0,1:2:0:0:
73,208,172493,6,0,P|34:166|110:110,1,149.53125,14|0,0:0|0:0,0:0:0:0:
316,207,172887,1,8,0:3:0:0:
363,195,172985,1,8,0:3:0:0:
396,159,173084,1,8,1:2:0:0:
404,110,173183,1,8,0:0:0:0:
216,96,173282,2,0,L|101:93,1,99.6875,10|8,0:0|0:3,0:0:0:0:
313,165,173677,2,0,L|326:35,1,99.6875,8|0,0:3|1:2,0:0:0:0:
256,52,173973,1,0,1:2:0:0:
60,208,174072,6,0,P|11:180|87:86,1,199.375,6|2,1:2|0:0,0:0:0:0:
172,95,174664,1,2,0:0:0:0:
329,152,174861,2,0,L|340:32,1,99.6875,8|2,0:0|0:0,0:0:0:0:
172,95,175256,2,0,L|163:-15,1,99.6875,0|2,0:0|0:0,0:0:0:0:
446,175,175651,6,0,L|241:216,2,199.375,2|2|8,1:2|1:2|0:0,0:0:0:0:
348,133,176637,1,0,0:0:0:0:
63,205,176835,6,0,L|301:200,1,199.375,6|0,1:2|0:0,0:0:0:0:
363,157,177427,1,0,0:0:0:0:
199,173,177624,2,0,L|193:54,1,99.6875,2|0,1:2|0:0,0:0:0:0:
359,78,178019,2,0,L|484:69,1,99.6875,10|0,0:0|0:0,0:0:0:0:
288,90,178414,2,0,L|168:89,1,99.6875,2|0,0:0|0:0,0:0:0:0:
373,256,178809,6,0,P|426:229|359:122,1,199.375,0|2,1:2|1:2,0:0:0:0:
275,130,179401,1,2,0:0:0:0:
17,142,179598,2,0,L|11:23,1,99.6875,10|2,0:0|0:0,0:0:0:0:
171,37,179993,1,2,0:0:0:0:
11,42,180190,1,0,1:2:0:0:
282,216,180387,6,0,L|496:207,1,199.375,6|2,1:2|0:0,0:0:0:0:
139,218,181177,2,0,P|76:171|156:88,1,199.375,10|2,0:0|0:0,0:0:0:0:
223,90,181769,1,2,0:0:0:0:
394,185,181966,6,0,L|153:184,1,199.375,2|2,1:2|1:2,0:0:0:0:
99,137,182559,1,0,0:0:0:0:
267,244,182756,2,0,L|277:140,1,99.6875,10|0,0:0|0:0,0:0:0:0:
448,157,183151,2,0,L|460:48,1,99.6875,2|2,1:2|0:0,0:0:0:0:
182,160,183545,6,0,L|383:153,1,199.375,6|2,1:2|0:0,0:0:0:0:
48,243,184335,2,0,L|37:36,1,199.375,10|2,0:0|0:0,0:0:0:0:
124,42,184927,1,0,0:0:0:0:
305,149,185124,6,0,L|315:12,1,99.6875,0|0,1:2|0:0,0:0:0:0:
142,115,185519,2,0,L|141:236,1,99.6875,2|0,1:2|0:0,0:0:0:0:
305,239,185914,2,0,L|420:242,1,99.6875,10|0,0:0|0:0,0:0:0:0:
240,153,186309,2,0,L|356:154,1,99.6875,2|0,1:2|0:0,0:0:0:0:
66,257,186703,6,0,P|11:227|86:141,1,199.375,6|2,1:2|0:0,0:0:0:0:
162,126,187295,1,0,0:0:0:0:
337,182,187493,2,0,L|346:75,1,99.6875,8|0,0:0|0:0,0:0:0:0:
242,95,187887,2,0,L|236:-17,1,99.6875
405,47,188282,6,0,P|479:90|405:153,1,199.375,0|0,1:2|1:2,0:0:0:0:
331,150,188874,1,0,0:0:0:0:
153,184,189072,2,0,L|151:72,1,99.6875,8|0,0:0|0:0,0:0:0:0:
316,84,189466,2,0,L|430:85,1,99.6875,4|0,0:0|0:0,0:0:0:0:
154,158,189861,5,6,0:0:0:0:
256,192,190059,12,0,192822,0:0:0:0:
253,196,193019,6,0,P|190:134|311:-30,1,319,2|2,1:2|3:0,0:0:0:0:
431,101,194203,1,2,0:0:0:0:
281,185,194598,6,0,L|85:180,2,159.5,2|2|2,1:2|0:0|3:0,0:0:0:0:
426,136,195782,1,2,0:0:0:0:
132,257,196177,6,0,L|311:250,2,159.5,2|2|2,1:2|0:0|3:0,0:0:0:0:
405,299,197361,6,0,P|432:218|52:243,1,717.75,2|0,0:0|0:0,0:0:0:0:
315,225,199335,5,14,0:0:0:0:
462,213,199532,1,8,0:0:0:0:
187,116,199730,1,0,1:2:0:0:
26,114,199927,1,0,1:2:0:0:
308,195,200124,1,10,0:0:0:0:
157,193,200322,1,0,1:2:0:0:
449,215,200519,2,0,L|459:80,1,79.75,0|8,1:2|0:3,0:0:0:0:
189,116,200914,5,0,1:2:0:0:
339,100,201111,1,0,1:2:0:0:
77,197,201309,1,10,0:0:0:0:
338,199,201506,1,2,1:2:0:0:
77,197,201703,2,0,L|69:58,1,79.75,8|4,0:3|0:3,0:0:0:0:
329,103,202098,1,4,0:3:0:0:
173,103,202295,1,4,0:3:0:0:
435,279,202493,6,0,P|491:192|422:149,1,199.375,6|0,1:2|0:0,0:0:0:0:
319,152,203085,1,0,0:0:0:0:
41,129,203282,2,0,L|163:127,1,99.6875,10|2,0:0|0:0,0:0:0:0:
314,126,203677,2,0,L|171:127,1,99.6875,2|2,0:0|0:0,0:0:0:0:
475,307,204072,6,0,L|490:94,1,199.375,2|0,1:2|1:2,0:0:0:0:
392,108,204664,1,0,0:0:0:0:
133,172,204861,2,0,L|116:47,1,99.6875,10|2,0:0|0:0,0:0:0:0:
296,86,205256,2,0,L|422:86,1,99.6875,2|2,0:0|0:0,0:0:0:0:
99,263,205651,6,0,P|43:177|124:171,1,199.375,2|2,1:2|0:0,0:0:0:0:
207,142,206243,1,2,0:0:0:0:
465,152,206440,1,10,0:0:0:0:
298,184,206637,1,2,0:0:0:0:
465,152,206835,1,2,0:0:0:0:
298,184,207032,1,2,0:0:0:0:
20,170,207230,6,0,L|12:54,1,99.6875,0|0,1:2|0:0,0:0:0:0:
185,80,207624,2,0,L|295:83,1,99.6875,0|0,1:2|1:2,0:0:0:0:
25,210,208019,2,0,L|15:98,1,99.6875,12|0,0:0|0:0,0:0:0:0:
304,131,208414,1,2,1:2:0:0:
141,132,208611,1,2,0:0:0:0:
410,266,208809,6,0,P|478:177|393:140,1,199.375,6|2,1:2|1:2,0:0:0:0:
146,163,209401,1,2,0:0:0:0:
404,134,209598,1,8,0:0:0:0:
239,144,209795,1,2,0:0:0:0:
404,134,209993,1,2,0:0:0:0:
144,87,210190,6,0,L|13:88,1,99.6875,2|0,0:0|1:2,0:0:0:0:
352,207,210585,1,2,0:0:0:0:
196,152,210782,1,0,1:2:0:0:
39,133,210980,1,0,0:0:0:0:
318,112,211177,1,10,0:0:0:0:
479,113,211374,1,0,0:0:0:0:
140,217,211572,6,0,L|455:214,1,299.0625,6|2,1:2|0:0,0:0:0:0:
175,127,212361,2,0,L|47:122,1,99.6875,2|0,1:2|0:0,0:0:0:0:
332,171,212756,1,10,0:0:0:0:
177,173,212953,1,2,0:0:0:0:
431,231,213151,2,0,L|436:108,1,99.6875,2|0,0:0|0:0,0:0:0:0:
179,92,213545,6,0,L|62:98,1,99.6875,0|0,1:2|0:0,0:0:0:0:
253,213,213940,2,0,L|372:209,1,99.6875,0|0,1:2|0:0,0:0:0:0:
62,145,214335,1,14,0:0:0:0:
233,124,214532,1,8,0:3:0:0:
404,94,214730,1,8,0:3:0:0:
457,109,214828,1,0,3:0:0:0:
461,166,214927,1,0,3:2:0:0:
410,189,215026,1,0,3:2:0:0:
202,128,215124,6,0,L|78:124,1,99.6875,6|0,1:2|0:0,0:0:0:0:
360,226,215519,1,0,0:0:0:0:
194,218,215716,1,0,0:0:0:0:
475,246,215914,2,0,L|493:122,1,99.6875,10|2,0:0|0:0,0:0:0:0:
198,103,216309,2,0,L|62:103,1,99.6875,2|2,0:0|0:0,0:0:0:0:
369,257,216703,6,0,P|429:182|336:156,1,199.375,2|0,1:2|1:2,0:0:0:0:
186,131,217295,1,0,0:0:0:0:
479,188,217493,2,0,L|486:67,1,99.6875,10|0,0:0|0:0,0:0:0:0:
227,88,217887,1,2,0:0:0:0:
402,82,218085,1,2,0:0:0:0:
145,241,218282,6,0,L|383:248,1,199.375,2|2,1:2|0:0,0:0:0:0:
68,336,218874,2,0,P|3:267|95:242,1,199.375,2|0,0:0|0:0,0:0:0:0:
333,269,219466,1,2,0:0:0:0:
337,205,219565,1,0,3:0:0:0:
288,151,219663,1,0,3:0:0:0:
221,132,219762,1,0,3:0:0:0:
413,108,219861,6,0,L|532:109,1,99.6875,2|0,1:2|0:0,0:0:0:0:
198,211,220256,1,4,0:3:0:0:
270,175,220387,1,4,0:3:0:0:
342,154,220519,1,4,0:3:0:0:
146,112,220651,2,0,L|44:112,1,99.6875,2|0,1:2|0:0,0:0:0:0:
340,316,221045,6,0,P|404:273|313:217,1,199.375,6|0,1:2|0:0,0:0:0:0:
146,247,221637,1,0,0:0:0:0:
421,234,221835,2,0,P|464:204|415:136,1,149.53125,2|0,1:2|0:0,0:0:0:0:
232,122,222230,2,0,L|106:122,1,99.6875,10|0,0:0|0:0,0:0:0:0:
396,308,222624,1,2,0:0:0:0:
402,239,222722,1,0,0:0:0:0:
356,180,222821,1,2,0:0:0:0:
291,159,222920,1,2,0:0:0:0:
116,249,223019,6,0,P|63:211|144:118,1,199.375,2|2,1:2|1:2,0:0:0:0:
276,133,223611,1,2,0:0:0:0:
17,163,223809,2,0,L|9:40,1,99.6875,8|0,0:0|0:0,0:0:0:0:
293,70,224203,2,0,L|424:73,1,99.6875,2|0,1:2|0:0,0:0:0:0:
109,232,224598,6,0,L|345:239,1,199.375,6|8,1:2|0:3,0:0:0:0:
170,145,225190,1,8,0:3:0:0:
337,181,225387,2,0,L|349:52,1,99.6875,0|0,1:2|0:0,0:0:0:0:
286,70,225684,1,0,0:0:0:0:
96,209,225782,6,0,P|32:163|121:90,1,199.375,6|0,1:2|0:0,0:0:0:0:
188,72,226374,1,0,0:0:0:0:
352,157,226572,2,0,L|360:30,1,99.6875,0|0,1:2|1:2,0:0:0:0:
188,72,226966,1,8,0:0:0:0:
358,57,227164,1,0,0:0:0:0:
188,72,227361,2,0,L|62:72,1,99.6875,0|0,1:2|0:0,0:0:0:0:
394,206,227756,5,4,1:2:0:0:
131,167,228151,2,0,L|117:61,1,99.6875,2|0,0:0|0:0,0:0:0:0:
432,118,228545,2,0,L|204:122,1,199.375,10|2,0:0|1:2,0:0:0:0:
138,86,229137,1,0,0:0:0:0:
403,243,229335,6,0,P|450:207|374:117,1,199.375,2|2,1:2|1:2,0:0:0:0:
211,113,229927,1,2,0:0:0:0:
477,164,230124,2,0,L|478:51,1,99.6875,8|0,0:0|0:0,0:0:0:0:
292,45,230519,2,0,L|156:51,1,99.6875,2|0,1:2|0:0,0:0:0:0:
470,237,230914,6,0,L|250:237,1,199.375,6|2,1:2|0:0,0:0:0:0:
101,300,231506,1,2,0:0:0:0:
200,246,231703,1,8,0:0:0:0:
102,184,231900,1,2,0:0:0:0:
275,167,232098,2,0,L|391:163,1,99.6875,2|0,0:0|1:2,0:0:0:0:
73,292,232493,6,0,L|292:286,1,199.375,0|0,1:2|1:2,0:0:0:0:
170,218,233085,1,0,0:0:0:0:
424,189,233282,2,0,L|430:82,1,99.6875,8|0,0:0|0:0,0:0:0:0:
253,101,233677,2,0,L|378:99,1,99.6875,0|2,1:2|0:0,0:0:0:0:
62,156,234072,5,6,1:2:0:0:
315,212,234466,2,0,L|108:215,2,199.375,2|10|2,0:0|0:0|0:0,0:0:0:0:
367,180,235355,1,0,0:0:0:0:
367,180,235453,1,2,0:0:0:0:
315,212,235552,1,2,0:0:0:0:
122,277,235651,6,0,P|75:246|158:163,1,199.375,2|2,1:2|1:2,0:0:0:0:
309,186,236243,1,2,0:0:0:0:
54,123,236440,2,0,L|44:21,1,99.6875,8|0,0:0|0:0,0:0:0:0:
305,87,236835,2,0,L|422:87,1,99.6875,2|0,1:2|0:0,0:0:0:0:
126,275,237230,6,0,P|68:242|143:150,1,199.375,2|2,1:2|0:0,0:0:0:0:
419,164,238019,2,0,L|296:170,1,99.6875,10|2,0:0|0:0,0:0:0:0:
50,247,238414,6,0,L|276:249,1,199.375,6|0,1:2|0:0,0:0:0:0:
154,186,239006,1,0,0:0:0:0:
324,178,239203,2,0,L|456:182,1,99.6875,8|0,0:3|0:0,0:0:0:0:
242,93,239598,2,0,L|131:95,1,99.6875,8|0,0:3|0:0,0:0:0:0:
325,177,239993,2,0,L|447:173,1,99.6875,0|0,1:2|0:0,0:0:0:0:
163,254,240387,6,0,L|159:58,1,159.5,6|2,1:2|0:0,0:0:0:0:
254,81,240980,1,0,0:0:0:0:
415,164,241177,2,0,L|420:48,1,79.75,2|0,0:0|0:0,0:0:0:0:
259,78,241572,1,2,0:0:0:0:
421,64,241769,1,0,0:0:0:0:
158,243,241966,6,0,P|110:213|165:144,1,159.5,6|0,1:2|0:0,0:0:0:0:
253,131,242559,1,0,0:0:0:0:
396,160,242756,2,0,P|445:188|381:253,1,159.5
307,260,243348,1,0,0:0:0:0:
135,235,243545,6,0,P|124:187|339:139,1,319,2|0,0:0|0:0,0:0:0:0:
161,167,244730,1,0,0:0:0:0:
451,230,245124,6,0,P|475:189|288:96,1,319,2|0,0:0|0:0,0:0:0:0:
449,161,246309,1,0,0:0:0:0:
140,203,246703,6,0,L|330:209,2,159.5,2|2|2,0:0|0:0|0:0,0:0:0:0:
47,149,247690,1,0,0:0:0:0:
224,271,247887,6,0,P|284:232|153:95,1,319,2|0,0:0|0:0,0:0:0:0:
333,205,249072,2,0,L|510:195,1,159.5,2|0,0:0|0:0,0:0:0:0:
400,143,249664,1,0,0:0:0:0:
218,256,249861,6,0,P|154:225|236:47,1,319,2|0,0:0|0:0,0:0:0:0:
391,127,251045,1,2,0:0:0:0:
127,212,251440,6,0,L|135:36,1,159.5,2|0,0:0|0:0,0:0:0:0:
371,94,252230,1,2,0:0:0:0:
115,112,252624,1,2,0:0:0:0:
413,259,253019,6,0,L|239:261,2,159.5,2|2|2,0:0|0:0|0:0,0:0:0:0:
319,194,254006,1,2,0:0:0:0:
149,224,254203,6,0,P|91:188|193:27,1,319,2|2,0:0|0:0,0:0:0:0:
355,41,255387,2,0,L|364:234,1,159.5,2|2,0:0|0:0,0:0:0:0:
267,201,255980,1,0,0:0:0:0:
93,211,256177,6,0,P|38:173|100:130,1,159.5,2|2,1:2|0:0,0:0:0:0:
252,140,256966,1,2,0:0:0:0:
172,138,257163,1,0,0:0:0:0:
92,136,257360,1,0,1:2:0:0:
358,254,257756,6,0,L|171:246,3,159.5,2|2|8|2,1:2|0:0|0:1|0:0,0:0:0:0:
484,323,259335,6,0,L|486:143,1,159.5,0|2,1:2|0:0,0:0:0:0:
385,154,259927,1,0,0:0:0:0:
233,173,260124,2,0,L|126:170,1,79.75,2|0,0:0|0:0,0:0:0:0:
417,241,260519,5,4,1:2:0:0:
256,192,260716,12,0,268809,0:0:0:0:
