osu file format v14

[General]
AudioFilename: audio.mp3
AudioLeadIn: 0
PreviewTime: 201703
Countdown: 0
SampleSet: Soft
StackLeniency: 0.7
Mode: 2
LetterboxInBreaks: 0
WidescreenStoryboard: 1

[Editor]
Bookmarks: 41440,66703,161440,202493,268809
DistanceSpacing: 1.3
BeatDivisor: 6
GridSize: 8
TimelineZoom: 1.2

[Metadata]
Title:Homura
TitleUnicode:炎
Artist:LiSA
ArtistUnicode:LiSA
Creator:Secre
Version:Cup
Source:劇場版「鬼滅の刃」無限列車編
Tags:chickenbible HeTo Demon Slayer Kimetsu no Yaiba the Movie Mugen Train Ressha-hen Ressha hen Japanese anime movie jpop pop j-pop ed ending 梶浦由記 Yuki Kajiura 煉獄杏寿郎 Rengoku Kyojuro
BeatmapID:2985623
BeatmapSetID:1397428

[Difficulty]
HPDrainRate:2
CircleSize:3.2
OverallDifficulty:5.3
ApproachRate:5.3
SliderMultiplier:2.89
SliderTickRate:2

[Events]
//Background and Video events
0,0,"pain peko.jpg",0,0
//Break Periods
//Storyboard Layer 0 (Background)
//Storyboard Layer 1 (Fail)
//Storyboard Layer 2 (Pass)
//Storyboard Layer 3 (Foreground)
//Storyboard Layer 4 (Overlay)
//Storyboard Sound Samples

[TimingPoints]
388,789.473684210526,4,2,5,30,1,0
388,-100,4,2,5,30,0,0
6703,-100,4,2,5,30,0,0
13414,-100,4,2,5,20,0,0
15387,-100,4,2,5,20,0,0
16177,-100,4,2,5,30,0,0
39466,-100,4,2,5,30,0,0
39565,-100,4,2,5,5,0,0
39664,-100,4,2,5,30,0,0
39762,-100,4,2,5,5,0,0
39861,-100,4,2,5,55,0,0
41440,-100,4,2,5,50,0,0
46078,-100,4,2,5,5,0,0
46177,-100,4,2,5,50,0,0
50815,-100,4,2,5,5,0,0
50914,-100,4,2,5,50,0,0
63052,-100,4,2,5,5,0,0
63151,-100,4,2,5,65,0,0
63841,-100,4,2,5,5,0,0
63940,-100,4,2,5,65,0,0
65420,-100,4,2,5,5,0,0
65519,-100,4,2,5,65,0,0
66703,-100,4,2,5,70,0,1
75684,-100,4,2,5,5,0,1
75782,-100,4,2,5,70,0,1
76473,-100,4,2,5,5,0,1
76572,-100,4,2,5,70,0,1
83973,-100,4,2,5,5,0,1
84072,-100,4,2,5,70,0,1
85947,-100,4,2,5,5,0,1
86045,-100,4,2,5,70,0,1
89894,-100,4,2,5,5,0,1
89993,-100,4,2,5,70,0,1
90684,-100,4,2,5,5,0,1
90782,-100,4,2,5,70,0,1
91966,-100,4,2,5,60,0,0
92361,-100,4,2,5,50,0,0
93545,-100,4,2,5,60,0,0
94335,-100,4,2,5,40,0,0
95124,-100,4,2,5,30,0,0
101440,-100,4,2,5,30,0,0
107756,-100,4,2,5,20,0,0
110124,-100,4,2,5,20,0,0
110914,-100,4,2,5,30,0,0
134499,-100,4,2,5,5,0,0
134598,-100,4,2,5,55,0,0
134993,-100,4,2,5,55,0,0
136177,-100,4,2,5,50,0,0
157197,-100,4,2,5,5,0,0
157295,-100,4,2,5,50,0,0
157493,-100,4,2,5,50,0,0
157789,-100,4,2,5,5,0,0
157887,-100,4,2,5,60,0,0
158578,-100,4,2,5,5,0,0
158677,-100,4,2,5,60,0,0
161440,-100,4,2,5,70,0,1
167262,-100,4,2,5,5,0,1
167361,-100,4,2,5,70,0,1
172789,-100,4,2,5,5,0,1
172887,-100,4,2,5,70,0,1
174072,-100,4,2,5,70,0,1
186605,-100,4,2,5,5,0,1
186703,-100,4,2,5,70,0,1
189466,-100,4,2,5,30,0,1
189762,-100,4,2,5,5,0,1
189861,-100,4,2,5,40,0,0
192920,-100,4,2,5,5,0,0
193019,-100,4,2,5,35,0,0
197361,-100,4,2,5,35,0,0
199236,-100,4,2,5,5,0,0
199335,-100,4,2,5,65,0,0
202493,-100,4,2,5,70,0,1
211473,-100,4,2,5,5,0,1
211572,-100,4,2,5,70,0,1
219762,-100,4,2,5,5,0,1
219861,-100,4,2,5,70,0,1
220947,-100,4,2,5,5,0,1
221045,-100,4,2,5,70,0,1
221736,-100,4,2,5,5,0,1
221835,-100,4,2,5,70,0,1
224499,-100,4,2,5,5,0,1
224598,-100,4,2,5,70,0,1
226473,-100,4,2,5,5,0,1
226572,-100,4,2,5,70,0,1
227756,-100,4,2,5,70,0,1
230815,-100,4,2,5,5,0,1
230914,-100,4,2,5,70,0,1
235749,-100,4,2,5,5,0,1
236045,-100,4,2,5,70,0,1
237131,-100,4,2,5,5,0,1
237230,-100,4,2,5,70,0,1
239105,-100,4,2,5,5,0,1
239203,-100,4,2,5,70,0,1
240387,-100,4,2,5,60,0,0
241868,-100,4,2,5,5,0,0
241966,-100,4,2,5,60,0,0
243545,-100,4,2,5,25,0,0
252920,-100,4,2,5,5,0,0
253019,-100,4,2,5,25,0,0
256177,-100,4,2,5,35,0,0
260519,-100,4,2,5,35,0,0
262493,-100,4,2,5,25,0,0
265651,-100,4,2,5,15,0,0
268809,-100,4,2,5,5,0,0

[Colours]
Combo1 : 253,219,128
Combo2 : 192,192,192
Combo3 : 255,115,47
Combo4 : 176,0,0

[HitObjects]
360,247,388,6,0,P|346:162|144:180,1,289,2|0,0:0|0:0,0:0:0:0:
386,229,1966,2,0,L|396:-63,1,289,2|0,0:0|0:0,0:0:0:0:
172,306,3545,6,0,P|315:269|446:25,2,433.5,2|2|0,0:0|0:0|0:0,0:0:0:0:
416,273,6703,6,0,L|428:-26,1,289,2|2,0:0|0:0,0:0:0:0:
176,201,8282,2,0,P|259:120|393:212,1,289,2|2,0:0|0:0,0:0:0:0:
135,263,9861,2,0,P|79:201|232:92,1,289,2|2,0:0|0:0,0:0:0:0:
327,154,11045,5,2,0:0:0:0:
256,192,11440,12,0,14598,0:0:0:0:
160,196,14993,5,2,0:0:0:0:
155,123,15190,1,0,0:0:0:0:
151,51,15387,1,8,0:1:0:0:
278,43,15782,1,0,0:0:0:0:
408,44,16177,6,0,P|479:101|371:239,1,289,2|0,1:2|0:0,0:0:0:0:
147,239,17756,2,0,L|442:219,1,289,2|0,1:2|0:0,0:0:0:0:
170,214,19335,6,0,P|144:126|222:100,1,144.5,2|2,1:2|0:0,0:0:0:0:
311,133,20124,2,0,L|315:37,1,72.25,8|0,0:1|0:0,0:0:0:0:
241,46,20519,6,0,L|239:219,1,144.5,2|0,1:2|0:0,0:0:0:0:
383,192,21309,1,0,0:0:0:0:
238,190,21703,1,0,0:0:0:0:
114,60,22098,1,2,0:0:0:0:
271,178,22493,6,0,L|463:172,1,144.5,2|2,1:2|0:0,0:0:0:0:
342,120,23085,2,0,L|172:122,1,144.5,2|0,0:0|0:0,0:0:0:0:
266,189,23677,1,2,0:0:0:0:
401,185,24072,6,0,L|412:-2,1,144.5,2|2,0:0|0:0,0:0:0:0:
269,37,24861,1,0,0:0:0:0:
411,29,25256,1,2,0:0:0:0:
252,124,25651,6,0,L|66:124,1,144.5,2|2,1:2|0:0,0:0:0:0:
183,182,26243,2,0,L|339:182,1,144.5,2|0,0:0|0:0,0:0:0:0:
256,117,26835,1,2,1:2:0:0:
116,110,27230,5,0,0:0:0:0:
260,110,27624,2,0,L|448:108,2,144.5,2|2|0,0:0|0:0|0:0,0:0:0:0:
126,239,28809,6,0,L|109:50,1,144.5,2|2,1:2|0:0,0:0:0:0:
251,111,29598,2,0,L|83:119,1,144.5,2|2,0:0|0:0,0:0:0:0:
255,202,30387,6,0,L|252:30,1,144.5,2|2,0:0|0:0,0:0:0:0:
109,107,31177,2,0,L|266:108,1,144.5,2|2,1:2|0:0,0:0:0:0:
185,177,31769,1,2,0:0:0:0:
120,165,31966,6,0,L|110:-8,1,144.5,2|2,1:2|0:0,0:0:0:0:
183,16,32559,1,2,0:0:0:0:
381,32,33151,6,0,P|456:75|351:224,1,289,2|2,1:2|0:0,0:0:0:0:
251,163,34335,1,2,0:0:0:0:
383,126,34730,2,0,L|390:25,1,72.25,2|2,0:0|0:0,0:0:0:0:
318,32,35124,6,0,L|120:40,1,144.5,2|2,1:2|0:0,0:0:0:0:
248,113,35716,2,0,P|317:182|230:240,1,216.75,2|2,0:0|1:2,0:0:0:0:
100,207,36703,6,0,L|87:14,1,144.5,2|2,0:0|0:0,0:0:0:0:
235,38,37493,2,0,L|399:37,1,144.5,2|2,0:0|0:0,0:0:0:0:
309,95,38085,1,2,0:0:0:0:
235,154,38282,6,0,L|233:-9,1,144.5,2|2,1:2|0:0,0:0:0:0:
308,12,38874,1,2,0:0:0:0:
172,140,39269,2,0,L|166:55,1,72.25,0|2,0:0|0:0,0:0:0:0:
323,91,39861,6,0,L|135:93,1,144.5,12|8,0:0|0:3,0:0:0:0:
338,185,40651,2,0,L|189:191,1,144.5,8|8,0:3|0:3,0:0:0:0:
366,245,41440,6,0,L|375:57,1,144.5,6|2,1:2|0:0,0:0:0:0:
231,140,42230,2,0,L|222:-9,1,144.5,10|2,0:0|0:0,0:0:0:0:
77,108,43019,6,0,L|67:-37,1,144.5,2|2,1:2|1:2,0:0:0:0:
226,107,43809,2,0,L|224:-66,1,144.5,10|2,0:0|0:0,0:0:0:0:
78,219,44598,6,0,L|266:215,1,144.5,2|2,1:2|0:0,0:0:0:0:
148,153,45190,1,0,1:2:0:0:
80,103,45387,2,0,L|81:284,1,144.5,8|2,0:0|0:0,0:0:0:0:
246,254,46177,6,0,L|83:257,1,144.5,2|2,1:2|1:2,0:0:0:0:
262,254,46966,2,0,L|455:252,1,144.5,10|2,0:0|0:0,0:0:0:0:
257,193,47756,6,0,L|254:19,1,144.5,2|2,1:2|0:0,0:0:0:0:
107,107,48545,2,0,L|101:-53,1,144.5,10|2,0:0|0:0,0:0:0:0:
264,141,49335,6,0,L|263:-39,1,144.5,2|0,1:2|1:2,0:0:0:0:
431,131,50124,2,0,L|434:-31,1,144.5,10|6,0:0|0:0,0:0:0:0:
261,87,50914,6,0,L|97:90,1,144.5,0|2,1:2|0:0,0:0:0:0:
190,160,51506,1,0,1:0:0:0:
259,157,51703,2,0,L|418:155,1,144.5,8|2,0:0|0:0,0:0:0:0:
332,227,52295,1,0,0:0:0:0:
261,223,52493,6,0,L|254:61,1,144.5,2|2,1:2|1:2,0:0:0:0:
407,122,53282,2,0,L|409:-47,1,144.5,10|2,0:0|1:2,0:0:0:0:
333,17,53874,1,2,0:0:0:0:
258,66,54072,6,0,L|91:70,1,144.5,6|0,1:2|0:0,0:0:0:0:
184,145,54664,1,2,1:2:0:0:
256,140,54861,1,8,0:0:0:0:
131,235,55256,2,0,L|127:120,1,72.25,2|2,0:0|0:0,0:0:0:0:
198,147,55651,6,0,L|349:146,1,144.5,2|0,1:2|1:2,0:0:0:0:
198,206,56440,2,0,L|27:200,1,144.5,8|2,0:0|0:0,0:0:0:0:
133,139,57032,1,2,0:0:0:0:
211,134,57230,6,0,L|374:130,1,144.5,2|0,1:2|0:0,0:0:0:0:
281,196,57822,1,2,1:2:0:0:
206,195,58019,1,8,0:0:0:0:
352,147,58414,2,0,L|355:45,1,72.25,2|2,0:0|0:0,0:0:0:0:
288,57,58809,6,0,L|110:62,1,144.5,2|0,1:2|1:2,0:0:0:0:
299,152,59598,2,0,L|472:146,1,144.5,10|2,0:0|0:0,0:0:0:0:
367,91,60190,1,2,0:0:0:0:
296,95,60387,6,0,L|136:93,1,144.5,2|0,1:2|0:0,0:0:0:0:
311,215,61177,2,0,L|146:215,1,144.5,10|2,0:0|0:0,0:0:0:0:
342,205,61966,6,0,L|343:24,1,144.5,2|2,1:2|1:2,0:0:0:0:
262,50,62559,1,0,0:0:0:0:
186,75,62756,1,10,0:0:0:0:
332,57,63151,6,0,L|528:56,1,144.5,6|0,1:2|0:0,0:0:0:0:
321,104,63940,2,0,L|239:101,1,72.25,4|0,0:3|0:0,0:0:0:0:
321,104,64335,2,0,L|323:12,1,72.25,14|0,0:0|0:0,0:0:0:0:
243,36,64730,2,0,L|110:33,1,72.25,0|0,1:2|1:2,0:0:0:0:
246,102,65124,6,0,L|442:97,1,144.5,14|8,0:0|0:0,0:0:0:0:
237,233,65914,2,0,L|230:146,1,72.25,0|12,1:2|0:3,0:0:0:0:
311,155,66309,2,0,L|313:59,1,72.25,4|4,0:3|0:3,0:0:0:0:
233,72,66703,6,0,L|54:77,1,144.5,6|0,1:2|0:0,0:0:0:0:
243,156,67493,2,0,L|246:56,1,72.25,10|2,0:0|0:0,0:0:0:0:
171,88,67887,2,0,L|167:-2,1,72.25,2|2,0:0|0:0,0:0:0:0:
245,33,68282,6,0,L|402:31,1,144.5,2|0,1:2|1:2,0:0:0:0:
234,182,69072,2,0,L|345:173,1,72.25,10|2,0:0|0:0,0:0:0:0:
384,147,69466,2,0,L|388:251,1,72.25,2|2,0:0|0:0,0:0:0:0:
306,263,69861,6,0,L|130:266,1,144.5,2|2,1:2|1:2,0:0:0:0:
242,205,70453,2,0,L|334:201,1,72.25,2|10,0:0|0:0,0:0:0:0:
168,145,71045,2,0,L|158:62,1,72.25,2|2,0:0|0:0,0:0:0:0:
233,64,71440,6,0,L|433:68,1,144.5,0|0,1:2|1:2,0:0:0:0:
233,64,72230,2,0,L|433:68,1,144.5,8|2,0:0|0:0,0:0:0:0:
300,145,72822,1,2,0:0:0:0:
221,125,73019,6,0,L|46:123,1,144.5,2|2,1:2|1:2,0:0:0:0:
157,184,73611,2,0,L|61:185,1,72.25,2|8,0:0|0:0,0:0:0:0:
12,149,74006,1,2,0:0:0:0:
154,11,74401,1,2,0:0:0:0:
226,55,74598,6,0,L|383:58,1,144.5,2|2,1:2|1:2,0:0:0:0:
212,211,75387,2,0,L|209:117,1,72.25,10|0,0:0|0:0,0:0:0:0:
293,127,75782,6,0,L|102:124,2,144.5,6|0|2,1:2|0:0|1:2,0:0:0:0:
433,157,76966,2,0,L|437:252,1,72.25,10|2,0:0|0:0,0:0:0:0:
362,254,77361,6,0,L|203:253,2,144.5,2|14|0,1:2|1:2|1:2,0:0:0:0:
227,182,78545,2,0,L|222:95,1,72.25,10|8,0:0|0:3,0:0:0:0:
300,96,78940,2,0,L|305:-1,1,72.25,4|4,0:3|0:3,0:0:0:0:
227,20,79335,6,0,L|69:25,1,144.5,6|0,1:2|0:0,0:0:0:0:
234,139,80124,2,0,L|235:32,1,72.25,10|2,0:0|0:0,0:0:0:0:
154,63,80519,2,0,L|149:-18,1,72.25,2|2,0:0|0:0,0:0:0:0:
232,27,80914,6,0,L|391:30,2,144.5,2|0|10,1:2|1:2|0:0,0:0:0:0:
92,189,82098,2,0,L|88:107,1,72.25,2|2,0:0|0:0,0:0:0:0:
165,105,82493,6,0,L|319:105,1,144.5,2|2,1:2|1:2,0:0:0:0:
240,183,83085,2,0,L|126:183,1,72.25,2|10,0:0|0:0,0:0:0:0:
318,169,83677,1,2,0:0:0:0:
179,138,84072,6,0,L|177:-27,1,144.5,2|2,1:2|1:2,0:0:0:0:
320,36,84861,1,10,0:0:0:0:
155,172,85256,6,0,L|4:175,1,144.5,6|0,1:2|0:0,0:0:0:0:
167,100,86045,1,2,1:2:0:0:
321,70,86440,2,0,L|333:253,1,144.5,10|2,0:0|0:0,0:0:0:0:
256,219,87032,1,2,0:0:0:0:
185,202,87230,6,0,L|182:24,1,144.5,2|2,1:2|1:2,0:0:0:0:
257,40,87822,1,2,0:0:0:0:
332,38,88019,1,10,0:0:0:0:
205,170,88414,2,0,L|200:80,1,72.25,2|2,0:0|0:0,0:0:0:0:
277,89,88809,6,0,L|461:87,1,144.5,2|2,1:2|0:0,0:0:0:0:
344,155,89401,2,0,L|241:157,1,72.25,2|10,0:0|0:0,0:0:0:0:
426,105,89993,6,0,L|438:282,1,144.5,6|0,1:2|0:0,0:0:0:0:
278,199,90782,2,0,L|275:113,1,72.25,0|8,1:2|0:3,0:0:0:0:
357,104,91177,1,4,0:3:0:0:
420,129,91374,1,4,0:3:0:0:
425,197,91571,1,0,1:2:0:0:
366,232,91769,1,0,0:0:0:0:
289,202,91966,6,0,L|119:197,2,144.5,6|2|2,1:2|0:0|0:0,0:0:0:0:
423,176,93151,1,2,0:0:0:0:
277,135,93545,6,0,L|453:129,1,144.5,6|2,1:2|0:0,0:0:0:0:
261,213,94335,2,0,L|89:217,1,144.5,2|0,0:0|0:0,0:0:0:0:
291,283,95124,6,0,P|305:205|110:150,1,289,2|2,0:0|0:0,0:0:0:0:
382,48,96703,2,0,L|398:357,1,289,2|2,0:0|0:0,0:0:0:0:
155,211,98282,6,0,P|352:154|355:83,1,289,2|2,0:0|0:0,0:0:0:0:
249,48,99466,1,2,0:0:0:0:
50,127,100256,2,0,L|222:202,2,144.5,0|2|2,0:0|0:0|0:0,0:0:0:0:
212,214,101440,6,0,P|259:147|91:59,1,289,2|8,1:2|0:1,0:0:0:0:
362,175,103019,2,0,P|278:95|151:202,1,289,2|8,1:2|0:1,0:0:0:0:
396,229,104598,6,0,L|402:48,1,144.5,2|2,1:2|0:0,0:0:0:0:
273,127,105387,2,0,L|269:31,1,72.25,8|0,0:1|0:0,0:0:0:0:
351,42,105782,6,0,P|433:93|184:289,1,578,2|0,1:2|0:0,0:0:0:0:
256,192,107756,12,0,109730,0:0:0:0:
158,175,110124,5,0,0:0:0:0:
230,172,110321,1,2,0:0:0:0:
302,169,110518,1,2,0:0:0:0:
158,175,110914,6,0,L|141:-22,1,144.5,2|2,1:2|0:0,0:0:0:0:
293,107,111703,2,0,L|120:111,1,144.5,8|0,0:1|1:2,0:0:0:0:
305,196,112493,6,0,L|317:18,1,144.5,2|2,0:0|0:0,0:0:0:0:
164,97,113282,2,0,L|148:-57,1,144.5,8|0,0:1|0:0,0:0:0:0:
307,115,114072,6,0,L|153:117,1,144.5,0|0,1:2|0:0,0:0:0:0:
238,174,114664,2,0,P|279:111|217:64,1,144.5,2|0,0:0|0:0,0:0:0:0:
166,62,115256,6,0,L|-6:65,1,144.5,2|0,1:2|0:0,0:0:0:0:
169,170,116045,2,0,L|13:169,2,144.5,2|8|2,0:0|0:1|0:0,0:0:0:0:
321,185,117230,6,0,L|323:16,1,144.5,2|2,1:2|0:0,0:0:0:0:
248,62,117822,2,0,L|419:52,1,144.5,2|0,0:0|0:0,0:0:0:0:
321,121,118414,1,0,1:2:0:0:
187,157,118809,6,0,L|185:-24,1,144.5,2|2,0:0|0:0,0:0:0:0:
331,51,119598,1,8,0:1:0:0:
191,93,119993,2,0,L|188:10,1,72.25,2|2,0:0|0:0,0:0:0:0:
266,16,120387,6,0,L|436:18,1,144.5,2|2,1:2|0:0,0:0:0:0:
338,85,120980,1,2,0:0:0:0:
203,153,121374,2,0,L|197:65,1,72.25,0|0,0:0|1:2,0:0:0:0:
335,69,121966,5,0,0:0:0:0:
203,78,122361,2,0,L|35:75,2,144.5,2|8|2,0:0|0:1|0:0,0:0:0:0:
336,204,123545,6,0,L|126:212,1,144.5,6|2,1:2|0:0,0:0:0:0:
324,146,124335,2,0,L|327:-37,1,144.5,8|0,0:1|1:2,0:0:0:0:
183,85,125124,6,0,L|355:85,1,144.5,2|2,0:0|0:0,0:0:0:0:
256,143,125716,1,2,0:0:0:0:
183,108,125914,2,0,L|24:107,1,144.5,8|0,0:1|0:0,0:0:0:0:
191,213,126703,6,0,L|25:212,2,144.5,2|2|8,1:2|0:0|0:1,0:0:0:0:
346,145,127887,2,0,L|349:348,1,144.5,2|0,1:2|0:0,0:0:0:0:
205,277,128677,6,0,L|377:279,1,144.5,2|8,0:0|0:1,0:0:0:0:
212,211,129466,2,0,L|207:122,1,72.25,2|2,0:0|0:0,0:0:0:0:
285,124,129861,6,0,L|446:128,1,144.5,2|2,1:2|0:0,0:0:0:0:
350,193,130453,2,0,L|204:193,1,144.5,2|2,0:0|0:0,0:0:0:0:
339,98,131243,1,2,0:0:0:0:
273,87,131440,6,0,L|96:84,2,144.5,2|2|8,0:0|0:0|0:1,0:0:0:0:
411,120,132624,2,0,L|416:231,1,72.25,2|2,0:0|0:0,0:0:0:0:
340,222,133019,6,0,L|181:224,1,144.5,2|2,1:2|0:0,0:0:0:0:
276,152,133611,2,0,L|282:350,1,144.5,2|2,0:0|0:0,0:0:0:0:
203,292,134203,1,2,1:2:0:0:
341,158,134598,6,0,L|151:159,1,144.5,14|8,0:0|0:3,0:0:0:0:
337,114,135387,2,0,L|341:14,1,72.25,8|8,1:2|0:3,0:0:0:0:
257,37,135782,1,4,0:3:0:0:
181,37,135980,1,4,0:3:0:0:
108,263,136177,6,0,L|108:74,1,144.5,6|2,1:2|0:0,0:0:0:0:
281,140,136967,2,0,L|283:-10,1,144.5,10|2,0:0|0:0,0:0:0:0:
435,108,137756,6,0,L|445:-37,1,144.5,2|2,1:2|1:2,0:0:0:0:
286,107,138546,2,0,L|288:-66,1,144.5,10|2,0:0|0:0,0:0:0:0:
434,219,139335,6,0,L|246:215,1,144.5,2|2,1:2|0:0,0:0:0:0:
364,153,139927,1,0,1:2:0:0:
432,103,140124,2,0,L|431:284,1,144.5,8|2,0:0|0:0,0:0:0:0:
266,254,140914,6,0,L|429:257,1,144.5,2|2,1:2|1:2,0:0:0:0:
250,254,141703,2,0,L|57:252,1,144.5,8|2,0:0|0:0,0:0:0:0:
255,193,142493,6,0,L|258:19,1,144.5,2|2,1:2|0:0,0:0:0:0:
405,107,143282,2,0,L|411:-53,1,144.5,10|2,0:0|0:0,0:0:0:0:
248,141,144072,6,0,L|249:-39,1,144.5,2|2,1:2|1:2,0:0:0:0:
81,131,144861,2,0,L|78:-31,1,144.5,10|0,0:0|0:0,0:0:0:0:
251,87,145651,6,0,L|415:90,1,144.5,2|2,1:2|0:0,0:0:0:0:
322,160,146243,1,0,1:2:0:0:
253,157,146440,2,0,L|94:155,1,144.5,8|2,0:0|0:0,0:0:0:0:
180,227,147032,1,2,0:0:0:0:
251,223,147230,6,0,L|258:61,1,144.5,2|2,1:2|1:2,0:0:0:0:
105,122,148019,2,0,L|103:-47,1,144.5,10|6,0:0|1:2,0:0:0:0:
179,17,148611,1,2,0:0:0:0:
254,66,148809,6,0,L|421:70,1,144.5,6|0,1:2|0:0,0:0:0:0:
328,145,149401,1,2,1:2:0:0:
256,140,149598,1,8,0:0:0:0:
381,235,149993,2,0,L|385:120,1,72.25,2|2,0:0|0:0,0:0:0:0:
314,147,150388,6,0,L|163:146,1,144.5,2|0,1:2|1:2,0:0:0:0:
314,206,151177,2,0,L|485:200,1,144.5,8|2,0:0|0:0,0:0:0:0:
379,139,151769,1,2,0:0:0:0:
301,134,151967,6,0,L|138:130,1,144.5,2|0,1:2|0:0,0:0:0:0:
231,196,152559,1,2,1:2:0:0:
306,195,152756,1,8,0:0:0:0:
160,147,153151,2,0,L|157:45,1,72.25,2|2,0:0|0:0,0:0:0:0:
224,57,153546,6,0,L|402:62,1,144.5,2|0,1:2|1:2,0:0:0:0:
213,152,154335,2,0,L|40:146,1,144.5,8|2,0:0|0:0,0:0:0:0:
145,91,154927,1,2,0:0:0:0:
216,95,155124,6,0,L|376:93,1,144.5,2|2,1:2|0:0,0:0:0:0:
216,215,155914,2,0,L|381:215,1,144.5,14|0,0:0|0:0,0:0:0:0:
187,207,156703,6,0,L|186:26,1,144.5,2|2,1:2|1:2,0:0:0:0:
257,55,157296,1,0,1:2:0:0:
335,76,157493,2,0,L|340:-36,1,72.25,14|0,0:0|0:0,0:0:0:0:
253,21,157888,6,0,L|57:20,1,144.5,6|0,1:2|0:0,0:0:0:0:
265,178,158677,2,0,L|267:81,1,72.25,8|0,0:3|0:0,0:0:0:0:
191,104,159072,2,0,L|189:12,1,72.25,14|2,0:0|0:0,0:0:0:0:
269,36,159467,2,0,L|402:33,1,72.25,2|0,1:2|0:0,0:0:0:0:
266,102,159861,6,0,L|70:97,1,144.5,14|8,0:0|0:0,0:0:0:0:
188,166,160453,1,8,0:0:0:0:
267,158,160651,1,12,0:3:0:0:
138,97,161045,2,0,L|133:3,1,72.25,0|0,1:2|0:0,0:0:0:0:
207,24,161440,6,0,L|393:26,2,144.5,6|0|8,1:2|0:0|0:0,0:0:0:0:
351,115,162624,2,0,L|358:215,1,72.25,2|2,0:0|0:0,0:0:0:0:
282,212,163019,6,0,L|92:215,1,144.5,0|0,1:2|1:2,0:0:0:0:
284,213,163809,2,0,L|472:209,2,144.5,10|2|0,0:0|0:0|1:0,0:0:0:0:
140,153,164993,6,0,L|320:154,2,144.5,2|10|2,0:0|0:0|0:0,0:0:0:0:
287,128,166177,2,0,L|292:336,1,144.5,2|0,1:2|1:2,0:0:0:0:
214,279,166769,1,0,1:2:0:0:
137,272,166966,5,14,0:0:0:0:
272,191,167361,2,0,L|278:103,1,72.25,2|2,1:2|0:0,0:0:0:0:
205,104,167756,6,0,L|47:108,2,144.5,6|0|14,1:2|0:0|0:0,0:0:0:0:
351,111,168940,6,0,L|161:114,2,144.5,2|0|0,0:0|1:2|1:2,0:0:0:0:
488,108,170124,2,0,L|497:315,1,144.5,10|2,0:0|0:0,0:0:0:0:
354,265,170914,5,6,1:2:0:0:
214,162,171309,1,0,0:0:0:0:
286,160,171506,1,0,1:2:0:0:
358,158,171703,1,12,0:0:0:0:
214,162,172098,2,0,L|205:50,1,72.25,0|0,1:2|1:2,0:0:0:0:
278,63,172493,6,0,L|429:64,1,144.5,14|8,0:0|0:3,0:0:0:0:
267,175,173282,2,0,L|264:73,1,72.25,10|8,0:0|0:3,0:0:0:0:
339,86,173677,2,0,L|342:-17,1,72.25,8|0,0:3|1:2,0:0:0:0:
256,25,174072,6,0,L|74:34,1,144.5,6|2,1:2|0:0,0:0:0:0:
189,101,174664,2,0,L|344:97,1,144.5,2|2,0:0|0:0,0:0:0:0:
194,183,175453,1,2,0:0:0:0:
264,155,175651,6,0,L|266:-10,1,144.5,2|2,1:2|1:2,0:0:0:0:
130,46,176440,1,8,0:0:0:0:
280,94,176835,6,0,L|475:92,2,144.5,6|0|2,1:2|0:0|1:2,0:0:0:0:
143,136,178019,1,10,0:0:0:0:
289,95,178414,2,0,L|306:271,1,144.5,2|0,0:0|1:2,0:0:0:0:
155,239,179203,6,0,L|149:142,1,72.25,2|2,1:2|0:0,0:0:0:0:
228,134,179598,2,0,L|399:132,1,144.5,10|2,0:0|0:0,0:0:0:0:
299,191,180190,1,0,1:2:0:0:
226,148,180387,6,0,L|67:145,2,144.5,6|2|10,1:2|0:0|0:0,0:0:0:0:
361,167,181572,2,0,L|368:79,1,72.25,2|2,0:0|0:0,0:0:0:0:
281,97,181966,6,0,L|273:-54,1,144.5,2|2,1:2|1:2,0:0:0:0:
414,32,182756,1,10,0:0:0:0:
271,122,183151,2,0,L|152:121,1,72.25,2|2,1:2|0:0,0:0:0:0:
271,122,183545,6,0,L|443:125,2,144.5,6|2|10,1:2|0:0|0:0,0:0:0:0:
134,189,184730,2,0,L|130:23,1,144.5,2|0,0:0|1:2,0:0:0:0:
272,67,185519,5,2,1:2:0:0:
199,67,185716,1,0,0:0:0:0:
127,67,185913,1,10,0:0:0:0:
272,67,186309,2,0,L|276:177,1,72.25,2|0,1:2|0:0,0:0:0:0:
195,177,186703,6,0,L|19:181,1,144.5,6|2,1:2|0:0,0:0:0:0:
195,177,187493,2,0,L|19:181,1,144.5,8|0,0:0|0:0,0:0:0:0:
206,246,188282,6,0,L|389:242,1,144.5,0|0,1:2|1:2,0:0:0:0:
206,246,189072,2,0,L|389:242,1,144.5,8|4,0:0|0:0,0:0:0:0:
273,177,189664,1,0,0:0:0:0:
199,149,189861,5,6,0:0:0:0:
256,192,190256,12,0,192624,0:0:0:0:
190,182,193019,6,0,P|261:109|420:176,1,289,2|2,1:2|3:0,0:0:0:0:
199,267,194598,2,0,L|181:-33,1,289,2|2,1:2|3:0,0:0:0:0:
399,143,196177,6,0,L|108:264,1,289,2|2,1:2|3:0,0:0:0:0:
261,151,197361,2,0,P|256:71|73:241,1,578,2|0,0:0|0:0,0:0:0:0:
195,224,199335,6,0,L|199:125,1,72.25,14|8,0:0|0:0,0:0:0:0:
125,136,199730,2,0,L|117:36,1,72.25,0|0,1:2|1:2,0:0:0:0:
192,57,200124,2,0,L|384:56,1,144.5,10|0,0:0|1:2,0:0:0:0:
199,190,200914,6,0,L|201:101,1,72.25,0|0,1:2|1:2,0:0:0:0:
279,108,201309,2,0,L|285:22,1,72.25,10|2,0:0|1:2,0:0:0:0:
204,41,201703,2,0,L|111:50,1,72.25,8|4,0:3|0:3,0:0:0:0:
204,41,202098,2,0,L|319:39,1,72.25,4|4,0:3|0:3,0:0:0:0:
204,41,202493,6,0,L|38:48,1,144.5,6|0,1:2|0:0,0:0:0:0:
216,143,203282,2,0,L|218:49,1,72.25,10|2,0:0|0:0,0:0:0:0:
141,81,203677,2,0,L|137:-4,1,72.25,2|2,0:0|0:0,0:0:0:0:
209,35,204072,6,0,L|392:34,1,144.5,2|0,1:2|1:2,0:0:0:0:
214,232,204861,2,0,L|208:142,1,72.25,10|2,0:0|0:0,0:0:0:0:
283,147,205256,2,0,L|378:142,1,72.25,2|2,0:0|0:0,0:0:0:0:
283,147,205651,6,0,L|124:150,1,144.5,2|2,1:2|0:0,0:0:0:0:
211,212,206243,2,0,L|383:209,1,144.5,2|2,0:0|0:0,0:0:0:0:
284,148,206835,2,0,L|180:150,1,72.25,2|2,0:0|0:0,0:0:0:0:
284,148,207230,6,0,L|296:335,1,144.5,0|0,1:2|1:2,0:0:0:0:
222,294,207822,1,0,1:2:0:0:
151,265,208019,1,12,0:0:0:0:
278,187,208414,2,0,L|282:105,1,72.25,2|2,1:2|0:0,0:0:0:0:
210,103,208809,6,0,L|42:104,1,144.5,6|2,1:2|1:2,0:0:0:0:
138,169,209401,2,0,L|331:163,1,144.5,2|2,0:0|0:0,0:0:0:0:
211,112,209993,1,2,0:0:0:0:
146,108,210190,6,0,L|140:-58,1,144.5,2|2,0:0|0:0,0:0:0:0:
214,3,210782,1,0,1:2:0:0:
355,87,211177,1,10,0:0:0:0:
192,170,211572,6,0,P|183:87|375:99,1,289,6|2,1:2|1:2,0:0:0:0:
216,178,212756,2,0,L|211:89,1,72.25,10|2,0:0|0:0,0:0:0:0:
289,97,213151,6,0,L|481:97,2,144.5,2|0|0,0:0|1:2|1:2,0:0:0:0:
156,207,214335,2,0,L|147:107,1,72.25,14|8,0:0|0:3,0:0:0:0:
221,111,214730,2,0,L|319:108,1,72.25,4|4,0:3|0:3,0:0:0:0:
221,111,215124,6,0,L|25:118,1,144.5,6|0,1:2|0:0,0:0:0:0:
223,196,215914,2,0,L|227:108,1,72.25,10|2,0:0|0:0,0:0:0:0:
152,110,216309,2,0,L|40:113,1,72.25,2|2,0:0|0:0,0:0:0:0:
152,110,216703,6,0,L|362:107,2,144.5,2|0|10,1:2|1:2|0:0,0:0:0:0:
23,183,217887,2,0,L|16:82,1,72.25,2|2,0:0|0:0,0:0:0:0:
89,101,218282,6,0,L|298:99,1,144.5,2|2,1:2|0:0,0:0:0:0:
158,187,218874,2,0,L|166:347,1,144.5,2|0,0:0|0:0,0:0:0:0:
239,332,219466,1,2,0:0:0:0:
389,222,219861,6,0,L|191:226,2,144.5,2|4|2,1:2|0:3|1:2,0:0:0:0:
231,170,221045,6,0,L|220:-18,1,144.5,6|0,1:2|0:0,0:0:0:0:
376,38,221835,1,2,1:2:0:0:
218,74,222230,2,0,L|44:73,1,144.5,10|2,0:0|0:0,0:0:0:0:
222,134,223019,6,0,L|395:137,1,144.5,2|2,1:2|1:2,0:0:0:0:
290,208,223611,2,0,L|131:207,1,144.5,2|0,0:0|0:0,0:0:0:0:
224,150,224203,1,2,1:2:0:0:
386,167,224598,6,0,L|391:7,1,144.5,6|8,1:2|0:3,0:0:0:0:
318,17,225190,2,0,L|162:21,1,144.5,8|0,0:3|0:0,0:0:0:0:
255,77,225782,6,0,P|327:116|205:242,1,289,6|0,1:2|1:2,0:0:0:0:
108,234,226966,2,0,L|108:50,1,144.5,8|0,0:0|1:2,0:0:0:0:
264,81,227756,5,4,1:2:0:0:
124,65,228151,1,2,0:0:0:0:
284,147,228545,2,0,L|469:149,1,144.5,10|2,0:0|1:2,0:0:0:0:
292,149,229335,6,0,L|283:-11,1,144.5,2|2,1:2|1:2,0:0:0:0:
356,15,229927,2,0,L|163:23,1,144.5,2|0,0:0|0:0,0:0:0:0:
286,88,230519,1,2,1:2:0:0:
434,95,230914,6,0,L|439:299,1,144.5,6|2,1:2|0:0,0:0:0:0:
358,246,231506,2,0,L|348:147,1,72.25,2|8,0:0|0:0,0:0:0:0:
425,151,231901,1,2,0:0:0:0:
350,146,232098,2,0,L|141:140,1,144.5,2|0,0:0|1:2,0:0:0:0:
348,116,232887,6,0,L|348:14,1,72.25,0|0,1:2|0:0,0:0:0:0:
280,36,233282,1,8,0:0:0:0:
137,171,233677,2,0,L|130:75,1,72.25,0|2,1:2|0:0,0:0:0:0:
206,80,234072,5,6,1:2:0:0:
344,164,234466,2,0,L|160:166,2,144.5,2|10|2,0:0|0:0|0:0,0:0:0:0:
487,153,235651,6,0,L|494:327,1,144.5,2|2,1:2|1:2,0:0:0:0:
417,293,236243,1,2,0:0:0:0:
343,286,236440,1,8,0:0:0:0:
199,188,236835,1,2,1:2:0:0:
353,138,237230,6,0,L|356:-30,1,144.5,2|2,1:2|0:0,0:0:0:0:
216,94,238019,2,0,L|217:-10,1,72.25,10|2,0:0|0:0,0:0:0:0:
287,18,238414,6,0,L|444:17,1,144.5,6|0,1:2|0:0,0:0:0:0:
277,173,239203,2,0,L|279:77,1,72.25,8|0,0:3|0:0,0:0:0:0:
351,103,239598,2,0,L|353:25,1,72.25,8|0,0:3|0:0,0:0:0:0:
280,60,239993,2,0,L|281:-45,1,72.25,0|0,1:2|0:0,0:0:0:0:
353,14,240387,6,0,P|431:58|334:209,1,289,6|2,1:2|0:0,0:0:0:0:
225,146,241572,1,2,0:0:0:0:
91,173,241966,6,0,L|288:163,1,144.5,6|0,1:2|0:0,0:0:0:0:
104,169,242756,2,0,L|89:-5,1,144.5
237,33,243545,6,0,P|348:68|245:201,1,289,2|0,0:0|0:0,0:0:0:0:
193,130,244730,1,0,0:0:0:0:
84,237,245124,2,0,L|396:181,1,289,2|0,0:0|0:0,0:0:0:0:
116,228,246703,6,0,P|106:108|274:50,1,289,2|2,0:0|0:0,0:0:0:0:
362,103,247887,2,0,L|58:142,1,289,2|0,0:0|0:0,0:0:0:0:
214,146,249072,2,0,L|221:334,1,144.5,2|0,0:0|0:0,0:0:0:0:
66,311,249861,6,0,P|76:238|282:258,1,289,2|0,0:0|0:0,0:0:0:0:
142,147,251045,1,2,0:0:0:0:
271,110,251440,6,0,L|445:108,1,144.5,2|0,0:0|0:0,0:0:0:0:
269,174,252230,2,0,L|264:19,1,144.5,2|2,0:0|0:0,0:0:0:0:
433,41,253019,6,0,L|232:45,1,144.5,2|2,0:0|0:0,0:0:0:0:
434,85,253809,2,0,L|445:173,1,72.25,2|2,0:0|0:0,0:0:0:0:
371,193,254203,6,0,P|280:131|404:9,1,289,2|2,0:0|0:0,0:0:0:0:
478,42,255387,2,0,L|483:238,1,144.5,2|2,0:0|0:0,0:0:0:0:
321,230,256177,6,0,L|141:223,1,144.5,2|2,1:2|0:0,0:0:0:0:
321,230,256966,2,0,L|141:223,1,144.5,2|0,0:0|1:2,0:0:0:0:
323,119,257756,6,0,L|499:117,1,144.5,2|2,1:2|0:0,0:0:0:0:
323,119,258545,2,0,L|499:117,1,144.5,8|2,0:1|0:0,0:0:0:0:
301,214,259335,6,0,L|291:21,1,144.5,0|2,1:2|0:0,0:0:0:0:
363,58,259927,1,0,0:0:0:0:
436,52,260124,1,2,0:0:0:0:
271,129,260519,5,4,1:2:0:0:
256,192,260914,12,0,268809,0:0:0:0:
