osu file format v14

[General]
AudioFilename: audio.mp3
AudioLeadIn: 0
PreviewTime: 201703
Countdown: 0
SampleSet: Soft
StackLeniency: 0.7
Mode: 0
LetterboxInBreaks: 0
EpilepsyWarning: 1
WidescreenStoryboard: 1

[Editor]
Bookmarks: 41440,66703,161440,202493,268809
DistanceSpacing: 1.3
BeatDivisor: 8
GridSize: 8
TimelineZoom: 1.2

[Metadata]
Title:Homura
TitleUnicode:炎
Artist:LiSA
ArtistUnicode:LiSA
Creator:HeTo
Version:Never
Source:劇場版「鬼滅の刃」無限列車編
Tags:Demon Slayer Kimetsu no Yaiba the Movie Mugen Train Ressha-hen Ressha hen Japanese anime movie jpop pop j-pop ed ending 梶浦由記 Yuki Kajiura 煉獄杏寿郎 Rengoku Kyojuro
BeatmapID:2653686
BeatmapSetID:1277285

[Difficulty]
HPDrainRate:5.5
CircleSize:4.2
OverallDifficulty:7
ApproachRate:8.2
SliderMultiplier:1.69
SliderTickRate:1

[Events]
//Background and Video events
0,0,"bg.jpg",0,0
//Break Periods
//Storyboard Layer 0 (Background)
//Storyboard Layer 1 (Fail)
//Storyboard Layer 2 (Pass)
//Storyboard Layer 3 (Foreground)
//Storyboard Layer 4 (Overlay)
//Storyboard Sound Samples

[TimingPoints]
388,789.473684210526,4,2,5,30,1,0
388,-175.438596491229,4,2,5,30,0,0
6703,-149.253731343284,4,2,5,30,0,0
13414,-212.765957446809,4,2,5,20,0,0
15387,-192.307692307692,4,2,5,20,0,0
16177,-149.253731343284,4,2,5,30,0,0
39466,-129.87012987013,4,2,5,30,0,0
39565,-129.87012987013,4,2,5,5,0,0
39664,-129.87012987013,4,2,5,30,0,0
39762,-129.87012987013,4,2,5,5,0,0
39861,-85.4700854700854,4,2,5,55,0,0
41440,-98.0392156862745,4,2,5,50,0,0
46078,-98.0392156862745,4,2,5,5,0,0
46177,-98.0392156862745,4,2,5,50,0,0
50815,-98.0392156862745,4,2,5,5,0,0
50914,-98.0392156862745,4,2,5,50,0,0
63052,-98.0392156862745,4,2,5,5,0,0
63151,-85.4700854700857,4,2,5,65,0,0
63841,-85.4700854700857,4,2,5,5,0,0
63940,-85.4700854700857,4,2,5,65,0,0
65420,-85.4700854700857,4,2,5,5,0,0
65519,-85.4700854700857,4,2,5,65,0,0
66703,-72.992700729927,4,2,5,70,0,1
75684,-72.992700729927,4,2,5,5,0,1
75782,-72.992700729927,4,2,5,70,0,1
76473,-72.992700729927,4,2,5,5,0,1
76572,-72.992700729927,4,2,5,70,0,1
83973,-72.992700729927,4,2,5,5,0,1
84072,-72.992700729927,4,2,5,70,0,1
85947,-72.992700729927,4,2,5,5,0,1
86045,-72.992700729927,4,2,5,70,0,1
89894,-72.992700729927,4,2,5,5,0,1
89993,-72.992700729927,4,2,5,70,0,1
90684,-72.992700729927,4,2,5,5,0,1
90782,-72.992700729927,4,2,5,70,0,1
91966,-114.942528735632,4,2,5,60,0,0
92361,-114.942528735632,4,2,5,50,0,0
93545,-129.87012987013,4,2,5,60,0,0
94335,-175.438596491228,4,2,5,40,0,0
95124,-175.438596491229,4,2,5,30,0,0
101440,-149.253731343284,4,2,5,30,0,0
107756,-312.5,4,2,5,20,0,0
110124,-270.270270270272,4,2,5,20,0,0
110914,-129.87012987013,4,2,5,30,0,0
134499,-129.87012987013,4,2,5,5,0,0
134598,-75.7575757575758,4,2,5,55,0,0
134993,-89.2857142857143,4,2,5,55,0,0
136177,-98.0392156862745,4,2,5,50,0,0
157197,-98.0392156862745,4,2,5,5,0,0
157295,-98.0392156862745,4,2,5,50,0,0
157493,-121.951219512195,4,2,5,50,0,0
157789,-121.951219512195,4,2,5,5,0,0
157887,-72.992700729927,4,2,5,60,0,0
158578,-85.4700854700855,4,2,5,5,0,0
158677,-85.4700854700855,4,2,5,60,0,0
161440,-68.0272108843537,4,2,5,70,0,1
167262,-68.0272108843537,4,2,5,5,0,1
167361,-68.0272108843537,4,2,5,70,0,1
172789,-68.0272108843537,4,2,5,5,0,1
172887,-68.0272108843537,4,2,5,70,0,1
174072,-72.992700729927,4,2,5,70,0,1
186605,-72.992700729927,4,2,5,5,0,1
186703,-72.992700729927,4,2,5,70,0,1
189466,-72.992700729927,4,2,5,30,0,1
189762,-72.992700729927,4,2,5,5,0,1
189861,-149.253731343284,4,2,5,40,0,0
192920,-149.253731343284,4,2,5,5,0,0
193019,-175.438596491228,4,2,5,35,0,0
197361,-212.765957446809,4,2,5,35,0,0
199236,-175.438596491228,4,2,5,5,0,0
199335,-85.4700854700857,4,2,5,65,0,0
202493,-72.992700729927,4,2,5,70,0,1
211473,-72.992700729927,4,2,5,5,0,1
211572,-72.992700729927,4,2,5,70,0,1
219762,-72.992700729927,4,2,5,5,0,1
219861,-72.992700729927,4,2,5,70,0,1
220947,-72.992700729927,4,2,5,5,0,1
221045,-72.992700729927,4,2,5,70,0,1
221736,-72.992700729927,4,2,5,5,0,1
221835,-72.992700729927,4,2,5,70,0,1
224499,-72.992700729927,4,2,5,5,0,1
224598,-72.992700729927,4,2,5,70,0,1
226473,-72.992700729927,4,2,5,5,0,1
226572,-72.992700729927,4,2,5,70,0,1
227756,-72.992700729927,4,2,5,70,0,1
230815,-72.992700729927,4,2,5,5,0,1
230914,-72.992700729927,4,2,5,70,0,1
235749,-72.992700729927,4,2,5,5,0,1
236045,-72.992700729927,4,2,5,70,0,1
237131,-72.992700729927,4,2,5,5,0,1
237230,-72.992700729927,4,2,5,70,0,1
239105,-72.992700729927,4,2,5,5,0,1
239203,-72.992700729927,4,2,5,70,0,1
240387,-129.87012987013,4,2,5,60,0,0
241868,-129.87012987013,4,2,5,5,0,0
241966,-129.87012987013,4,2,5,60,0,0
243545,-175.438596491229,4,2,5,25,0,0
252920,-175.438596491229,4,2,5,5,0,0
253019,-175.438596491229,4,2,5,25,0,0
256177,-149.253731343284,4,2,5,35,0,0
260519,-175.438596491228,4,2,5,35,0,0
262493,-175.438596491228,4,2,5,25,0,0
265651,-175.438596491228,4,2,5,15,0,0
268809,-212.765957446809,4,2,5,5,0,0

[Colours]
Combo1 : 253,219,128
Combo2 : 192,192,192
Combo3 : 255,115,47
Combo4 : 176,0,0

[HitObjects]
367,77,388,6,0,B|310:62|280:104|292:117|246:167|196:146,1,192.659997648193,2|2,0:0|0:0,0:0:0:0:
59,10,3545,2,0,P|41:39|19:159,1,144.494998236145,2|2,0:0|0:0,0:0:0:0:
86,313,6703,6,0,P|117:301|143:295,1,56.6149973219835,2|2,0:0|0:0,0:0:0:0:
215,320,7493,1,2,0:0:0:0:
273,244,7887,1,2,0:0:0:0:
218,136,8282,2,0,P|214:180|211:212,1,56.6149973219835,2|2,0:0|0:0,0:0:0:0:
127,229,9072,1,2,0:0:0:0:
79,166,9466,1,2,0:0:0:0:
157,95,9861,6,0,P|185:102|229:120,2,56.6149973219835,2|2|2,0:0|0:0|0:0,0:0:0:0:
303,22,11045,2,0,P|295:81|282:202,1,169.84499196595,2|0,0:0|0:0,0:0:0:0:
476,305,13414,6,0,P|460:235|377:237,1,158.859997575989,2|0,0:0|0:0,0:0:0:0:
323,286,15190,1,0,0:0:0:0:
323,286,15387,2,0,L|286:277,1,21.9699998659058,8|0,0:1|0:0,0:0:0:0:
243,228,15782,1,0,0:0:0:0:
243,228,16177,6,0,P|250:177|254:147,1,56.6149973219835,2|0,1:2|0:0,0:0:0:0:
233,246,16769,2,0,P|209:212|124:211,1,113.229994643967,2|0,0:0|0:0,0:0:0:0:
54,132,17756,6,0,P|83:125|108:105,1,56.6149973219835,2|0,1:2|0:0,0:0:0:0:
38,126,18348,2,0,P|45:167|52:209,1,84.9224959829752,2|2,0:0|0:0,0:0:0:0:
37,286,19137,1,0,0:0:0:0:
106,345,19335,6,0,P|139:335|167:330,1,56.6149973219835,2|2,1:2|0:0,0:0:0:0:
349,306,20124,2,0,P|321:299|297:291,1,28.3074986609917,8|0,0:1|0:0,0:0:0:0:
258,355,20519,2,0,B|332:357|292:322|375:325,1,113.229994643967,2|2,1:2|0:0,0:0:0:0:
360,179,21703,2,0,P|340:158|311:154,1,56.6149973219835,2|2,0:0|0:0,0:0:0:0:
389,252,22295,1,2,0:0:0:0:
464,193,22493,6,0,P|472:144|476:118,1,56.6149973219835,2|2,1:2|0:0,0:0:0:0:
421,56,23085,1,2,0:0:0:0:
421,56,23282,2,0,P|393:61|374:81,1,56.6149973219835,8|2,0:1|0:0,0:0:0:0:
286,188,24072,1,2,0:0:0:0:
286,188,24466,2,0,P|251:179|218:176,1,56.6149973219835,2|0,0:0|0:0,0:0:0:0:
139,116,25256,1,2,0:0:0:0:
187,57,25453,1,2,0:0:0:0:
112,11,25651,6,0,P|78:18|53:24,1,56.6149973219835,2|2,1:2|0:0,0:0:0:0:
9,87,26243,1,2,0:0:0:0:
86,177,26440,1,8,0:1:0:0:
86,177,26835,2,0,B|158:166|109:138|207:127,1,113.229994643967,2|2,1:2|0:0,0:0:0:0:
120,273,28019,2,0,P|84:273|66:253,1,56.6149973219835,2|0,0:0|0:0,0:0:0:0:
208,164,28809,6,0,P|234:155|262:147,1,56.6149973219835,2|2,1:2|0:0,0:0:0:0:
331,188,29401,1,2,0:0:0:0:
405,106,29598,2,0,P|395:57|389:26,1,56.6149973219835,2|2,0:0|0:0,0:0:0:0:
393,50,30190,1,2,0:0:0:0:
494,187,30387,6,0,P|490:186|439:171,1,56.6149973219835,2|2,0:0|0:0,0:0:0:0:
372,205,30980,1,2,0:0:0:0:
289,101,31177,2,0,P|299:52|305:21,1,56.6149973219835,2|2,1:2|0:0,0:0:0:0:
300,45,31769,1,2,0:0:0:0:
200,122,31966,6,0,P|205:149|212:185,1,56.6149973219835,2|2,1:2|0:0,0:0:0:0:
194,285,32559,1,2,0:0:0:0:
251,330,32756,2,0,P|282:320|296:317,1,37.743331547989,8|0,0:1|0:0,0:0:0:0:
231,349,33151,2,0,P|210:343|114:317,1,113.229994643967,2|2,1:2|0:0,0:0:0:0:
0,215,34335,2,0,P|36:185|47:184,1,56.6149973219835,2|2,0:0|0:0,0:0:0:0:
122,229,34927,1,2,0:0:0:0:
225,148,35124,6,0,P|217:110|210:83,1,56.6149973219835,2|2,1:2|0:0,0:0:0:0:
186,17,35716,1,2,0:0:0:0:
317,112,35914,2,0,P|325:74|332:47,1,56.6149973219835,8|2,0:1|1:2,0:0:0:0:
161,155,36703,6,0,P|201:156|221:169,1,56.6149973219835,2|2,0:0|0:0,0:0:0:0:
281,212,37295,1,2,0:0:0:0:
209,289,37493,2,0,P|203:250|200:227,1,56.6149973219835,2|2,0:0|0:0,0:0:0:0:
199,309,38085,1,2,0:0:0:0:
300,234,38282,6,0,P|332:239|364:248,1,56.6149973219835,2|2,1:2|0:0,0:0:0:0:
417,194,38874,1,2,0:0:0:0:
491,274,39072,2,0,P|487:287|485:307,1,28.3074986609917,8|0,0:1|0:0,0:0:0:0:
419,177,39466,6,0,L|424:148,1,16.2662496773357,2|0,0:0|0:0,0:0:0:0:
504,133,39664,2,0,L|501:149,1,16.2662496773357,2|0,0:0|0:0,0:0:0:0:
423,45,39861,6,0,B|383:53|383:53|375:62|375:62|321:75,1,98.86500037714,12|8,0:0|0:3,0:0:0:0:
256,44,40453,1,0,0:0:0:0:
134,179,40651,5,8,0:3:0:0:
250,300,40848,1,4,0:3:0:0:
404,220,41045,1,8,0:3:0:0:
326,155,41243,1,2,0:0:0:0:
326,155,41341,1,2,0:0:0:0:
326,155,41440,6,0,B|324:199|324:199|328:206|328:206|326:253,1,86.190000526062,6|2,1:2|0:0,0:0:0:0:
204,366,42230,2,0,P|179:344|181:282,1,86.190000526062,10|2,0:0|0:0,0:0:0:0:
228,236,42822,1,0,0:0:0:0:
143,159,43019,6,0,P|114:168|89:177,1,43.095000263031,2|0,1:2|0:0,0:0:0:0:
64,99,43414,2,0,P|84:92|105:85,1,43.095000263031,2|0,1:2|0:0,0:0:0:0:
243,154,43809,1,10,0:0:0:0:
243,154,44203,2,0,L|250:109,1,43.095000263031,2|2,0:0|0:0,0:0:0:0:
236,41,44499,1,2,0:0:0:0:
236,41,44598,6,0,P|262:18|329:24,1,86.190000526062,2|2,1:2|0:0,0:0:0:0:
387,34,45190,1,0,1:2:0:0:
465,162,45387,1,8,0:0:0:0:
465,162,45782,2,0,P|431:153|396:146,1,64.6425003945465,2|0,0:0|0:0,0:0:0:0:
361,213,46177,6,0,P|395:222|417:227,1,43.095000263031,2|0,1:2|0:0,0:0:0:0:
329,101,46572,2,0,P|308:106|287:111,1,43.095000263031,2|0,1:2|0:0,0:0:0:0:
225,222,46966,2,0,P|174:223|151:193,1,86.190000526062,10|2,0:0|0:0,0:0:0:0:
118,126,47559,1,0,0:0:0:0:
212,31,47756,6,0,P|207:84|203:133,1,86.190000526062,2|2,1:2|0:0,0:0:0:0:
92,234,48545,2,0,B|54:228|54:228|47:218|47:218|12:211,1,86.190000526062,10|2,0:0|0:0,0:0:0:0:
92,378,49335,2,0,P|120:370|143:367,1,43.095000263031,2|0,1:2|0:0,0:0:0:0:
47,310,49730,2,0,P|26:316|5:320,1,43.095000263031,0|0,1:2|0:0,0:0:0:0:
112,234,50124,1,10,0:0:0:0:
112,234,50519,6,0,P|116:194|120:159,1,64.6425003945465,6|0,0:0|0:0,0:0:0:0:
113,147,50914,6,0,P|132:128|199:134,1,86.190000526062,0|2,1:2|0:0,0:0:0:0:
249,188,51506,1,0,1:0:0:0:
361,99,51703,2,0,B|356:59|356:59|351:50|351:50|346:3,1,86.190000526062,8|2,0:0|0:0,0:0:0:0:
347,14,52493,6,0,P|377:6|398:1,1,43.095000263031,2|0,1:2|0:0,0:0:0:0:
280,112,52887,1,2,1:2:0:0:
268,110,52986,1,2,0:0:0:0:
257,108,53085,1,2,0:0:0:0:
377,181,53282,1,10,0:0:0:0:
377,181,53677,1,2,1:2:0:0:
331,242,53874,1,2,0:0:0:0:
391,345,54072,6,0,P|430:334|475:325,1,86.190000526062,6|0,1:2|0:0,0:0:0:0:
444,213,54664,2,0,P|422:208|401:204,1,43.095000263031,2|8,1:2|0:0,0:0:0:0:
325,255,55059,1,2,0:0:0:0:
181,173,55256,5,2,0:0:0:0:
228,112,55453,1,2,0:0:0:0:
160,41,55651,2,0,P|117:52|76:61,1,86.190000526062,2|0,1:2|1:2,0:0:0:0:
62,138,56243,2,0,P|84:143|105:147,1,43.095000263031,2|8,0:0|0:0,0:0:0:0:
188,181,56637,1,0,0:0:0:0:
73,323,56835,5,2,0:0:0:0:
38,244,57032,1,2,0:0:0:0:
166,350,57230,2,0,B|208:342|208:342|215:333|215:333|252:326,1,86.190000526062,2|0,1:2|0:0,0:0:0:0:
156,207,57822,2,0,P|152:247|150:266,1,43.095000263031,2|8,1:2|0:0,0:0:0:0:
266,156,58216,1,2,0:0:0:0:
137,44,58414,5,2,0:0:0:0:
176,110,58611,1,2,0:0:0:0:
249,18,58809,2,0,B|287:25|287:25|294:34|294:34|331:41,1,86.190000526062,2|0,1:2|1:2,0:0:0:0:
372,105,59401,1,2,0:0:0:0:
266,156,59598,2,0,B|263:125|257:96,1,43.095000263031,10|0,0:0|0:0,0:0:0:0:
398,218,59993,1,2,0:0:0:0:
338,271,60190,1,2,0:0:0:0:
412,384,60387,6,0,B|414:342|414:342|409:333|409:333|412:285,1,86.190000526062,2|0,1:2|0:0,0:0:0:0:
474,250,60980,1,0,1:2:0:0:
327,170,61177,2,0,P|289:180|229:197,1,86.190000526062,10|2,0:0|0:0,0:0:0:0:
379,74,61769,1,2,0:0:0:0:
379,74,61868,1,2,0:0:0:0:
379,74,61966,6,0,P|420:85|436:90,1,43.095000263031,2|0,1:2|0:0,0:0:0:0:
334,244,62361,2,0,P|313:250|292:255,1,43.095000263031,2|0,1:2|0:0,0:0:0:0:
244,57,62756,2,0,P|276:76|283:107,1,64.6425003945465,10|0,0:0|0:0,0:0:0:0:
209,180,63151,6,0,B|155:192|135:146|144:133|109:97|62:111,1,173.013750659995,6|0,1:2|0:0,0:0:0:0:
19,203,63940,2,0,P|44:192|70:186,1,49.43250018857,4|0,0:3|0:0,0:0:0:0:
184,296,64335,1,14,0:0:0:0:
184,296,64730,5,0,1:2:0:0:
280,201,64927,1,0,1:2:0:0:
212,34,65124,2,0,P|208:71|202:125,1,74.148750282855,14|0,0:0|0:0,0:0:0:0:
284,212,65519,2,0,B|320:205|320:205|325:198|325:198|365:191,1,74.148750282855,8|0,0:0|0:0,0:0:0:0:
425,243,65914,5,0,1:2:0:0:
349,78,66111,1,12,0:3:0:0:
198,219,66309,5,4,0:3:0:0:
184,296,66506,1,4,0:3:0:0:
377,379,66703,6,0,B|432:363|432:363|437:358|437:358|488:346,1,115.765003267902,6|0,1:2|0:0,0:0:0:0:
307,91,67493,1,10,0:0:0:0:
202,191,67690,1,2,0:0:0:0:
339,241,67887,1,2,0:0:0:0:
281,167,68085,1,2,0:0:0:0:
176,310,68282,6,0,P|134:300|106:296,1,57.8825016339512,2|0,1:2|0:0,0:0:0:0:
56,181,68677,2,0,P|84:174|112:167,1,57.8825016339512,0|0,1:2|0:0,0:0:0:0:
308,79,69072,1,10,0:0:0:0:
281,167,69269,1,2,0:0:0:0:
222,31,69466,1,2,0:0:0:0:
389,127,69664,1,2,0:0:0:0:
213,283,69861,6,0,B|216:210|174:252|185:164,1,115.765003267902,2|2,1:2|1:2,0:0:0:0:
157,340,70453,1,2,0:0:0:0:
356,221,70651,2,0,P|329:176|251:181,1,115.765003267902,10|2,0:0|0:0,0:0:0:0:
205,102,71243,1,2,0:0:0:0:
290,5,71440,6,0,P|286:39|280:84,1,57.8825016339512,0|0,1:2|0:0,0:0:0:0:
96,175,71835,2,0,P|99:146|103:117,1,57.8825016339512,0|0,1:2|0:0,0:0:0:0:
78,11,72230,1,8,0:0:0:0:
78,11,72624,1,2,0:0:0:0:
183,175,72822,1,2,0:0:0:0:
400,30,73019,6,0,B|350:21|350:21|341:12|341:12|281:3,1,115.765003267902,2|2,1:2|1:2,0:0:0:0:
208,78,73611,1,2,0:0:0:0:
259,139,73809,1,8,0:0:0:0:
152,273,74006,2,0,P|124:264|96:258,1,57.8825016339512,2|0,0:0|0:0,0:0:0:0:
182,173,74401,1,2,0:0:0:0:
248,288,74598,6,0,P|241:326|237:357,1,57.8825016339512,2|0,1:2|0:0,0:0:0:0:
99,179,74993,2,0,P|104:150|108:121,1,57.8825016339512,2|0,1:2|0:0,0:0:0:0:
338,29,75387,6,0,P|388:42|409:76,1,86.8237524509268,10|0,0:0|0:0,0:0:0:0:
512,23,75782,6,0,B|486:28|456:29|456:29|420:62|398:101|398:101|377:99|335:106,1,202.588755718829,6|0,1:2|0:0,0:0:0:0:
371,179,76572,6,0,P|404:176|434:177,1,57.8825016339512,2|0,1:2|0:0,0:0:0:0:
277,362,76966,1,10,0:0:0:0:
217,306,77164,1,2,0:0:0:0:
298,221,77361,2,0,P|291:271|288:300,1,57.8825016339512,2|0,1:2|0:0,0:0:0:0:
65,377,77756,6,0,P|60:345|48:276,1,86.8237524509268,14|0,1:2|0:0,0:0:0:0:
0,235,78151,2,0,P|20:216|59:215,1,57.8825016339512,0|0,1:2|0:0,0:0:0:0:
297,307,78545,5,10,0:0:0:0:
152,238,78743,1,8,0:3:0:0:
293,97,78940,5,4,0:3:0:0:
267,170,79137,1,4,0:3:0:0:
76,68,79335,6,0,P|98:24|164:12,1,115.765003267902,6|0,1:2|0:0,0:0:0:0:
269,258,80124,1,10,0:0:0:0:
152,171,80322,1,2,0:0:0:0:
293,97,80519,1,2,0:0:0:0:
242,181,80716,1,2,0:0:0:0:
171,71,80914,6,0,P|178:31|183:3,1,57.8825016339512,2|0,1:2|0:0,0:0:0:0:
331,171,81309,2,0,P|336:199|341:228,1,57.8825016339512,0|0,1:2|0:0,0:0:0:0:
212,354,81703,2,0,B|142:344|188:317|100:308,1,115.765003267902,10|2,0:0|0:0,0:0:0:0:
50,223,82295,1,2,0:0:0:0:
218,141,82493,6,0,P|272:155|341:173,1,115.765003267902,2|2,1:2|1:2,0:0:0:0:
490,278,83085,1,2,0:0:0:0:
398,376,83282,2,0,B|381:346|381:346|399:303,1,57.8825016339512,10|0,0:0|0:0,0:0:0:0:
505,113,83677,2,0,P|497:159|488:223,1,86.8237524509268,2|0,0:0|0:0,0:0:0:0:
490,278,84072,6,0,P|456:264|431:257,1,57.8825016339512,2|0,1:2|0:0,0:0:0:0:
351,134,84466,2,0,P|380:111|398:93,1,57.8825016339512,2|0,1:2|0:0,0:0:0:0:
480,359,84861,2,0,P|446:345|421:338,1,57.8825016339512,10|0,0:0|0:0,0:0:0:0:
242,112,85256,6,0,B|192:119|162:181|192:229|192:229|195:189|238:177,1,202.588755718829,6|0,1:2|0:0,0:0:0:0:
144,84,86045,6,0,B|118:76|118:76|78:96,1,57.8825016339512,2|0,1:2|0:0,0:0:0:0:
4,199,86440,2,0,P|29:194|62:189,1,57.8825016339512,10|0,0:0|0:0,0:0:0:0:
180,258,86835,1,2,0:0:0:0:
130,318,87032,1,2,0:0:0:0:
210,376,87230,6,0,B|255:372|255:372|268:360|273:353|273:353|331:351,1,115.765003267902,2|2,1:2|1:2,0:0:0:0:
431,261,87822,1,2,0:0:0:0:
343,151,88019,2,0,P|300:169|277:239,1,115.765003267902,10|2,0:0|0:0,0:0:0:0:
347,280,88611,1,2,0:0:0:0:
469,182,88809,6,0,P|475:141|488:54,1,115.765003267902,2|2,1:2|0:0,0:0:0:0:
438,6,89401,1,2,0:0:0:0:
292,112,89598,2,0,P|319:143|362:147,1,86.8237524509268,10|0,0:0|0:0,0:0:0:0:
365,167,89993,6,0,B|308:181|279:126|279:126|227:91|166:145,1,202.588755718829,6|0,1:2|0:0,0:0:0:0:
114,105,90782,5,0,1:2:0:0:
65,205,90980,1,8,0:3:0:0:
214,279,91177,5,4,0:3:0:0:
185,205,91374,1,4,0:3:0:0:
59,348,91572,5,0,1:2:0:0:
59,348,91966,6,0,P|86:325|135:324,1,73.5150006169624,6|2,1:2|0:0,0:0:0:0:
210,370,92756,1,2,0:0:0:0:
329,241,93151,1,2,0:0:0:0:
281,182,93348,1,2,0:0:0:0:
215,215,93545,6,0,P|210:253|205:291,1,65.064998709343,6|2,1:2|0:0,0:0:0:0:
368,166,94335,2,0,P|361:124|354:85,1,72.2474991180725,2|0,0:0|0:0,0:0:0:0:
400,26,95124,6,0,P|435:24|485:67,1,96.3299988240967,2|2,0:0|0:0,0:0:0:0:
439,173,96309,1,2,0:0:0:0:
439,173,96703,2,0,P|406:177|387:181,1,48.1649994120483,2|0,0:0|0:0,0:0:0:0:
308,134,97493,1,2,0:0:0:0:
254,189,97887,1,2,0:0:0:0:
310,254,98282,6,0,P|306:277|302:301,2,48.1649994120483,2|2|2,0:0|0:0|0:0,0:0:0:0:
238,160,99466,2,0,P|202:166|180:231,1,96.3299988240967,2|0,0:0|0:0,0:0:0:0:
219,302,100651,1,2,0:0:0:0:
165,360,101046,1,2,0:0:0:0:
23,317,101440,6,0,P|16:275|10:250,1,56.6149973219835,2|2,1:2|0:0,0:0:0:0:
93,201,102230,2,0,P|100:159|106:134,1,56.6149973219835,8|0,0:1|3:0,0:0:0:0:
0,69,103019,2,0,P|21:34|99:24,1,113.229994643967,2|8,1:2|0:1,0:0:0:0:
194,52,104203,1,2,0:0:0:0:
150,175,104598,5,2,1:2:0:0:
114,104,104993,1,2,0:0:0:0:
171,51,105387,1,8,0:1:0:0:
264,135,105782,2,0,P|306:124|387:106,1,113.229994643967,2|0,1:2|0:0,0:0:0:0:
502,323,107756,6,0,B|404:332|462:268|349:277,1,162.24,2|0,0:0|0:0,0:0:0:0:
294,235,110322,1,2,0:0:0:0:
350,181,110519,1,2,0:0:0:0:
350,181,110914,6,0,P|368:147|353:102,1,65.064998709343,2|2,1:2|0:0,0:0:0:0:
333,50,111506,1,2,0:0:0:0:
239,85,111703,2,0,P|195:75|152:65,1,65.064998709343,8|0,0:1|1:2,0:0:0:0:
175,70,112295,1,2,0:0:0:0:
108,169,112493,6,0,P|147:165|167:138,1,65.064998709343,2|2,0:0|0:0,0:0:0:0:
15,249,113282,2,0,P|19:268|22:288,2,32.5324993546715,8|0|0,0:1|0:0|0:0,0:0:0:0:
68,191,113874,1,2,0:0:0:0:
130,263,114072,6,0,P|145:246|205:242,1,65.064998709343,0|0,1:2|0:0,0:0:0:0:
246,284,114664,1,2,0:0:0:0:
339,238,114861,1,8,0:1:0:0:
339,238,115256,2,0,P|344:171|353:84,1,130.129997418686,2|2,1:2|0:0,0:0:0:0:
416,28,116440,2,0,P|437:31|459:39,1,32.5324993546715,8|0,0:1|0:0,0:0:0:0:
502,114,116835,1,2,0:0:0:0:
502,114,117230,6,0,P|466:117|438:138,1,65.064998709343,2|2,1:2|0:0,0:0:0:0:
392,203,117822,1,2,0:0:0:0:
467,287,118019,2,0,P|470:251|474:211,1,65.064998709343,8|0,0:1|1:2,0:0:0:0:
360,131,118809,6,0,P|336:140|318:147,1,32.5324993546715,2|2,0:0|0:0,0:0:0:0:
284,209,119203,1,2,0:0:0:0:
284,209,119401,1,2,0:0:0:0:
370,285,119598,2,0,P|367:249|363:209,1,65.064998709343,8|2,0:1|0:0,0:0:0:0:
386,140,120190,1,2,0:0:0:0:
295,66,120387,6,0,P|257:76|224:83,1,65.064998709343,2|2,1:2|0:0,0:0:0:0:
157,51,120980,1,2,0:0:0:0:
89,129,121177,1,8,0:1:0:0:
89,129,121572,2,0,P|100:184|116:269,1,130.129997418686,0|2,1:2|0:0,0:0:0:0:
23,362,122756,2,0,L|15:323,1,32.5324993546715,8|0,0:1|0:0,0:0:0:0:
16,226,123151,1,2,0:0:0:0:
16,226,123545,6,0,P|37:204|96:207,1,65.064998709343,6|2,1:2|0:0,0:0:0:0:
137,243,124137,1,2,0:0:0:0:
221,169,124335,2,0,P|214:129|205:90,1,65.064998709343,8|0,0:1|1:2,0:0:0:0:
281,220,124927,1,2,0:0:0:0:
352,151,125124,6,0,P|359:111|368:72,1,65.064998709343,2|2,0:0|0:0,0:0:0:0:
406,23,125716,1,2,0:0:0:0:
506,83,125914,2,0,P|465:94|437:103,1,65.064998709343,8|0,0:1|0:0,0:0:0:0:
370,170,126506,1,2,0:0:0:0:
444,249,126703,6,0,P|478:241|495:207,1,65.064998709343,2|2,1:2|0:0,0:0:0:0:
501,331,127493,1,8,0:1:0:0:
501,331,127887,2,0,B|416:336|476:287|363:292,1,130.129997418686,2|2,1:2|0:0,0:0:0:0:
242,338,129072,1,8,0:1:0:0:
242,338,129466,1,2,0:0:0:0:
291,276,129664,1,2,0:0:0:0:
210,210,129861,6,0,P|165:220|133:232,1,65.064998709343,2|2,1:2|0:0,0:0:0:0:
238,137,130453,2,0,P|253:141|268:147,1,32.5324993546715,2|8,0:0|0:1,0:0:0:0:
191,58,130848,2,0,P|175:62|160:68,1,32.5324993546715,2|0,0:0|1:2,0:0:0:0:
107,145,131243,1,2,0:0:0:0:
28,21,131440,6,0,P|58:30|77:56,1,65.064998709343,2|2,0:0|0:0,0:0:0:0:
6,170,132230,1,8,0:1:0:0:
6,170,132624,1,2,0:0:0:0:
60,224,132822,1,2,0:0:0:0:
144,168,133019,6,0,P|120:145|76:146,1,65.064998709343,2|2,1:2|0:0,0:0:0:0:
0,254,133611,2,0,P|32:246|78:237,1,65.064998709343,2|2,0:0|0:0,0:0:0:0:
208,310,134203,6,0,B|216:286|216:286|203:265,1,48.7987490320072,2|0,1:2|0:0,0:0:0:0:
145,355,134598,6,0,B|191:356|191:356|201:365|201:365|257:367,1,111.539999659607,14|8,0:0|0:3,0:0:0:0:
340,301,135190,1,8,0:3:0:0:
281,103,135387,5,8,1:2:0:0:
250,213,135585,1,8,0:3:0:0:
423,308,135782,5,4,0:3:0:0:
385,229,135980,1,4,0:3:0:0:
434,63,136177,6,0,P|482:63|513:91,1,86.190000526062,6|2,1:2|0:0,0:0:0:0:
384,211,136966,2,0,B|346:205|346:205|337:197|337:197|290:190,1,86.190000526062,10|2,0:0|0:0,0:0:0:0:
235,229,137559,1,0,0:0:0:0:
159,120,137756,6,0,P|166:80|170:61,1,43.095000263031,2|0,1:2|0:0,0:0:0:0:
256,64,138151,2,0,P|249:104|245:123,1,43.095000263031,2|0,1:2|0:0,0:0:0:0:
152,205,138545,1,10,0:0:0:0:
152,205,138940,1,2,0:0:0:0:
92,158,139137,1,2,0:0:0:0:
0,217,139335,6,0,P|7:253|18:311,1,86.190000526062,2|2,1:2|0:0,0:0:0:0:
81,365,139927,1,0,1:2:0:0:
192,259,140124,2,0,P|165:229|114:226,1,86.190000526062,8|2,0:0|0:0,0:0:0:0:
210,351,140716,1,2,0:0:0:0:
210,351,140815,1,2,0:0:0:0:
210,351,140914,6,0,P|237:346|259:342,1,43.095000263031,2|0,1:2|0:0,0:0:0:0:
271,238,141309,2,0,P|250:243|229:249,1,43.095000263031,2|0,1:2|0:0,0:0:0:0:
361,311,141703,1,8,0:0:0:0:
361,311,142098,2,0,L|367:264,1,43.095000263031,2|2,0:0|0:0,0:0:0:0:
429,219,142394,1,2,0:0:0:0:
429,219,142493,6,0,P|391:189|342:191,1,86.190000526062,2|2,1:2|0:0,0:0:0:0:
186,123,143282,2,0,B|226:114|226:114|236:105|236:105|281:94,1,86.190000526062,10|2,0:0|0:0,0:0:0:0:
319,38,143874,1,0,0:0:0:0:
412,112,144072,6,0,P|406:145|400:171,1,43.095000263031,2|0,1:2|0:0,0:0:0:0:
337,47,144466,2,0,P|340:25|345:4,1,43.095000263031,2|0,1:2|0:0,0:0:0:0:
497,127,144861,2,0,P|491:160|481:215,1,86.190000526062,10|4,0:0|0:0,0:0:0:0:
505,289,145453,1,2,0:0:0:0:
402,362,145651,6,0,P|365:352|311:341,1,86.190000526062,2|2,1:2|0:0,0:0:0:0:
245,292,146243,1,0,1:2:0:0:
318,207,146440,1,8,0:0:0:0:
318,207,146835,6,0,P|323:174|327:155,1,43.095000263031,2|2,0:0|0:0,0:0:0:0:
254,96,147131,1,2,0:0:0:0:
254,96,147230,2,0,P|249:129|245:148,1,43.095000263031,2|0,1:2|0:0,0:0:0:0:
334,31,147624,1,2,1:2:0:0:
323,28,147723,1,2,0:0:0:0:
312,27,147822,1,2,0:0:0:0:
163,135,148019,1,10,0:0:0:0:
163,135,148414,1,6,1:2:0:0:
204,203,148611,1,2,0:0:0:0:
112,293,148809,6,0,B|72:286|72:286|67:279|67:279|18:270,1,86.190000526062,6|0,1:2|0:0,0:0:0:0:
11,151,149401,2,0,P|35:137|64:135,1,43.095000263031,2|8,1:2|0:0,0:0:0:0:
123,186,149795,1,2,0:0:0:0:
260,55,149993,5,2,0:0:0:0:
219,123,150190,1,2,0:0:0:0:
284,194,150387,2,0,B|324:187|324:187|329:180|329:180|378:171,1,86.190000526062,2|0,1:2|1:2,0:0:0:0:
427,90,150980,2,0,P|399:77|374:74,1,43.095000263031,2|8,0:0|0:0,0:0:0:0:
321,108,151374,1,2,0:0:0:0:
426,223,151572,5,2,0:0:0:0:
363,279,151769,1,2,0:0:0:0:
427,383,151966,2,0,P|432:342|440:289,1,86.190000526062,2|0,1:2|0:0,0:0:0:0:
309,335,152559,2,0,P|304:376|302:393,1,43.095000263031,2|8,1:2|0:0,0:0:0:0:
245,268,152953,1,2,0:0:0:0:
331,166,153151,5,2,0:0:0:0:
275,109,153348,1,2,0:0:0:0:
363,7,153545,2,0,P|358:48|351:103,1,86.190000526062,2|0,1:2|1:2,0:0:0:0:
334,178,154137,1,2,0:0:0:0:
259,102,154335,2,0,P|227:106|207:116,1,43.095000263031,8|0,0:0|0:0,0:0:0:0:
136,213,154730,1,2,0:0:0:0:
197,275,154927,1,2,0:0:0:0:
124,379,155124,6,0,B|120:334|120:334|113:329|113:329|110:290,1,86.190000526062,2|2,1:2|0:0,0:0:0:0:
52,232,155716,1,0,1:2:0:0:
186,111,155914,2,0,P|238:121|283:131,1,86.190000526062,14|0,0:0|0:0,0:0:0:0:
134,23,156506,1,2,0:0:0:0:
134,23,156605,1,2,0:0:0:0:
134,23,156703,6,0,P|99:31|79:37,1,43.095000263031,2|0,1:2|0:0,0:0:0:0:
138,180,157098,2,0,P|158:185|173:188,1,21.5475001315155,2|0,1:2|0:0,0:0:0:0:
63,155,157295,1,0,1:2:0:0:
206,304,157493,6,0,P|241:293|264:286,1,51.9675007929611,14|0,0:0|0:0,0:0:0:0:
403,290,157887,6,0,B|351:300|321:258|325:240|286:191|221:218,1,202.588755718829,6|0,1:2|0:0,0:0:0:0:
267,140,158677,2,0,P|293:141|316:150,1,49.43250018857,8|0,0:3|0:0,0:0:0:0:
500,306,159072,5,14,0:0:0:0:
378,201,159269,1,2,0:0:0:0:
492,87,159466,1,2,1:2:0:0:
492,87,159861,5,14,0:0:0:0:
287,17,160059,1,2,0:0:0:0:
195,214,160256,1,8,0:0:0:0:
227,214,160355,1,8,0:0:0:0:
246,188,160453,1,8,0:0:0:0:
16,37,160651,5,12,0:3:0:0:
11,113,160782,5,12,0:3:0:0:
86,140,160914,5,12,0:3:0:0:
119,98,161045,5,0,1:2:0:0:
156,87,161177,5,0,1:2:0:0:
191,95,161309,5,0,1:2:0:0:
207,113,161440,6,0,B|259:132|293:88|267:71|308:27|372:50,1,186.32249132868,6|0,1:2|0:0,0:0:0:0:
512,181,162230,1,8,0:0:0:0:
512,181,162624,1,2,0:0:0:0:
399,270,162822,1,2,0:0:0:0:
512,384,163019,6,0,B|521:355|521:355|507:319,1,62.1074971095601,0|0,1:2|0:0,0:0:0:0:
368,188,163414,2,0,P|375:221|381:259,1,62.1074971095601,0|0,1:2|0:0,0:0:0:0:
228,366,163809,1,10,0:0:0:0:
147,303,164006,1,2,0:0:0:0:
165,229,164203,1,2,0:0:0:0:
165,229,164598,6,0,P|116:179|63:194,1,124.21499421912,0|2,1:0|0:0,0:0:0:0:
0,363,165387,2,0,P|31:352|75:344,1,62.1074971095601,10|0,0:0|0:0,0:0:0:0:
68,189,165782,1,2,0:0:0:0:
19,122,165980,1,2,0:0:0:0:
100,0,166177,6,0,B|102:28|95:54|95:54|102:61|111:67|111:67|104:134,1,124.21499421912,2|0,1:2|1:2,0:0:0:0:
169,211,166769,1,0,1:2:0:0:
317,88,166966,2,0,P|281:39|240:43,1,93.1612456643402,14|0,0:0|0:0,0:0:0:0:
332,108,167361,1,2,1:2:0:0:
257,203,167559,1,2,0:0:0:0:
380,342,167756,6,0,P|424:263|512:242,1,186.32249132868,6|0,1:2|0:0,0:0:0:0:
383,166,168545,1,14,0:0:0:0:
383,166,168940,1,2,0:0:0:0:
507,76,169137,1,2,0:0:0:0:
391,0,169335,6,0,P|397:37|402:67,1,62.1074971095601,0|0,1:2|0:0,0:0:0:0:
299,204,169730,2,0,B|284:175|284:175|297:139,1,62.1074971095601,0|0,1:2|0:0,0:0:0:0:
164,27,170124,1,10,0:0:0:0:
83,90,170321,1,2,0:0:0:0:
101,164,170518,1,2,0:0:0:0:
101,164,170914,5,6,1:2:0:0:
185,262,171111,2,0,P|224:253|247:248,1,62.1074971095601,8|0,0:0|0:0,0:0:0:0:
329,229,171506,1,0,1:2:0:0:
210,360,171703,2,0,P|240:353|332:333,1,124.21499421912,12|0,0:0|1:2,0:0:0:0:
416,251,172295,1,0,1:2:0:0:
297,105,172493,6,0,B|301:153|301:153|306:158|306:158|312:219,1,93.1612456643402,14|0,0:0|0:0,0:0:0:0:
287,90,172887,2,0,P|237:73|221:78,1,62.1074971095601,8|0,0:3|0:0,0:0:0:0:
129,235,173282,5,10,0:0:0:0:
212,148,173480,1,8,0:3:0:0:
158,83,173677,1,8,0:3:0:0:
8,133,173874,1,0,1:2:0:0:
8,133,173973,1,0,1:2:0:0:
8,133,174072,6,0,B|65:140|65:140|74:148|74:148|125:155,1,115.765003267902,6|2,1:2|0:0,0:0:0:0:
234,54,174664,2,0,P|197:42|169:33,1,57.8825016339512,2|8,0:0|0:0,0:0:0:0:
213,228,175059,2,0,P|241:219|269:211,1,57.8825016339512,2|0,0:0|0:0,0:0:0:0:
404,111,175453,1,2,0:0:0:0:
404,111,175552,1,2,0:0:0:0:
404,111,175651,6,0,P|397:166|387:239,1,115.765003267902,2|2,1:2|1:2,0:0:0:0:
450,378,176440,1,8,0:0:0:0:
450,378,176835,6,0,B|436:376|408:379|408:379|383:344|348:316|348:316|323:322|297:313,1,173.647504901854,6|0,1:2|0:0,0:0:0:0:
174,289,177624,2,0,P|162:251|171:228,1,57.8825016339512,2|0,1:2|0:0,0:0:0:0:
246,117,178019,2,0,B|243:166|243:166|249:174|249:174|247:243,1,115.765003267902,10|2,0:0|0:0,0:0:0:0:
33,328,178809,5,0,1:2:0:0:
33,328,179203,1,2,1:2:0:0:
81,218,179401,1,2,0:0:0:0:
180,191,179598,1,10,0:0:0:0:
247,230,179795,1,2,0:0:0:0:
278,297,179993,1,2,0:0:0:0:
394,142,180190,5,0,1:2:0:0:
394,142,180289,1,0,1:2:0:0:
394,142,180387,2,0,P|432:137|476:203,1,115.765003267902,6|2,1:2|0:0,0:0:0:0:
348,324,181177,2,0,P|309:314|280:308,1,57.8825016339512,10|0,0:0|0:0,0:0:0:0:
163,189,181572,5,2,0:0:0:0:
202,122,181770,1,2,0:0:0:0:
145,64,181966,2,0,P|107:59|63:125,1,115.765003267902,2|2,1:2|1:2,0:0:0:0:
101,226,182756,2,0,P|140:216|169:210,1,57.8825016339512,10|0,0:0|0:0,0:0:0:0:
296,138,183151,1,2,1:2:0:0:
235,70,183348,1,2,0:0:0:0:
353,0,183545,6,0,B|404:5|404:5|418:16|418:16|473:21,1,115.765003267902,6|2,1:2|0:0,0:0:0:0:
512,220,184335,2,0,P|448:230|417:195,1,115.765003267902,10|2,0:0|0:0,0:0:0:0:
254,58,185124,1,0,1:2:0:0:
208,117,185322,1,0,0:0:0:0:
268,179,185519,2,0,P|311:164|331:159,1,57.8825016339512,2|0,1:2|0:0,0:0:0:0:
215,273,185914,1,10,0:0:0:0:
215,273,186309,2,0,P|172:258|129:248,1,86.8237524509268,2|0,1:2|0:0,0:0:0:0:
138,168,186703,6,0,P|180:178|265:205,2,115.765003267902,6|2|8,1:2|0:0|0:0,0:0:0:0:
50,95,187887,1,0,0:0:0:0:
145,3,188282,2,0,P|139:54|139:77,1,57.8825016339512,0|0,1:2|0:0,0:0:0:0:
25,159,188677,2,0,P|29:130|31:101,1,57.8825016339512,0|0,1:2|0:0,0:0:0:0:
85,242,189072,1,8,0:0:0:0:
85,242,189466,6,0,P|114:217|169:220,1,86.8237524509268,4|0,0:0|0:0,0:0:0:0:
97,255,189861,6,0,B|157:201|249:243|205:297|316:305|365:229|365:229|313:241|265:197|274:149,1,438.766229245372,6|0,0:0|0:0,0:0:0:0:
275,141,193019,6,0,P|269:84|264:35,1,96.3299988240967,2|2,1:2|3:0,0:0:0:0:
265,45,194203,1,2,0:0:0:0:
346,72,194598,2,0,P|349:95|353:119,2,48.1649994120483,2|2|2,1:2|0:0|3:0,0:0:0:0:
391,8,195782,1,2,0:0:0:0:
491,134,196177,5,2,1:2:0:0:
441,195,196572,1,2,0:0:0:0:
370,164,196966,1,2,3:0:0:0:
370,164,197361,6,0,B|317:157|288:205|302:216|283:268|225:258,1,188.646247121487,2|0,0:0|0:0,0:0:0:0:
166,207,199335,5,14,0:0:0:0:
291,87,199532,1,8,0:0:0:0:
116,51,199730,1,0,1:2:0:0:
208,135,199927,1,0,1:2:0:0:
331,16,200124,5,10,0:0:0:0:
487,64,200322,1,0,1:2:0:0:
433,179,200519,1,0,1:2:0:0:
359,207,200717,1,8,0:3:0:0:
208,135,200914,5,0,1:2:0:0:
279,172,201111,1,0,1:2:0:0:
177,295,201309,5,10,0:0:0:0:
43,178,201506,1,2,1:2:0:0:
153,60,201703,5,8,0:3:0:0:
97,252,201901,1,4,0:3:0:0:
315,341,202098,5,4,0:3:0:0:
285,262,202296,1,4,0:3:0:0:
403,91,202493,6,0,P|453:83|507:131,1,115.765003267902,6|0,1:2|0:0,0:0:0:0:
230,329,203282,1,10,0:0:0:0:
276,186,203480,1,2,0:0:0:0:
374,307,203677,1,2,0:0:0:0:
285,262,203874,1,2,0:0:0:0:
398,162,204072,6,0,P|438:170|466:176,1,57.8825016339512,2|0,1:2|0:0,0:0:0:0:
292,58,204466,2,0,P|263:63|235:69,1,57.8825016339512,0|0,1:2|0:0,0:0:0:0:
68,204,204861,1,10,0:0:0:0:
115,105,205059,1,2,0:0:0:0:
166,233,205256,1,2,0:0:0:0:
38,133,205453,1,2,0:0:0:0:
198,11,205651,6,0,B|193:61|193:61|196:69|196:69|189:143,1,115.765003267902,2|2,1:2|0:0,0:0:0:0:
258,203,206243,1,2,0:0:0:0:
100,315,206440,2,0,P|77:307|37:297,1,57.8825016339512,10|2,0:0|0:0,0:0:0:0:
166,220,206835,1,2,0:0:0:0:
102,134,207032,1,2,0:0:0:0:
207,37,207230,6,0,B|261:47|261:47|270:55|270:55|324:66,1,115.765003267902,0|0,1:2|1:2,0:0:0:0:
411,181,207822,1,0,1:2:0:0:
496,31,208019,1,12,0:0:0:0:
496,31,208414,1,2,1:2:0:0:
381,111,208611,1,2,0:0:0:0:
495,254,208809,6,0,B|500:199|500:199|495:188|495:188|500:124,1,115.765003267902,6|2,1:2|1:2,0:0:0:0:
367,29,209401,2,0,P|338:34|319:57,1,57.8825016339512,2|8,0:0|0:0,0:0:0:0:
245,131,209795,1,2,0:0:0:0:
317,207,209993,1,2,0:0:0:0:
233,316,210190,6,0,P|189:308|158:302,1,57.8825016339512,2|0,0:0|1:2,0:0:0:0:
108,229,210585,1,2,0:0:0:0:
231,156,210782,2,0,P|223:200|218:235,1,57.8825016339512,0|0,1:2|0:0,0:0:0:0:
23,76,211177,6,0,P|49:40|106:22,1,86.8237524509268,10|0,0:0|0:0,0:0:0:0:
210,82,211572,6,0,B|158:61|94:99|94:99|132:94|147:113,1,173.647504901854,6|2,1:2|0:0,0:0:0:0:
267,276,212361,2,0,P|317:255|340:249,1,57.8825016339512,2|0,1:2|0:0,0:0:0:0:
420,170,212756,1,10,0:0:0:0:
362,108,212953,1,2,0:0:0:0:
445,26,213151,2,0,P|440:54|437:86,1,57.8825016339512,2|0,0:0|0:0,0:0:0:0:
308,174,213545,6,0,P|242:171|213:115,1,115.765003267902,0|0,1:2|1:2,0:0:0:0:
367,301,214335,5,14,0:0:0:0:
190,258,214532,1,8,0:3:0:0:
327,95,214730,5,4,0:3:0:0:
308,174,214927,1,4,0:3:0:0:
119,40,215124,6,0,B|168:30|168:30|179:18|179:18|235:6,1,115.765003267902,6|0,1:2|0:0,0:0:0:0:
52,251,215914,1,10,0:0:0:0:
47,107,216111,1,2,0:0:0:0:
177,179,216309,1,2,0:0:0:0:
83,172,216506,1,2,0:0:0:0:
217,41,216703,6,0,P|256:48|280:51,1,57.8825016339512,2|0,1:2|0:0,0:0:0:0:
182,191,217098,2,0,P|153:194|124:200,1,57.8825016339512,0|0,1:2|0:0,0:0:0:0:
260,317,217493,2,0,B|310:306|310:306|322:295|322:295|389:279,1,115.765003267902,10|2,0:0|0:0,0:0:0:0:
466,309,218085,1,2,0:0:0:0:
373,119,218282,6,0,P|327:137|311:220,1,115.765003267902,2|2,1:2|0:0,0:0:0:0:
368,283,218874,1,2,0:0:0:0:
511,183,219072,2,0,P|506:156|501:124,1,57.8825016339512,8|0,0:0|0:0,0:0:0:0:
358,274,219466,2,0,P|353:302|340:370,1,86.8237524509268,2|0,0:0|0:0,0:0:0:0:
263,370,219861,6,0,P|270:334|277:305,1,57.8825016339512,2|0,1:2|0:0,0:0:0:0:
268,156,220256,5,4,0:3:0:0:
225,129,220387,5,4,0:3:0:0:
176,143,220519,5,4,0:3:0:0:
155,189,220651,6,0,P|104:192|70:155,1,86.8237524509268,2|0,1:2|0:0,0:0:0:0:
5,54,221045,6,0,B|53:32|105:67|75:91|128:138|192:107,1,202.588755718829,6|0,1:2|0:0,0:0:0:0:
282,53,221835,2,0,P|253:28|221:24,1,57.8825016339512,2|0,1:2|0:0,0:0:0:0:
272,199,222230,2,0,P|306:191|348:183,1,57.8825016339512,10|0,0:0|0:0,0:0:0:0:
468,113,222624,1,2,0:0:0:0:
398,23,222822,1,2,0:0:0:0:
398,23,222920,1,2,0:0:0:0:
398,23,223019,6,0,B|391:79|391:79|396:86|396:86|390:144,1,115.765003267902,2|2,1:2|1:2,0:0:0:0:
402,217,223611,1,2,0:0:0:0:
242,133,223809,1,8,0:0:0:0:
242,133,224203,2,0,P|209:137|179:187,1,86.8237524509268,2|0,1:2|0:0,0:0:0:0:
231,259,224598,6,0,P|264:255|294:205,1,86.8237524509268,6|0,1:2|0:0,0:0:0:0:
321,146,224993,1,8,0:3:0:0:
424,289,225190,1,8,0:3:0:0:
424,289,225387,2,0,P|402:266|362:263,1,57.8825016339512,0|0,1:2|0:0,0:0:0:0:
315,374,225782,6,0,B|343:364|376:366|376:366|403:345|425:313|425:313|453:320|494:306,1,202.588755718829,6|0,1:2|0:0,0:0:0:0:
491,306,226572,1,0,1:2:0:0:
512,232,226769,1,0,1:2:0:0:
383,156,226966,1,8,0:0:0:0:
383,156,227361,2,0,P|387:109|392:77,1,57.8825016339512,0|0,1:2|0:0,0:0:0:0:
456,52,227657,1,8,0:0:0:0:
456,52,227756,6,0,P|427:24|335:34,1,115.765003267902,4|2,1:2|0:0,0:0:0:0:
200,171,228545,2,0,P|206:211|211:253,1,57.8825016339512,10|0,0:0|0:0,0:0:0:0:
308,145,228940,2,0,P|312:116|316:87,1,57.8825016339512,2|0,1:2|0:0,0:0:0:0:
184,16,229335,6,0,B|142:21|142:21|118:49|118:49|66:53,1,115.765003267902,2|2,1:2|1:2,0:0:0:0:
7,25,229927,1,2,0:0:0:0:
0,176,230124,1,8,0:0:0:0:
0,176,230519,2,0,P|34:174|66:227,1,86.8237524509268,2|0,1:2|0:0,0:0:0:0:
27,276,230914,6,0,P|72:257|157:240,1,115.765003267902,6|2,1:2|0:0,0:0:0:0:
227,286,231506,1,2,0:0:0:0:
160,379,231703,2,0,P|156:343|150:299,1,57.8825016339512,8|2,0:0|0:0,0:0:0:0:
311,190,232098,2,0,P|307:218|304:247,1,57.8825016339512,2|0,0:0|1:2,0:0:0:0:
346,313,232394,1,8,0:0:0:0:
346,313,232493,6,0,P|415:313|433:254,1,115.765003267902,0|0,1:2|1:2,0:0:0:0:
466,202,233085,1,0,0:0:0:0:
355,113,233282,1,8,0:0:0:0:
355,113,233677,1,0,1:2:0:0:
443,8,233874,1,2,0:0:0:0:
443,8,233973,1,2,0:0:0:0:
443,8,234072,6,0,P|439:52|434:126,1,115.765003267902,6|2,1:2|0:0,0:0:0:0:
288,305,234861,2,0,B|212:293|267:263|181:252,1,115.765003267902,10|2,0:0|0:0,0:0:0:0:
108,164,235453,1,2,0:0:0:0:
108,164,235552,1,2,0:0:0:0:
108,164,235651,2,0,L|113:131,1,28.9412508169756,2|0,1:2|0:0,0:0:0:0:
46,209,236045,5,2,1:2:0:0:
108,271,236243,1,2,0:0:0:0:
29,343,236440,2,0,B|15:317|15:317|31:282,1,57.8825016339512,8|0,0:0|0:0,0:0:0:0:
195,186,236835,2,0,P|190:235|186:283,1,86.8237524509268,2|0,1:2|0:0,0:0:0:0:
162,345,237230,6,0,P|208:352|259:298,1,115.765003267902,2|2,1:2|0:0,0:0:0:0:
344,191,238019,1,10,0:0:0:0:
290,132,238216,1,2,0:0:0:0:
369,29,238414,2,0,P|442:19|471:126,1,202.588755718829,6|0,1:2|0:0,0:0:0:0:
454,137,239203,6,0,P|439:168|448:208,1,57.8825016339512,8|0,0:3|0:0,0:0:0:0:
509,323,239598,2,0,P|468:313|439:309,1,57.8825016339512,8|0,0:3|0:0,0:0:0:0:
351,337,239993,1,0,1:2:0:0:
351,337,240387,6,0,P|342:288|337:262,2,65.064998709343,6|2|2,1:2|0:0|0:0,0:0:0:0:
232,381,241572,2,0,P|228:356|223:332,1,48.7987490320072,2|2,0:0|0:0,0:0:0:0:
193,264,241966,6,0,B|273:249|210:212|315:201,1,130.129997418686,6|0,1:2|0:0,0:0:0:0:
430,166,243151,1,0,0:0:0:0:
376,88,243545,6,0,P|314:99|239:136,1,144.494998236145,2|0,0:0|0:0,0:0:0:0:
134,87,245124,2,0,P|134:39|221:4,1,144.494998236145,2|0,0:0|0:0,0:0:0:0:
305,80,246703,6,0,P|300:111|295:137,1,48.1649994120483,2|2,0:0|0:0,0:0:0:0:
328,201,247493,1,2,0:0:0:0:
258,266,247887,2,0,P|211:251|161:240,1,96.3299988240967,2|0,0:0|0:0,0:0:0:0:
164,153,249072,2,0,P|210:167|217:169,1,48.1649994120483,2|0,0:0|0:0,0:0:0:0:
105,70,249861,6,0,P|75:95|69:156,1,96.3299988240967,2|0,0:0|0:0,0:0:0:0:
45,225,251045,1,2,0:0:0:0:
116,309,251440,2,0,P|149:299|218:281,1,96.3299988240967,2|2,0:0|0:0,0:0:0:0:
268,180,252624,2,0,P|250:184|232:188,1,36.1237495590363,2|0,0:0|0:0,0:0:0:0:
199,117,253019,6,0,P|216:113|255:103,1,48.1649994120483,2|2,0:0|0:0,0:0:0:0:
422,23,253809,2,0,B|419:41|417:57,1,24.0824997060242,2|2,0:0|0:0,0:0:0:0:
339,99,254203,2,0,B|341:80|351:-6,1,96.3299988240967,2|2,0:0|0:0,0:0:0:0:
412,146,255387,2,0,P|432:134|465:130,1,48.1649994120483,2|2,0:0|0:0,0:0:0:0:
505,229,256177,6,0,P|500:260|497:291,2,56.6149973219835,2|2|2,1:2|0:0|0:0,0:0:0:0:
455,154,257361,1,0,1:2:0:0:
378,227,257756,6,0,P|373:258|370:289,1,56.6149973219835,2|2,1:2|0:0,0:0:0:0:
315,159,258545,1,8,0:1:0:0:
248,204,258940,1,2,0:0:0:0:
369,283,259335,5,0,1:2:0:0:
447,263,259730,1,2,0:0:0:0:
466,185,260124,1,2,0:0:0:0:
462,78,260519,6,0,B|382:84|414:112|328:126|328:126|300:87|293:26|293:26|282:54|263:65|263:65|268:105|311:186|352:205|352:205|331:231|331:252|331:252|292:217|280:153|280:153|185:226|8:243|8:243|51:237|91:218,1,1011.46498765302,4|0,1:2|0:0,0:0:0:0:
