osu file format v14

[General]
AudioFilename: audio.mp3
AudioLeadIn: 0
PreviewTime: 65654
Countdown: 0
SampleSet: Normal
StackLeniency: 0.2
Mode: 1
LetterboxInBreaks: 0
WidescreenStoryboard: 0

[Editor]
Bookmarks: 326,10983,15720,28352,39799,41378,53615,64668,66641,79273,91904,95062,105720,110457,123089,134536,136115,148352,159404,161378,173615,189799,192957,199273,202431,215062,228089,234404,240325,243483,248615,256115,260457,268747
DistanceSpacing: 1.2
BeatDivisor: 4
GridSize: 32
TimelineZoom: 1.4

[Metadata]
Title:Homura
TitleUnicode:炎
Artist:LiSA
ArtistUnicode:LiSA
Creator:D0UG
Version:Hashira
Source:劇場版「鬼滅の刃」無限列車編
Tags:Demon Slayer Kimetsu no Yaiba the Movie Infinity Train Mugen Ressha hen Ressha-hen Gekijouban 織部里沙 Risa Oribe pop jpop j-pop anime ending kyoujurou rengoku japanese rock j-rock jrock kyojuro 煉獄杏寿郎 ed 梶浦由記 Yuki Kajiura Yuemiao
BeatmapID:2686842
BeatmapSetID:1294910

[Difficulty]
HPDrainRate:6
CircleSize:2
OverallDifficulty:5.5
ApproachRate:8.5
SliderMultiplier:1.4
SliderTickRate:1

[Events]
//Background and Video events
0,0,"bg 1.jpg",0,-80
//Break Periods
//Storyboard Layer 0 (Background)
//Storyboard Layer 1 (Fail)
//Storyboard Layer 2 (Pass)
//Storyboard Layer 3 (Foreground)
//Storyboard Layer 4 (Overlay)
//Storyboard Sound Samples

[TimingPoints]
326,789.473684210526,4,1,0,40,1,0
326,-66.6666666666667,4,1,0,40,0,0
6641,-64.5161290322581,4,1,0,45,0,0
39799,-55.5555555555556,4,1,0,50,0,0
41378,-50,4,1,0,60,0,0
66641,-45.4545454545455,4,1,0,70,0,1
75325,-41.6666666666667,4,1,0,70,0,1
75720,-38.4615384615385,4,1,0,70,0,1
76115,-47.6190476190476,4,1,0,70,0,1
78089,-47.6190476190476,4,1,0,70,0,0
79273,-43.4782608695652,4,1,0,70,0,1
84799,-40,4,1,0,70,0,1
85194,-34.4827586206897,4,1,0,70,0,1
85589,-45.4545454545455,4,1,0,70,0,1
89931,-45.4545454545455,4,1,0,70,0,0
90523,-48.780487804878,4,1,0,68,0,0
90720,-50,4,1,0,66,0,0
91115,-52.6315789473684,4,1,0,65,0,0
91312,-54.054054054054,4,1,0,64,0,0
91510,-55.5555555555556,4,1,0,63,0,0
91707,-57.1428571428571,4,1,0,62,0,0
91904,-58.8235294117647,4,1,0,61,0,0
92694,-58.8235294117647,4,1,0,55,0,0
94273,-60.6060606060606,4,1,0,50,0,0
95062,-64.5161290322581,4,1,0,50,0,0
101378,-60.6060606060606,4,1,0,55,0,0
110457,-60.6060606060606,4,1,0,50,0,0
134536,-52.6315789473684,4,1,0,60,0,0
136115,-47.6190476190476,4,1,0,60,0,0
157825,-47.6190476190476,4,1,0,65,0,0
161378,-47.6190476190476,4,1,0,65,0,1
173418,-47.8468899521531,4,1,0,65,0,1
173516,-48.0769230769231,4,1,0,65,0,1
173615,-48.3091787439614,4,1,0,64,0,1
173812,-48.780487804878,4,1,0,63,0,1
174010,-49.2610837438424,4,1,0,62,0,0
174404,-50,4,1,0,60,0,0
187825,-50.761421319797,4,1,0,60,0,0
188023,-51.5463917525773,4,1,0,60,0,0
188220,-52.3560209424084,4,1,0,60,0,0
188615,-54.054054054054,4,1,0,60,0,0
188812,-54.9450549450549,4,1,0,60,0,0
189010,-55.8659217877095,4,1,0,60,0,0
189404,-57.1428571428571,4,1,0,60,0,0
189799,-58.8235294117647,4,1,0,60,0,0
192957,-60.6060606060606,4,1,0,60,0,0
199273,-47.6190476190476,4,1,0,60,0,0
202431,-43.4782608695652,4,1,0,70,0,1
211115,-40,4,1,0,70,0,1
211510,-34.4827586206897,4,1,0,70,0,1
211904,-45.4545454545455,4,1,0,70,0,1
213878,-45.4545454545455,4,1,0,70,0,0
215062,-41.6666666666667,4,1,0,70,0,1
220194,-42.5531914893617,4,1,0,70,0,1
220325,-43.1034482758621,4,1,0,70,0,1
220457,-43.6681222707424,4,1,0,70,0,1
220589,-44.4444444444445,4,1,0,70,0,1
220983,-37.7358490566038,4,1,0,70,0,1
221378,-45.4545454545455,4,1,0,70,0,1
224339,-45.662100456621,4,1,0,69,0,1
224437,-45.8715596330275,4,1,0,68,0,1
224536,-46.0829493087558,4,1,0,67,0,1
224635,-46.2962962962963,4,1,0,66,0,1
224733,-46.5116279069767,4,1,0,65,0,1
225128,-46.7289719626168,4,1,0,64,0,1
225227,-46.9483568075117,4,1,0,63,0,1
225325,-47.1698113207547,4,1,0,62,0,1
225424,-47.39336492891,4,1,0,61,0,1
225523,-47.6190476190476,4,1,0,60,0,1
225720,-47.6190476190476,4,1,0,60,0,0
227694,-45.4545454545455,4,1,0,70,0,1
228089,-45.4545454545455,4,1,0,70,0,1
234404,-46.5116279069767,4,1,0,65,0,1
234799,-47.6190476190476,4,1,0,60,0,1
238352,-47.6190476190476,4,1,0,60,0,0
239141,-50,4,1,0,59,0,0
239536,-52.6315789473684,4,1,0,58,0,0
239799,-54.3478260869565,4,1,0,57,0,0
240062,-56.1797752808989,4,1,0,56,0,0
240325,-58.1395348837209,4,1,0,55,0,0
241510,-59.5238095238095,4,1,0,54,0,0
241904,-60.9756097560976,4,1,0,53,0,0
242299,-62.5,4,1,0,52,0,0
242694,-64.1025641025641,4,1,0,51,0,0
243483,-66.6666666666667,4,1,0,50,0,0
256115,-64.5161290322581,4,1,0,52,0,0
256510,-62.5,4,1,0,54,0,0
260654,-55.5555555555556,4,1,0,54,0,0
262431,-66.6666666666667,4,1,0,54,0,0
265589,-83.3333333333333,4,1,0,54,0,0
268747,-111.111111111111,4,1,0,54,0,0

[HitObjects]
256,192,326,5,8,0:0:0:0:
256,192,1904,1,0,0:0:0:0:
256,192,2694,1,0,0:0:0:0:
256,192,3483,1,8,0:0:0:0:
256,192,4273,1,0,0:0:0:0:
256,192,4668,1,8,0:0:0:0:
256,192,6641,1,8,0:0:0:0:
256,192,7036,1,8,0:0:0:0:
256,192,7431,1,0,0:0:0:0:
256,192,8220,1,8,0:0:0:0:
256,192,9010,1,0,0:0:0:0:
256,192,9799,1,8,0:0:0:0:
256,192,10194,1,0,0:0:0:0:
256,192,10589,1,0,0:0:0:0:
256,192,10983,1,8,0:0:0:0:
256,192,11181,12,0,15325,0:0:0:0:
256,192,15720,5,8,0:0:0:0:
256,192,16115,1,0,0:0:0:0:
256,192,16510,1,0,0:0:0:0:
256,192,16707,1,8,0:0:0:0:
256,192,17497,1,0,0:0:0:0:
256,192,17694,1,8,0:0:0:0:
256,192,18089,1,8,0:0:0:0:
256,192,18286,1,0,0:0:0:0:
256,192,18483,1,0,0:0:0:0:
256,192,19076,1,0,0:0:0:0:
256,192,19273,1,8,0:0:0:0:
256,192,19668,1,0,0:0:0:0:
256,192,19865,1,0,0:0:0:0:
256,192,20062,1,8,0:0:0:0:
256,192,20457,1,0,0:0:0:0:
256,192,21247,1,0,0:0:0:0:
256,192,21641,1,0,0:0:0:0:
256,192,22036,1,8,0:0:0:0:
256,192,22233,1,0,0:0:0:0:
256,192,22431,1,8,0:0:0:0:
256,192,22826,1,0,0:0:0:0:
256,192,23023,1,8,0:0:0:0:
256,192,23220,1,0,0:0:0:0:
256,192,23615,1,8,0:0:0:0:
256,192,24010,1,8,0:0:0:0:
256,192,24404,1,0,0:0:0:0:
256,192,25194,1,8,0:0:0:0:
256,192,25391,1,0,0:0:0:0:
256,192,25589,1,8,0:0:0:0:
256,192,25983,1,0,0:0:0:0:
256,192,26181,1,8,0:0:0:0:
256,192,26378,1,0,0:0:0:0:
256,192,26773,1,8,0:0:0:0:
256,192,27562,1,8,0:0:0:0:
256,192,27957,1,8,0:0:0:0:
256,192,28352,1,0,0:0:0:0:
256,192,28747,1,8,0:0:0:0:
256,192,29141,1,8,0:0:0:0:
256,192,29339,1,0,0:0:0:0:
256,192,29536,1,8,0:0:0:0:
256,192,30128,1,0,0:0:0:0:
256,192,30326,1,8,0:0:0:0:
256,192,30720,1,0,0:0:0:0:
256,192,30918,1,0,0:0:0:0:
256,192,31115,1,8,0:0:0:0:
256,192,31707,1,0,0:0:0:0:
256,192,31904,1,8,0:0:0:0:
256,192,32299,1,0,0:0:0:0:
256,192,32497,1,8,0:0:0:0:
256,192,32694,1,8,0:0:0:0:
256,192,32891,1,0,0:0:0:0:
256,192,33089,1,8,0:0:0:0:
256,192,33878,1,8,0:0:0:0:
256,192,34273,1,0,0:0:0:0:
256,192,34668,1,8,0:0:0:0:
256,192,34865,1,0,0:0:0:0:
256,192,35062,1,8,0:0:0:0:
256,192,35457,1,0,0:0:0:0:
256,192,35654,1,8,0:0:0:0:
256,192,35852,1,0,0:0:0:0:
256,192,36247,1,8,0:0:0:0:
256,192,36641,1,0,0:0:0:0:
256,192,37036,1,0,0:0:0:0:
256,192,37233,1,0,0:0:0:0:
256,192,37431,1,8,0:0:0:0:
256,192,37826,1,8,0:0:0:0:
256,192,38023,1,8,0:0:0:0:
256,192,38220,1,0,0:0:0:0:
256,192,38615,1,0,0:0:0:0:
256,192,38812,1,8,0:0:0:0:
256,192,39010,1,0,0:0:0:0:
256,192,39404,1,0,0:0:0:0:
256,192,39799,1,12,0:0:0:0:
256,192,40194,1,0,0:0:0:0:
256,192,40391,1,0,0:0:0:0:
256,192,40589,1,8,0:0:0:0:
256,192,40786,1,0,0:0:0:0:
256,192,40983,1,8,0:0:0:0:
256,192,41378,1,12,0:0:0:0:
256,192,41773,1,0,0:0:0:0:
256,192,42168,1,8,0:0:0:0:
256,192,42562,1,0,0:0:0:0:
256,192,42760,1,8,0:0:0:0:
256,192,42858,1,8,0:0:0:0:
256,192,42957,1,0,0:0:0:0:
256,192,43352,1,0,0:0:0:0:
256,192,43747,1,8,0:0:0:0:
256,192,44141,1,8,0:0:0:0:
256,192,44339,1,0,0:0:0:0:
256,192,44536,1,8,0:0:0:0:
256,192,44733,1,8,0:0:0:0:
256,192,44931,1,0,0:0:0:0:
256,192,45128,1,0,0:0:0:0:
256,192,45326,1,8,0:0:0:0:
256,192,45720,1,8,0:0:0:0:
256,192,45918,1,0,0:0:0:0:
256,192,46016,1,0,0:0:0:0:
256,192,46115,1,8,0:0:0:0:
256,192,46510,1,0,0:0:0:0:
256,192,46904,1,8,0:0:0:0:
256,192,47299,1,8,0:0:0:0:
256,192,47497,1,0,0:0:0:0:
256,192,47694,1,8,0:0:0:0:
256,192,48089,1,0,0:0:0:0:
256,192,48483,1,8,0:0:0:0:
256,192,48878,1,8,0:0:0:0:
256,192,49076,1,0,0:0:0:0:
256,192,49174,1,0,0:0:0:0:
256,192,49273,1,8,0:0:0:0:
256,192,49668,1,0,0:0:0:0:
256,192,50062,1,8,0:0:0:0:
256,192,50457,1,8,0:0:0:0:
256,192,50654,1,0,0:0:0:0:
256,192,50852,1,0,0:0:0:0:
256,192,51247,1,8,0:0:0:0:
256,192,51444,1,0,0:0:0:0:
256,192,51641,1,8,0:0:0:0:
256,192,52036,1,8,0:0:0:0:
256,192,52233,1,0,0:0:0:0:
256,192,52332,1,0,0:0:0:0:
256,192,52431,1,8,0:0:0:0:
256,192,52628,1,0,0:0:0:0:
256,192,52826,1,8,0:0:0:0:
256,192,52924,1,8,0:0:0:0:
256,192,53023,1,0,0:0:0:0:
256,192,53220,1,8,0:0:0:0:
256,192,53615,1,8,0:0:0:0:
256,192,53812,1,0,0:0:0:0:
256,192,54010,1,12,0:0:0:0:
256,192,54404,1,0,0:0:0:0:
256,192,54602,1,0,0:0:0:0:
256,192,54799,1,8,0:0:0:0:
256,192,55194,1,8,0:0:0:0:
256,192,55391,1,0,0:0:0:0:
256,192,55490,1,0,0:0:0:0:
256,192,55589,1,8,0:0:0:0:
256,192,55983,1,0,0:0:0:0:
256,192,56378,1,8,0:0:0:0:
256,192,56773,1,0,0:0:0:0:
256,192,56970,1,0,0:0:0:0:
256,192,57168,1,8,0:0:0:0:
256,192,57562,1,0,0:0:0:0:
256,192,57760,1,8,0:0:0:0:
256,192,57957,1,8,0:0:0:0:
256,192,58352,1,8,0:0:0:0:
256,192,58549,1,0,0:0:0:0:
256,192,58648,1,0,0:0:0:0:
256,192,58747,1,8,0:0:0:0:
256,192,59141,1,0,0:0:0:0:
256,192,59536,1,8,0:0:0:0:
256,192,59931,1,8,0:0:0:0:
256,192,60128,1,8,0:0:0:0:
256,192,60326,1,0,0:0:0:0:
256,192,60720,1,0,0:0:0:0:
256,192,60918,1,0,0:0:0:0:
256,192,61115,1,8,0:0:0:0:
256,192,61510,1,8,0:0:0:0:
256,192,61707,1,0,0:0:0:0:
256,192,61806,1,0,0:0:0:0:
256,192,61904,1,8,0:0:0:0:
256,192,62102,1,0,0:0:0:0:
256,192,62299,1,0,0:0:0:0:
256,192,62694,1,8,0:0:0:0:
256,192,63089,1,12,0:0:0:0:
256,192,63878,1,0,0:0:0:0:
256,192,64273,1,12,0:0:0:0:
256,192,64668,1,0,0:0:0:0:
256,192,64865,1,0,0:0:0:0:
256,192,64964,1,0,0:0:0:0:
256,192,65062,1,8,0:0:0:0:
256,192,65260,1,0,0:0:0:0:
256,192,65457,1,8,0:0:0:0:
256,192,65654,1,0,0:0:0:0:
256,192,65852,1,8,0:0:0:0:
256,192,66049,1,8,0:0:0:0:
256,192,66148,1,0,0:0:0:0:
256,192,66247,1,8,0:0:0:0:
256,192,66444,1,0,0:0:0:0:
256,192,66641,1,12,0:0:0:0:
256,192,67036,1,0,0:0:0:0:
256,192,67431,1,8,0:0:0:0:
256,192,67628,1,8,0:0:0:0:
256,192,67727,1,0,0:0:0:0:
256,192,67826,1,8,0:0:0:0:
256,192,68023,1,0,0:0:0:0:
256,192,68220,1,8,0:0:0:0:
256,192,68615,1,0,0:0:0:0:
256,192,69010,1,8,0:0:0:0:
256,192,69207,1,0,0:0:0:0:
256,192,69306,1,0,0:0:0:0:
256,192,69404,1,8,0:0:0:0:
256,192,69602,1,0,0:0:0:0:
256,192,69799,1,8,0:0:0:0:
256,192,69997,1,8,0:0:0:0:
256,192,70095,1,8,0:0:0:0:
256,192,70194,1,0,0:0:0:0:
256,192,70391,1,0,0:0:0:0:
256,192,70589,1,8,0:0:0:0:
256,192,70786,1,0,0:0:0:0:
256,192,70983,1,0,0:0:0:0:
256,192,71181,1,8,0:0:0:0:
256,192,71378,1,8,0:0:0:0:
256,192,71576,1,0,0:0:0:0:
256,192,71674,1,0,0:0:0:0:
256,192,71773,1,8,0:0:0:0:
256,192,71970,1,0,0:0:0:0:
256,192,72168,1,8,0:0:0:0:
256,192,72562,1,8,0:0:0:0:
256,192,72760,1,0,0:0:0:0:
256,192,72957,1,8,0:0:0:0:
256,192,73154,1,0,0:0:0:0:
256,192,73253,1,0,0:0:0:0:
256,192,73352,1,8,0:0:0:0:
256,192,73549,1,8,0:0:0:0:
256,192,73747,1,0,0:0:0:0:
256,192,73944,1,8,0:0:0:0:
256,192,74141,1,0,0:0:0:0:
256,192,74339,1,8,0:0:0:0:
256,192,74437,1,0,0:0:0:0:
256,192,74536,1,8,0:0:0:0:
256,192,74635,1,8,0:0:0:0:
256,192,74733,1,0,0:0:0:0:
256,192,74931,1,8,0:0:0:0:
256,192,75326,1,4,0:0:0:0:
256,192,75720,1,12,0:0:0:0:
256,192,76510,1,8,0:0:0:0:
256,192,76904,1,8,0:0:0:0:
256,192,77102,1,0,0:0:0:0:
256,192,77201,1,0,0:0:0:0:
256,192,77299,1,8,0:0:0:0:
256,192,77497,1,0,0:0:0:0:
256,192,77694,1,8,0:0:0:0:
256,192,77891,1,8,0:0:0:0:
256,192,78089,1,0,0:0:0:0:
256,192,78286,1,0,0:0:0:0:
256,192,78483,1,8,0:0:0:0:
256,192,78582,1,0,0:0:0:0:
256,192,78681,1,8,0:0:0:0:
256,192,78779,1,0,0:0:0:0:
256,192,78878,1,8,0:0:0:0:
256,192,79076,1,0,0:0:0:0:
256,192,79273,1,12,0:0:0:0:
256,192,79668,1,0,0:0:0:0:
256,192,80062,1,8,0:0:0:0:
256,192,80260,1,0,0:0:0:0:
256,192,80358,1,0,0:0:0:0:
256,192,80457,1,8,0:0:0:0:
256,192,80654,1,0,0:0:0:0:
256,192,80852,1,8,0:0:0:0:
256,192,81247,1,0,0:0:0:0:
256,192,81641,1,8,0:0:0:0:
256,192,82036,1,8,0:0:0:0:
256,192,82233,1,0,0:0:0:0:
256,192,82332,1,0,0:0:0:0:
256,192,82431,1,8,0:0:0:0:
256,192,82628,1,8,0:0:0:0:
256,192,82727,1,8,0:0:0:0:
256,192,82826,1,0,0:0:0:0:
256,192,83023,1,8,0:0:0:0:
256,192,83220,1,8,0:0:0:0:
256,192,83418,1,0,0:0:0:0:
256,192,83615,1,8,0:0:0:0:
256,192,83714,1,8,0:0:0:0:
256,192,83812,1,0,0:0:0:0:
256,192,83911,1,0,0:0:0:0:
256,192,84010,1,8,0:0:0:0:
256,192,84207,1,0,0:0:0:0:
256,192,84404,1,8,0:0:0:0:
256,192,84799,1,4,0:0:0:0:
256,192,85194,1,12,0:0:0:0:
256,192,85983,1,0,0:0:0:0:
256,192,86378,1,8,0:0:0:0:
256,192,86576,1,0,0:0:0:0:
256,192,86674,1,0,0:0:0:0:
256,192,86773,1,8,0:0:0:0:
256,192,86970,1,0,0:0:0:0:
256,192,87168,1,8,0:0:0:0:
256,192,87365,1,0,0:0:0:0:
256,192,87464,1,0,0:0:0:0:
256,192,87562,1,8,0:0:0:0:
256,192,87760,1,8,0:0:0:0:
256,192,87957,1,8,0:0:0:0:
256,192,88154,1,0,0:0:0:0:
256,192,88352,1,8,0:0:0:0:
256,192,88549,1,0,0:0:0:0:
256,192,88648,1,0,0:0:0:0:
256,192,88747,1,8,0:0:0:0:
256,192,88845,1,8,0:0:0:0:
256,192,88944,1,0,0:0:0:0:
256,192,89141,1,8,0:0:0:0:
256,192,89339,1,8,0:0:0:0:
256,192,89437,1,8,0:0:0:0:
256,192,89536,1,0,0:0:0:0:
256,192,89635,1,0,0:0:0:0:
256,192,89733,1,8,0:0:0:0:
256,192,89931,1,12,0:0:0:0:
256,192,90523,1,0,0:0:0:0:
256,192,90720,1,8,0:0:0:0:
256,192,91115,1,8,0:0:0:0:
256,192,91312,1,0,0:0:0:0:
256,192,91510,1,8,0:0:0:0:
256,192,91707,1,8,0:0:0:0:
256,192,91904,1,4,0:0:0:0:
256,192,92694,1,8,0:0:0:0:
256,192,93089,1,0,0:0:0:0:
256,192,93286,1,8,0:0:0:0:
256,192,93385,1,0,0:0:0:0:
256,192,93483,1,8,0:0:0:0:
256,192,93681,1,0,0:0:0:0:
256,192,93878,1,8,0:0:0:0:
256,192,94273,1,0,0:0:0:0:
256,192,95062,1,8,0:0:0:0:
256,192,95852,1,0,0:0:0:0:
256,192,96247,1,8,0:0:0:0:
256,192,96641,1,8,0:0:0:0:
256,192,97431,1,0,0:0:0:0:
256,192,98220,1,8,0:0:0:0:
256,192,98615,1,8,0:0:0:0:
256,192,99010,1,0,0:0:0:0:
256,192,99404,1,8,0:0:0:0:
256,192,100194,1,0,0:0:0:0:
256,192,100589,1,8,0:0:0:0:
256,192,101378,1,8,0:0:0:0:
256,192,101773,1,0,0:0:0:0:
256,192,102168,1,8,0:0:0:0:
256,192,102957,1,0,0:0:0:0:
256,192,103747,1,8,0:0:0:0:
256,192,104141,1,8,0:0:0:0:
256,192,104536,1,0,0:0:0:0:
256,192,104931,1,0,0:0:0:0:
256,192,105326,1,0,0:0:0:0:
256,192,105720,1,8,0:0:0:0:
256,192,105918,12,0,110062,0:0:0:0:
256,192,110457,5,8,0:0:0:0:
256,192,110852,1,0,0:0:0:0:
256,192,111247,1,0,0:0:0:0:
256,192,111444,1,8,0:0:0:0:
256,192,111641,1,8,0:0:0:0:
256,192,112036,1,0,0:0:0:0:
256,192,112233,1,8,0:0:0:0:
256,192,112431,1,0,0:0:0:0:
256,192,112826,1,8,0:0:0:0:
256,192,113023,1,8,0:0:0:0:
256,192,113220,1,0,0:0:0:0:
256,192,113812,1,0,0:0:0:0:
256,192,114010,1,8,0:0:0:0:
256,192,114404,1,8,0:0:0:0:
256,192,114602,1,0,0:0:0:0:
256,192,114799,1,0,0:0:0:0:
256,192,114997,1,8,0:0:0:0:
256,192,115194,1,0,0:0:0:0:
256,192,115983,1,8,0:0:0:0:
256,192,116378,1,8,0:0:0:0:
256,192,116773,1,0,0:0:0:0:
256,192,116970,1,8,0:0:0:0:
256,192,117168,1,0,0:0:0:0:
256,192,117562,1,8,0:0:0:0:
256,192,117760,1,0,0:0:0:0:
256,192,117957,1,8,0:0:0:0:
256,192,118352,1,0,0:0:0:0:
256,192,118747,1,8,0:0:0:0:
256,192,119141,1,0,0:0:0:0:
256,192,119536,1,0,0:0:0:0:
256,192,119931,1,8,0:0:0:0:
256,192,120128,1,0,0:0:0:0:
256,192,120326,1,8,0:0:0:0:
256,192,120720,1,0,0:0:0:0:
256,192,120918,1,8,0:0:0:0:
256,192,121115,1,0,0:0:0:0:
256,192,121510,1,8,0:0:0:0:
256,192,122299,1,8,0:0:0:0:
256,192,122694,1,8,0:0:0:0:
256,192,123089,1,0,0:0:0:0:
256,192,123483,1,8,0:0:0:0:
256,192,123878,1,8,0:0:0:0:
256,192,124076,1,0,0:0:0:0:
256,192,124273,1,8,0:0:0:0:
256,192,124668,1,0,0:0:0:0:
256,192,124865,1,8,0:0:0:0:
256,192,125062,1,8,0:0:0:0:
256,192,125457,1,8,0:0:0:0:
256,192,125654,1,0,0:0:0:0:
256,192,125852,1,8,0:0:0:0:
256,192,126444,1,0,0:0:0:0:
256,192,126641,1,8,0:0:0:0:
256,192,127036,1,8,0:0:0:0:
256,192,127233,1,8,0:0:0:0:
256,192,127431,1,0,0:0:0:0:
256,192,127628,1,0,0:0:0:0:
256,192,127826,1,8,0:0:0:0:
256,192,128615,1,8,0:0:0:0:
256,192,129010,1,0,0:0:0:0:
256,192,129404,1,8,0:0:0:0:
256,192,129602,1,0,0:0:0:0:
256,192,129799,1,8,0:0:0:0:
256,192,130194,1,0,0:0:0:0:
256,192,130391,1,8,0:0:0:0:
256,192,130589,1,8,0:0:0:0:
256,192,130786,1,0,0:0:0:0:
256,192,131181,1,0,0:0:0:0:
256,192,131378,1,8,0:0:0:0:
256,192,131773,1,0,0:0:0:0:
256,192,132168,1,8,0:0:0:0:
256,192,132562,1,8,0:0:0:0:
256,192,132760,1,8,0:0:0:0:
256,192,132957,1,0,0:0:0:0:
256,192,133352,1,0,0:0:0:0:
256,192,133549,1,8,0:0:0:0:
256,192,133747,1,8,0:0:0:0:
256,192,133944,1,0,0:0:0:0:
256,192,134141,1,8,0:0:0:0:
256,192,134536,1,12,0:0:0:0:
256,192,134931,1,0,0:0:0:0:
256,192,135128,1,0,0:0:0:0:
256,192,135326,1,8,0:0:0:0:
256,192,135523,1,0,0:0:0:0:
256,192,135720,1,8,0:0:0:0:
256,192,136115,1,12,0:0:0:0:
256,192,136510,1,0,0:0:0:0:
256,192,136904,1,8,0:0:0:0:
256,192,137299,1,0,0:0:0:0:
256,192,137497,1,8,0:0:0:0:
256,192,137595,1,8,0:0:0:0:
256,192,137694,1,0,0:0:0:0:
256,192,138089,1,0,0:0:0:0:
256,192,138483,1,8,0:0:0:0:
256,192,138878,1,0,0:0:0:0:
256,192,139076,1,8,0:0:0:0:
256,192,139174,1,0,0:0:0:0:
256,192,139273,1,8,0:0:0:0:
256,192,139470,1,0,0:0:0:0:
256,192,139668,1,8,0:0:0:0:
256,192,139865,1,0,0:0:0:0:
256,192,140062,1,8,0:0:0:0:
256,192,140457,1,8,0:0:0:0:
256,192,140654,1,0,0:0:0:0:
256,192,140753,1,0,0:0:0:0:
256,192,140852,1,8,0:0:0:0:
256,192,141247,1,0,0:0:0:0:
256,192,141641,1,8,0:0:0:0:
256,192,142036,1,8,0:0:0:0:
256,192,142233,1,0,0:0:0:0:
256,192,142332,1,0,0:0:0:0:
256,192,142431,1,8,0:0:0:0:
256,192,142826,1,0,0:0:0:0:
256,192,143220,1,8,0:0:0:0:
256,192,143615,1,8,0:0:0:0:
256,192,143812,1,0,0:0:0:0:
256,192,143911,1,0,0:0:0:0:
256,192,144010,1,8,0:0:0:0:
256,192,144404,1,0,0:0:0:0:
256,192,144799,1,8,0:0:0:0:
256,192,145194,1,8,0:0:0:0:
256,192,145391,1,0,0:0:0:0:
256,192,145490,1,0,0:0:0:0:
256,192,145589,1,8,0:0:0:0:
256,192,145983,1,0,0:0:0:0:
256,192,146181,1,8,0:0:0:0:
256,192,146279,1,8,0:0:0:0:
256,192,146378,1,0,0:0:0:0:
256,192,146773,1,8,0:0:0:0:
256,192,146970,1,0,0:0:0:0:
256,192,147069,1,0,0:0:0:0:
256,192,147168,1,8,0:0:0:0:
256,192,147365,1,0,0:0:0:0:
256,192,147562,1,8,0:0:0:0:
256,192,147661,1,8,0:0:0:0:
256,192,147760,1,0,0:0:0:0:
256,192,147957,1,8,0:0:0:0:
256,192,148352,1,8,0:0:0:0:
256,192,148549,1,0,0:0:0:0:
256,192,148648,1,0,0:0:0:0:
256,192,148747,1,12,0:0:0:0:
256,192,149141,1,0,0:0:0:0:
256,192,149339,1,0,0:0:0:0:
256,192,149536,1,8,0:0:0:0:
256,192,149931,1,8,0:0:0:0:
256,192,150128,1,0,0:0:0:0:
256,192,150227,1,0,0:0:0:0:
256,192,150326,1,8,0:0:0:0:
256,192,150720,1,0,0:0:0:0:
256,192,151115,1,8,0:0:0:0:
256,192,151510,1,8,0:0:0:0:
256,192,151707,1,0,0:0:0:0:
256,192,151806,1,0,0:0:0:0:
256,192,151904,1,8,0:0:0:0:
256,192,152299,1,0,0:0:0:0:
256,192,152497,1,0,0:0:0:0:
256,192,152694,1,8,0:0:0:0:
256,192,153089,1,8,0:0:0:0:
256,192,153286,1,0,0:0:0:0:
256,192,153385,1,0,0:0:0:0:
256,192,153483,1,8,0:0:0:0:
256,192,153878,1,0,0:0:0:0:
256,192,154273,1,8,0:0:0:0:
256,192,154668,1,8,0:0:0:0:
256,192,154865,1,8,0:0:0:0:
256,192,154964,1,0,0:0:0:0:
256,192,155062,1,8,0:0:0:0:
256,192,155457,1,0,0:0:0:0:
256,192,155654,1,0,0:0:0:0:
256,192,155852,1,8,0:0:0:0:
256,192,156247,1,8,0:0:0:0:
256,192,156444,1,0,0:0:0:0:
256,192,156543,1,0,0:0:0:0:
256,192,156641,1,8,0:0:0:0:
256,192,156839,1,0,0:0:0:0:
256,192,157036,1,0,0:0:0:0:
256,192,157431,1,8,0:0:0:0:
256,192,157826,1,12,0:0:0:0:
256,192,158615,1,0,0:0:0:0:
256,192,159010,1,12,0:0:0:0:
256,192,159404,1,0,0:0:0:0:
256,192,159602,1,0,0:0:0:0:
256,192,159701,1,0,0:0:0:0:
256,192,159799,1,8,0:0:0:0:
256,192,159997,1,0,0:0:0:0:
256,192,160194,1,8,0:0:0:0:
256,192,160391,1,0,0:0:0:0:
256,192,160589,1,8,0:0:0:0:
256,192,160720,1,0,0:0:0:0:
256,192,160852,1,0,0:0:0:0:
256,192,160983,1,8,0:0:0:0:
256,192,161115,1,8,0:0:0:0:
256,192,161247,1,0,0:0:0:0:
256,192,161378,1,12,0:0:0:0:
256,192,161773,1,0,0:0:0:0:
256,192,161970,1,0,0:0:0:0:
256,192,162168,1,8,0:0:0:0:
256,192,162562,1,8,0:0:0:0:
256,192,162760,1,8,0:0:0:0:
256,192,162858,1,0,0:0:0:0:
256,192,162957,1,8,0:0:0:0:
256,192,163352,1,0,0:0:0:0:
256,192,163747,1,8,0:0:0:0:
256,192,164141,1,0,0:0:0:0:
256,192,164339,1,0,0:0:0:0:
256,192,164437,1,8,0:0:0:0:
256,192,164536,1,0,0:0:0:0:
256,192,164931,1,0,0:0:0:0:
256,192,165128,1,0,0:0:0:0:
256,192,165326,1,8,0:0:0:0:
256,192,165720,1,8,0:0:0:0:
256,192,165918,1,0,0:0:0:0:
256,192,166016,1,0,0:0:0:0:
256,192,166115,1,8,0:0:0:0:
256,192,166312,1,8,0:0:0:0:
256,192,166510,1,0,0:0:0:0:
256,192,166707,1,0,0:0:0:0:
256,192,166904,1,12,0:0:0:0:
256,192,167299,1,8,0:0:0:0:
256,192,167497,1,8,0:0:0:0:
256,192,167595,1,0,0:0:0:0:
256,192,167694,1,8,0:0:0:0:
256,192,168089,1,0,0:0:0:0:
256,192,168286,1,0,0:0:0:0:
256,192,168483,1,8,0:0:0:0:
256,192,168878,1,8,0:0:0:0:
256,192,169076,1,8,0:0:0:0:
256,192,169174,1,0,0:0:0:0:
256,192,169273,1,8,0:0:0:0:
256,192,169668,1,0,0:0:0:0:
256,192,170062,1,8,0:0:0:0:
256,192,170457,1,0,0:0:0:0:
256,192,170654,1,0,0:0:0:0:
256,192,170753,1,0,0:0:0:0:
256,192,170852,1,8,0:0:0:0:
256,192,171049,1,8,0:0:0:0:
256,192,171148,1,0,0:0:0:0:
256,192,171247,1,8,0:0:0:0:
256,192,171444,1,0,0:0:0:0:
256,192,171641,1,8,0:0:0:0:
256,192,171839,1,8,0:0:0:0:
256,192,172036,1,0,0:0:0:0:
256,192,172233,1,8,0:0:0:0:
256,192,172332,1,0,0:0:0:0:
256,192,172431,1,8,0:0:0:0:
256,192,172628,1,8,0:0:0:0:
256,192,172727,1,8,0:0:0:0:
256,192,172826,1,0,0:0:0:0:
256,192,172924,1,0,0:0:0:0:
256,192,173023,1,8,0:0:0:0:
256,192,173220,1,8,0:0:0:0:
256,192,173418,1,0,0:0:0:0:
256,192,173516,1,0,0:0:0:0:
256,192,173615,1,8,0:0:0:0:
256,192,173812,1,0,0:0:0:0:
256,192,174010,1,12,0:0:0:0:
256,192,174404,1,8,0:0:0:0:
256,192,174602,1,8,0:0:0:0:
256,192,174701,1,0,0:0:0:0:
256,192,174799,1,8,0:0:0:0:
256,192,174997,1,0,0:0:0:0:
256,192,175194,1,0,0:0:0:0:
256,192,175391,1,8,0:0:0:0:
256,192,175589,1,0,0:0:0:0:
256,192,175983,1,8,0:0:0:0:
256,192,176378,1,0,0:0:0:0:
256,192,176773,1,12,0:0:0:0:
256,192,177365,1,0,0:0:0:0:
256,192,177562,1,8,0:0:0:0:
256,192,177957,1,8,0:0:0:0:
256,192,178352,1,8,0:0:0:0:
256,192,178747,1,0,0:0:0:0:
256,192,179141,1,0,0:0:0:0:
256,192,179339,1,0,0:0:0:0:
256,192,179536,1,12,0:0:0:0:
256,192,179931,1,8,0:0:0:0:
256,192,180128,1,8,0:0:0:0:
256,192,180227,1,0,0:0:0:0:
256,192,180326,1,12,0:0:0:0:
256,192,180720,1,0,0:0:0:0:
256,192,181115,1,8,0:0:0:0:
256,192,181510,1,8,0:0:0:0:
256,192,181707,1,8,0:0:0:0:
256,192,181806,1,8,0:0:0:0:
256,192,181904,1,0,0:0:0:0:
256,192,182299,1,0,0:0:0:0:
256,192,182694,1,8,0:0:0:0:
256,192,183089,1,8,0:0:0:0:
256,192,183286,1,8,0:0:0:0:
256,192,183385,1,0,0:0:0:0:
256,192,183483,1,12,0:0:0:0:
256,192,183878,1,0,0:0:0:0:
256,192,184273,1,8,0:0:0:0:
256,192,184668,1,8,0:0:0:0:
256,192,184865,1,0,0:0:0:0:
256,192,184964,1,8,0:0:0:0:
256,192,185062,1,0,0:0:0:0:
256,192,185457,1,0,0:0:0:0:
256,192,185852,1,8,0:0:0:0:
256,192,186247,1,8,0:0:0:0:
256,192,186444,1,0,0:0:0:0:
256,192,186543,1,0,0:0:0:0:
256,192,186641,1,12,0:0:0:0:
256,192,187036,1,0,0:0:0:0:
256,192,187431,1,8,0:0:0:0:
256,192,187826,1,0,0:0:0:0:
256,192,188023,1,8,0:0:0:0:
256,192,188220,1,0,0:0:0:0:
256,192,188615,1,8,0:0:0:0:
256,192,188812,1,0,0:0:0:0:
256,192,189010,1,8,0:0:0:0:
256,192,189404,1,8,0:0:0:0:
256,192,189799,1,0,0:0:0:0:
256,192,189997,12,0,192562,0:0:0:0:
256,192,192957,5,8,0:0:0:0:
256,192,193352,1,0,0:0:0:0:
256,192,193747,1,0,0:0:0:0:
256,192,194141,1,8,0:0:0:0:
256,192,194536,1,8,0:0:0:0:
256,192,194931,1,0,0:0:0:0:
256,192,195326,1,0,0:0:0:0:
256,192,195720,1,0,0:0:0:0:
224,192,196115,1,8,0:0:0:0:
224,192,196510,1,0,0:0:0:0:
224,192,196904,1,0,0:0:0:0:
224,192,197299,1,8,0:0:0:0:
256,192,199273,5,12,0:0:0:0:
256,192,199470,1,0,0:0:0:0:
256,192,199668,1,8,0:0:0:0:
256,192,199865,1,0,0:0:0:0:
256,192,199964,1,0,0:0:0:0:
256,192,200062,1,8,0:0:0:0:
256,192,200161,1,8,0:0:0:0:
256,192,200260,1,0,0:0:0:0:
256,192,200457,1,8,0:0:0:0:
256,192,200654,1,8,0:0:0:0:
256,192,200753,1,0,0:0:0:0:
256,192,200852,1,8,0:0:0:0:
256,192,201049,1,0,0:0:0:0:
256,192,201148,1,0,0:0:0:0:
256,192,201247,1,8,0:0:0:0:
256,192,201345,1,0,0:0:0:0:
256,192,201444,1,8,0:0:0:0:
256,192,201641,1,8,0:0:0:0:
256,192,201839,1,0,0:0:0:0:
256,192,201937,1,0,0:0:0:0:
256,192,202036,1,8,0:0:0:0:
256,192,202233,1,0,0:0:0:0:
256,192,202431,1,12,0:0:0:0:
256,192,202826,1,0,0:0:0:0:
256,192,203220,1,8,0:0:0:0:
256,192,203418,1,8,0:0:0:0:
256,192,203516,1,0,0:0:0:0:
256,192,203615,1,8,0:0:0:0:
256,192,203714,1,8,0:0:0:0:
256,192,203812,1,0,0:0:0:0:
256,192,204010,1,8,0:0:0:0:
256,192,204404,1,0,0:0:0:0:
256,192,204799,1,8,0:0:0:0:
256,192,204997,1,0,0:0:0:0:
256,192,205095,1,0,0:0:0:0:
256,192,205194,1,8,0:0:0:0:
256,192,205391,1,0,0:0:0:0:
256,192,205589,1,8,0:0:0:0:
256,192,205786,1,8,0:0:0:0:
256,192,205885,1,0,0:0:0:0:
256,192,205983,1,8,0:0:0:0:
256,192,206181,1,8,0:0:0:0:
256,192,206378,1,8,0:0:0:0:
256,192,206477,1,8,0:0:0:0:
256,192,206576,1,0,0:0:0:0:
256,192,206773,1,0,0:0:0:0:
256,192,206970,1,8,0:0:0:0:
256,192,207168,1,0,0:0:0:0:
256,192,207365,1,0,0:0:0:0:
256,192,207464,1,0,0:0:0:0:
256,192,207562,1,8,0:0:0:0:
256,192,207760,1,0,0:0:0:0:
256,192,207957,1,12,0:0:0:0:
256,192,208352,1,8,0:0:0:0:
256,192,208549,1,0,0:0:0:0:
256,192,208648,1,0,0:0:0:0:
256,192,208747,1,8,0:0:0:0:
256,192,208944,1,0,0:0:0:0:
256,192,209141,1,8,0:0:0:0:
256,192,209240,1,0,0:0:0:0:
256,192,209339,1,8,0:0:0:0:
256,192,209536,1,0,0:0:0:0:
256,192,209733,1,8,0:0:0:0:
256,192,209931,1,0,0:0:0:0:
256,192,210128,1,8,0:0:0:0:
256,192,210227,1,0,0:0:0:0:
256,192,210326,1,8,0:0:0:0:
256,192,210424,1,8,0:0:0:0:
256,192,210523,1,0,0:0:0:0:
256,192,210720,1,8,0:0:0:0:
256,192,211115,1,4,0:0:0:0:
256,192,211510,1,12,0:0:0:0:
256,192,212299,1,8,0:0:0:0:
256,192,212694,1,8,0:0:0:0:
256,192,212891,1,0,0:0:0:0:
256,192,212990,1,0,0:0:0:0:
256,192,213089,1,8,0:0:0:0:
256,192,213286,1,0,0:0:0:0:
256,192,213483,1,8,0:0:0:0:
256,192,213681,1,8,0:0:0:0:
256,192,213878,1,0,0:0:0:0:
256,192,214273,1,8,0:0:0:0:
256,192,214470,1,8,0:0:0:0:
256,192,214569,1,0,0:0:0:0:
256,192,214668,1,8,0:0:0:0:
256,192,214766,1,8,0:0:0:0:
256,192,214865,1,0,0:0:0:0:
256,192,215062,1,12,0:0:0:0:
256,192,215457,1,0,0:0:0:0:
256,192,215852,1,8,0:0:0:0:
256,192,216049,1,8,0:0:0:0:
256,192,216148,1,0,0:0:0:0:
256,192,216247,1,8,0:0:0:0:
256,192,216345,1,8,0:0:0:0:
256,192,216444,1,0,0:0:0:0:
256,192,216641,1,8,0:0:0:0:
256,192,217036,1,0,0:0:0:0:
256,192,217431,1,8,0:0:0:0:
256,192,217826,1,8,0:0:0:0:
256,192,218023,1,8,0:0:0:0:
256,192,218122,1,0,0:0:0:0:
256,192,218220,1,8,0:0:0:0:
256,192,218418,1,0,0:0:0:0:
256,192,218615,1,8,0:0:0:0:
256,192,218812,1,8,0:0:0:0:
256,192,218911,1,0,0:0:0:0:
256,192,219010,1,0,0:0:0:0:
256,192,219207,1,0,0:0:0:0:
256,192,219404,1,8,0:0:0:0:
256,192,219503,1,8,0:0:0:0:
256,192,219602,1,0,0:0:0:0:
256,192,219799,1,8,0:0:0:0:
256,192,219997,1,0,0:0:0:0:
256,192,220194,1,8,0:0:0:0:
256,192,220326,1,0,0:0:0:0:
256,192,220457,1,8,0:0:0:0:
256,192,220589,1,4,0:0:0:0:
256,192,220983,1,12,0:0:0:0:
256,192,221773,1,0,0:0:0:0:
256,192,222168,1,8,0:0:0:0:
256,192,222365,1,0,0:0:0:0:
256,192,222464,1,0,0:0:0:0:
256,192,222562,1,8,0:0:0:0:
256,192,222760,1,0,0:0:0:0:
256,192,222957,1,8,0:0:0:0:
256,192,223154,1,0,0:0:0:0:
256,192,223253,1,8,0:0:0:0:
256,192,223352,1,0,0:0:0:0:
256,192,223549,1,0,0:0:0:0:
256,192,223747,1,8,0:0:0:0:
256,192,224141,1,8,0:0:0:0:
256,192,224339,1,0,0:0:0:0:
256,192,224437,1,0,0:0:0:0:
256,192,224536,1,8,0:0:0:0:
256,192,224635,1,8,0:0:0:0:
256,192,224733,1,0,0:0:0:0:
256,192,224931,1,8,0:0:0:0:
256,192,225128,1,8,0:0:0:0:
256,192,225227,1,8,0:0:0:0:
256,192,225326,1,0,0:0:0:0:
256,192,225424,1,0,0:0:0:0:
256,192,225523,1,8,0:0:0:0:
256,192,225720,1,12,0:0:0:0:
256,192,226115,1,0,0:0:0:0:
256,192,226510,1,0,0:0:0:0:
256,192,226904,1,8,0:0:0:0:
256,192,227102,1,0,0:0:0:0:
256,192,227201,1,0,0:0:0:0:
256,192,227299,1,8,0:0:0:0:
256,192,227497,1,0,0:0:0:0:
256,192,227694,1,12,0:0:0:0:
256,192,228089,1,8,0:0:0:0:
256,192,228483,1,8,0:0:0:0:
256,192,228681,1,0,0:0:0:0:
256,192,228779,1,0,0:0:0:0:
256,192,228878,1,8,0:0:0:0:
256,192,229076,1,0,0:0:0:0:
256,192,229273,1,8,0:0:0:0:
256,192,229470,1,8,0:0:0:0:
256,192,229569,1,0,0:0:0:0:
256,192,229668,1,8,0:0:0:0:
256,192,229865,1,0,0:0:0:0:
256,192,230062,1,8,0:0:0:0:
256,192,230457,1,8,0:0:0:0:
256,192,230654,1,0,0:0:0:0:
256,192,230753,1,0,0:0:0:0:
256,192,230852,1,8,0:0:0:0:
256,192,230951,1,8,0:0:0:0:
256,192,231049,1,0,0:0:0:0:
256,192,231247,1,8,0:0:0:0:
256,192,231444,1,8,0:0:0:0:
256,192,231543,1,0,0:0:0:0:
256,192,231641,1,8,0:0:0:0:
256,192,231740,1,8,0:0:0:0:
256,192,231839,1,0,0:0:0:0:
256,192,232036,1,8,0:0:0:0:
256,192,232431,1,0,0:0:0:0:
256,192,232826,1,0,0:0:0:0:
256,192,233220,1,8,0:0:0:0:
256,192,233418,1,0,0:0:0:0:
256,192,233516,1,0,0:0:0:0:
256,192,233615,1,8,0:0:0:0:
256,192,233812,1,0,0:0:0:0:
256,192,234010,1,12,0:0:0:0:
256,192,234404,1,0,0:0:0:0:
256,192,234799,1,8,0:0:0:0:
256,192,234997,1,8,0:0:0:0:
256,192,235095,1,0,0:0:0:0:
256,192,235194,1,8,0:0:0:0:
256,192,235391,1,0,0:0:0:0:
256,192,235589,1,8,0:0:0:0:
256,192,235786,1,0,0:0:0:0:
256,192,235885,1,0,0:0:0:0:
256,192,235983,1,8,0:0:0:0:
256,192,236181,1,0,0:0:0:0:
256,192,236378,1,8,0:0:0:0:
256,192,236773,1,8,0:0:0:0:
256,192,236970,1,0,0:0:0:0:
256,192,237069,1,0,0:0:0:0:
256,192,237168,1,8,0:0:0:0:
256,192,237365,1,0,0:0:0:0:
256,192,237562,1,8,0:0:0:0:
256,192,237760,1,8,0:0:0:0:
256,192,237858,1,8,0:0:0:0:
256,192,237957,1,0,0:0:0:0:
256,192,238056,1,0,0:0:0:0:
256,192,238154,1,8,0:0:0:0:
256,192,238352,1,12,0:0:0:0:
256,192,239141,1,0,0:0:0:0:
256,192,239536,1,8,0:0:0:0:
256,192,239799,1,0,0:0:0:0:
256,192,240062,1,0,0:0:0:0:
256,192,240326,1,8,0:0:0:0:
256,192,241510,1,8,0:0:0:0:
256,192,241904,1,12,0:0:0:0:
256,192,242299,1,0,0:0:0:0:
256,192,242694,1,8,0:0:0:0:
256,192,243483,1,8,0:0:0:0:
256,192,244668,1,8,0:0:0:0:
256,192,245062,1,0,0:0:0:0:
256,192,245852,1,0,0:0:0:0:
256,192,246247,1,8,0:0:0:0:
256,192,246641,1,8,0:0:0:0:
256,192,247036,1,0,0:0:0:0:
256,192,247431,1,0,0:0:0:0:
256,192,247826,1,8,0:0:0:0:
256,192,248615,1,8,0:0:0:0:
256,192,249010,1,8,0:0:0:0:
256,192,249207,1,0,0:0:0:0:
256,192,249404,1,8,0:0:0:0:
256,192,249799,1,8,0:0:0:0:
256,192,250589,1,0,0:0:0:0:
256,192,251378,1,8,0:0:0:0:
256,192,251773,1,0,0:0:0:0:
256,192,252168,1,0,0:0:0:0:
256,192,252562,1,0,0:0:0:0:
256,192,252957,1,8,0:0:0:0:
256,192,253352,1,0,0:0:0:0:
256,192,253747,1,8,0:0:0:0:
256,192,253944,1,0,0:0:0:0:
256,192,254141,1,8,0:0:0:0:
256,192,254931,1,0,0:0:0:0:
256,192,255326,1,0,0:0:0:0:
256,192,256115,1,8,0:0:0:0:
256,192,256510,1,0,0:0:0:0:
256,192,256707,1,8,0:0:0:0:
256,192,256904,1,0,0:0:0:0:
256,192,257299,1,0,0:0:0:0:
256,192,257694,1,8,0:0:0:0:
256,192,258089,1,0,0:0:0:0:
256,192,258286,1,0,0:0:0:0:
256,192,258483,1,8,0:0:0:0:
256,192,258878,1,0,0:0:0:0:
256,192,259273,1,8,0:0:0:0:
256,192,259668,1,0,0:0:0:0:
256,192,259865,1,8,0:0:0:0:
256,192,260062,1,0,0:0:0:0:
256,192,260457,1,12,0:0:0:0:
256,192,260654,12,0,268747,0:0:0:0:
