osu file format v14

[General]
AudioFilename: audio.mp3
AudioLeadIn: 0
PreviewTime: 200037
Countdown: 0
SampleSet: Soft
StackLeniency: 0.7
Mode: 0
LetterboxInBreaks: 0
WidescreenStoryboard: 1

[Editor]
DistanceSpacing: 1
BeatDivisor: 2
GridSize: 4
TimelineZoom: 0.8

[Metadata]
Title:Hi FiVE!
TitleUnicode:Hi FiVE!
Artist:LiSA
ArtistUnicode:LiSA
Creator:vick
Version:Narcissu's Normal
Source:
Tags:織部里沙 risa oribe LiSA BEST -Way- deca kibbleru narcissu totoizn japanese rock
BeatmapID:1028266
BeatmapSetID:480669

[Difficulty]
HPDrainRate:4
CircleSize:3.2
OverallDifficulty:4
ApproachRate:5.5
SliderMultiplier:0.9
SliderTickRate:1

[Events]
//Background and Video events
0,0,"thanks lasse.jpg",0,0
//Break Periods
2,170785,176664
//Storyboard Layer 0 (Background)
//Storyboard Layer 1 (Fail)
//Storyboard Layer 2 (Pass)
//Storyboard Layer 3 (Foreground)
//Storyboard Layer 4 (Overlay)
//Storyboard Sound Samples

[TimingPoints]
11356,337.078651685393,4,2,1,100,1,0
14053,-100,4,2,1,60,0,0
35120,306.122448979592,4,2,1,60,1,0
35273,337.078651685393,4,2,1,60,1,0
35610,337.078651685393,4,2,1,60,1,0
59879,340.909090909091,4,2,1,60,1,0
61583,337.078651685393,4,2,1,60,1,0
62257,326.086956521739,4,2,1,60,1,0
62583,337.362946303064,4,2,1,75,1,1
62583,-100,4,2,1,75,0,1
77426,-100,4,2,1,60,0,0
78101,331.491712707182,4,2,1,60,1,0
78763,337.362946303064,4,2,1,75,1,1
78763,-100,4,2,1,75,0,1
90908,333.889816360601,4,2,1,60,1,1
90908,-100,4,2,1,60,0,1
92243,340.909090909091,4,2,1,60,1,1
92243,-100,4,2,1,60,0,1
93606,334.261838440111,4,2,1,60,1,1
93606,-100,4,2,1,60,0,1
94943,338.983050847458,4,2,1,60,1,0
94943,-100,4,2,1,60,0,0
97654,331.491712707182,4,2,1,60,1,0
98979,339.462517680339,4,2,1,60,1,0
100336,337.078651685393,4,2,1,60,1,0
124605,-100,4,2,1,75,0,1
139437,-100,4,2,1,60,0,0
140785,-100,4,2,1,75,0,1
156965,-100,4,2,1,60,0,0
167583,-100,4,2,1,60,0,0
177864,342.857142857143,4,2,1,60,1,0
178549,337.078651685393,4,2,1,60,1,0
201470,-100,4,2,1,60,0,1
201471,-100,4,2,1,80,0,1
216301,-100,4,2,1,70,0,0
217650,-100,4,2,1,80,0,1
233492,-100,4,2,1,80,0,0
233661,-100,4,2,1,70,0,0
236357,331.858407079646,4,2,1,70,1,0
238348,339.943342776204,4,2,1,70,1,0
239197,345.821325648415,4,2,1,70,1,0
240234,337.078651685393,4,2,1,70,1,0
240571,337.078651685393,4,2,1,70,1,0
263650,333.333333333333,4,2,1,70,1,0
264841,333.333333333333,4,2,1,70,1,0
266174,337.078651685393,4,2,1,70,1,0

[Colours]
Combo1 : 85,255,170
Combo2 : 255,128,128
Combo3 : 176,230,255

[HitObjects]
48,188,14053,6,0,P|88:272|176:296,1,180,2|0,1:2|0:0,0:0:0:0:
252,268,15064,1,2,1:2:0:0:
320,324,15401,2,0,L|416:320,1,90,0|2,0:0|1:2,0:0:0:0:
440,236,16075,1,2,1:2:0:0:
468,152,16412,1,10,0:3:0:0:
400,92,16749,6,0,P|364:124|308:128,1,90,6|8,1:2|0:0,0:0:0:0:
288,104,17255,2,0,L|144:92,1,135,2|8,1:2|0:0,0:0:0:0:
124,60,17929,2,0,P|100:120|124:200,1,135,2|8,1:2|0:0,0:0:0:0:
200,212,18772,1,8,0:3:0:0:
136,272,19109,1,8,0:3:0:0:
156,360,19446,6,0,L|252:352,1,90,4|8,1:1|0:0,0:0:0:0:
300,280,20120,2,0,L|396:272,1,90,2|8,1:2|0:0,0:0:0:0:
460,327,20794,2,0,P|479:288|477:243,1,90,2|8,1:2|0:0,0:0:0:0:
500,156,21468,2,0,P|475:118|435:99,1,90,0|8,0:0|0:0,0:0:0:0:
348,116,22143,6,0,L|152:108,1,180,0|0,0:0|0:0,0:0:0:0:
92,160,23154,1,0,0:0:0:0:
48,80,23491,2,0,P|0:160|48:240,1,180,0|0,0:0|0:0,0:0:0:0:
124,248,24502,1,0,0:0:0:0:
164,328,24839,6,0,L|348:320,1,180,6|0,0:0|0:0,0:0:0:0:
476,200,26187,2,0,L|292:208,1,180,2|0,0:0|0:0,0:0:0:0:
208,52,27536,6,0,P|236:92|240:144,1,90,2|0,0:0|0:0,0:0:0:0:
152,120,28210,2,0,P|156:168|133:215,1,90,0|0,0:0|0:0,0:0:0:0:
68,156,28884,2,0,P|24:236|40:336,1,180,2|2,0:0|0:0,0:0:0:0:
204,272,30232,6,0,P|292:272|364:324,1,180,2|2,0:0|0:0,0:0:0:0:
512,220,31581,2,0,P|424:220|352:168,1,180,0|0,0:0|0:0,0:0:0:0:
204,68,32929,6,0,P|176:108|172:160,1,90,0|2,0:0|0:0,0:0:0:0:
260,136,33603,2,0,P|255:184|278:231,1,90,2|2,0:0|0:0,0:0:0:0:
220,296,34277,2,0,L|32:292,1,180,0|0,0:0|0:0,0:0:0:0:
4,208,35273,1,8,0:3:0:0:
76,152,35610,6,0,L|80:52,1,90,6|8,1:2|0:0,0:0:0:0:
168,48,36284,2,0,L|164:145,1,90,0|8,1:2|0:0,0:0:0:0:
240,188,36958,1,2,1:2:0:0:
320,144,37295,1,8,0:0:0:0:
408,152,37632,2,0,P|440:188|448:252,1,90,0|8,1:2|0:0,0:0:0:0:
412,308,38306,5,2,1:2:0:0:
324,288,38643,2,0,L|208:296,1,90,8|0,0:0|1:2,0:0:0:0:
164,348,39317,1,8,0:0:0:0:
76,328,39654,2,0,P|36:260|40:160,1,180,2|0,1:2|1:0,0:0:0:0:
100,96,40665,1,8,0:0:0:0:
180,136,41002,6,0,L|284:128,1,90,6|8,1:2|0:0,0:0:0:0:
324,56,41677,2,0,L|424:64,1,90,0|8,1:0|0:0,0:0:0:0:
468,136,42351,2,0,P|460:180|480:236,1,90,2|8,1:2|0:0,0:0:0:0:
452,312,43025,2,0,P|413:289|387:253,1,90,0|12,1:0|0:0,0:0:0:0:
336,180,43699,6,0,B|300:212|300:212|160:224,1,180,4|0,1:1|1:0,0:0:0:0:
116,150,44711,1,8,0:0:0:0:
30,178,45048,1,0,0:0:0:0:
30,268,45385,1,8,0:0:0:0:
116,296,45722,2,0,P|148:332|160:376,1,90,8|4,1:2|0:3,0:0:0:0:
200,356,46227,6,0,L|348:348,1,135,4|8,1:1|0:0,0:0:0:0:
372,268,47069,1,0,1:0:0:0:
460,260,47406,1,8,0:0:0:0:
372,268,47743,2,0,P|344:232|336:168,1,90,2|8,1:2|0:0,0:0:0:0:
412,148,48418,2,0,P|424:100|412:48,1,90,0|8,1:0|0:0,0:0:0:0:
336,100,49093,5,2,1:2:0:0:
264,48,49430,1,8,0:0:0:0:
184,84,49767,1,0,1:0:0:0:
108,36,50104,1,8,0:0:0:0:
40,96,50441,2,0,L|44:192,1,90,4|8,1:1|0:0,0:0:0:0:
120,232,51115,1,0,1:0:0:0:
196,276,51452,2,0,L|188:328,1,45,8|8,0:0|0:0,0:0:0:0:
224,348,51789,6,0,B|316:340|316:340|360:316,1,135,4|2,1:1|1:2,0:0:0:0:
428,272,52632,1,0,0:0:0:0:
372,200,52969,2,0,L|364:60,1,135,4|8,1:0|0:0,0:0:0:0:
284,20,53812,1,8,1:2:0:0:
280,108,54149,1,8,0:0:0:0:
200,64,54486,6,0,P|108:72|36:152,1,180,4|0,1:1|1:0,0:0:0:0:
92,208,55497,1,8,0:0:0:0:
28,272,55834,2,0,L|32:368,1,90,2|8,1:2|0:0,0:0:0:0:
116,336,56508,1,0,1:0:0:0:
204,364,56845,1,8,0:0:0:0:
292,344,57183,6,0,P|320:312|324:244,1,90,2|0,1:2|0:0,0:0:0:0:
420,272,57857,2,0,P|417:229|371:178,1,90,0|2,0:0|1:2,0:0:0:0:
328,124,58531,2,0,L|324:28,1,90,2|0,1:2|0:0,0:0:0:0:
236,56,59205,2,0,L|240:152,1,90,0|2,0:0|1:2,0:0:0:0:
280,224,59879,6,0,P|208:188|100:216,1,180,6|8,1:2|0:0,0:0:0:0:
56,276,60901,1,8,0:0:0:0:
113,206,61242,2,0,P|108:160|76:94,1,90,8|8,0:0|0:0,0:0:0:0:
196,364,62583,6,0,P|188:280|220:212,1,135,4|0,1:1|0:0,0:0:0:0:
232,200,63257,1,0,1:0:0:0:
320,180,63595,1,8,0:0:0:0:
392,236,63932,2,0,P|440:244|496:228,1,90,2|8,1:2|0:0,0:0:0:0:
436,156,64607,1,2,1:2:0:0:
476,76,64944,1,8,0:0:0:0:
408,20,65280,6,0,B|316:16|316:16|256:32,1,135,4|2,1:0|0:0,0:0:0:0:
228,104,66124,1,0,1:2:0:0:
156,48,66462,2,0,L|53:45,1,90,2|0,0:0|1:0,0:0:0:0:
20,40,66968,1,8,0:0:0:0:
48,128,67306,2,0,P|40:172|8:212,1,90,0|8,1:0|0:0,0:0:0:0:
88,256,67980,6,0,P|80:300|100:360,1,90,4|8,1:1|0:0,0:0:0:0:
168,296,68655,1,2,1:2:0:0:
248,340,68991,1,0,0:0:0:0:
328,300,69330,1,2,1:2:0:0:
416,296,69667,1,8,0:0:0:0:
440,208,70004,1,2,1:2:0:0:
348,208,70342,1,8,0:0:0:0:
264,236,70678,6,0,P|228:188|228:112,1,135,2|2,1:2|0:0,0:0:0:0:
292,52,71523,1,0,1:2:0:0:
208,28,71859,2,0,L|68:20,1,135,0|8,0:0|0:0,0:0:0:0:
32,100,72702,1,8,1:2:0:0:
84,176,73041,1,8,0:0:0:0:
48,256,73378,6,0,L|60:364,1,90,4|8,1:1|0:0,0:0:0:0:
148,352,74053,1,0,1:0:0:0:
220,296,74389,1,8,0:0:0:0:
308,316,74728,2,0,P|352:324|404:312,1,90,2|0,1:2|0:0,0:0:0:0:
352,236,75402,2,0,P|380:201|396:150,1,90,0|8,0:0|0:0,0:0:0:0:
304,160,76077,5,8,0:2:0:0:
276,76,76414,1,8,0:0:0:0:
192,108,76751,1,8,1:2:0:0:
144,32,77088,1,8,0:0:0:0:
56,40,77426,2,0,B|32:76|32:76|40:112|40:112|8:148|28:240,1,180,0|8,0:0|0:0,0:0:0:0:
52,292,78432,1,8,0:0:0:0:
108,224,78763,6,0,P|172:212|240:256,1,135,4|0,1:1|0:0,0:0:0:0:
240,288,79437,1,2,1:2:0:0:
312,340,79775,1,8,0:0:0:0:
400,328,80112,2,0,L|504:320,1,90,2|8,1:2|0:0,0:0:0:0:
508,232,80787,1,2,1:2:0:0:
444,168,81124,1,8,0:0:0:0:
472,84,81461,6,0,B|380:80|380:80|320:96,1,135,2|2,1:2|0:0,0:0:0:0:
288,168,82305,1,0,1:2:0:0:
200,148,82642,2,0,L|192:48,1,90,2|0,0:0|1:0,0:0:0:0:
188,12,83148,1,8,0:0:0:0:
100,40,83486,2,0,L|92:136,1,90,0|8,1:0|0:0,0:0:0:0:
16,176,84160,6,0,P|8:220|28:280,1,90,4|8,1:1|0:0,0:0:0:0:
88,320,84835,1,2,1:2:0:0:
164,272,85172,1,8,0:0:0:0:
240,320,85510,2,0,L|332:324,1,90,2|8,1:2|0:0,0:0:0:0:
372,244,86184,2,0,L|464:236,1,90,2|8,1:2|0:0,0:0:0:0:
424,156,86859,6,0,B|432:64|432:64|452:24,2,135,4|6|8,1:1|0:0|0:0,0:0:0:0:
340,128,88209,1,0,1:0:0:0:
296,140,88377,1,8,1:2:0:0:
252,152,88546,1,8,0:2:0:0:
196,80,88883,1,8,1:2:0:0:
112,116,89221,1,8,0:0:0:0:
56,44,89558,6,0,P|24:125|71:198,1,180,4|2,1:1|1:2,0:0:0:0:
156,232,90570,1,8,0:0:0:0:
212,160,90908,2,0,L|392:156,1,180,2|2,1:2|1:2,0:0:0:0:
480,168,91909,1,8,0:0:0:0:
499,255,92243,5,14,1:2:0:0:
420,299,92583,1,8,0:0:0:0:
354,240,92924,1,10,1:2:0:0:
268,268,93265,1,8,0:0:0:0:
260,356,93606,2,0,B|204:344|204:344|172:308|172:308|72:312|36:204,1,270,10|8,1:2|0:0,0:0:0:0:
108,160,94943,6,0,P|123:118|121:73,1,90,4|8,1:1|0:0,0:0:0:0:
100,36,95451,2,0,L|196:32,1,90,2|0,1:2|1:2,0:0:0:0:
216,116,96129,2,0,L|364:124,1,135,2|8,1:2|0:0,0:0:0:0:
424,68,96976,1,8,0:3:0:0:
492,128,97315,1,4,0:3:0:0:
424,188,97654,6,0,L|432:284,1,90,4|8,1:1|0:0,0:0:0:0:
340,276,98316,2,0,L|348:372,1,90,2|8,1:2|0:0,0:0:0:0:
260,340,98979,2,0,P|221:359|176:357,1,90,2|8,1:2|0:0,0:0:0:0:
200,268,99657,2,0,P|162:243|143:203,1,90,8|4,0:3|0:3,0:0:0:0:
84,136,100336,6,0,L|88:36,1,90,4|8,1:1|0:0,0:0:0:0:
176,32,101010,2,0,L|172:132,1,90,2|8,1:2|0:0,0:0:0:0:
256,160,101684,1,2,1:2:0:0:
336,116,102021,1,8,0:0:0:0:
408,168,102358,2,0,L|516:164,1,90,2|8,1:2|0:0,0:0:0:0:
500,256,103032,5,2,1:2:0:0:
412,260,103369,2,0,P|392:304|384:352,1,90,8|2,0:0|1:2,0:0:0:0:
296,352,104043,1,8,0:0:0:0:
256,272,104380,2,0,P|184:228|80:244,1,180,0|2,0:0|1:2,0:0:0:0:
28,300,105392,1,8,0:0:0:0:
92,237,105729,6,0,L|96:144,1,90,6|8,1:2|0:0,0:0:0:0:
52,68,106403,2,0,P|96:60|152:76,1,90,0|8,0:0|0:0,0:0:0:0:
184,148,107077,2,0,P|228:156|284:136,1,90,2|8,1:2|0:0,0:0:0:0:
268,56,107751,2,0,L|372:44,1,90,2|8,1:2|0:0,0:0:0:0:
440,76,108425,6,0,B|408:120|408:120|396:252,1,180,4|2,1:1|1:2,0:0:0:0:
470,296,109436,1,0,0:0:0:0:
442,382,109773,1,0,0:0:0:0:
352,382,110110,1,8,0:0:0:0:
324,296,110447,2,0,P|288:264|244:252,1,90,0|8,0:0|0:0,0:0:0:0:
216,284,110953,6,0,P|152:312|68:296,1,135,6|8,1:2|0:0,0:0:0:0:
28,240,111795,1,0,0:0:0:0:
80,168,112132,1,0,0:0:0:0:
12,108,112469,2,0,L|4:12,1,90,2|8,1:2|0:0,0:0:0:0:
92,44,113144,2,0,L|200:32,1,90,0|8,1:0|0:0,0:0:0:0:
224,112,113818,6,0,P|312:121|396:88,1,180,2|0,1:2|1:0,0:0:0:0:
436,8,114830,1,8,0:0:0:0:
488,84,115167,2,0,L|492:180,1,90,2|8,1:2|0:0,0:0:0:0:
420,228,115841,1,8,1:2:0:0:
456,312,116178,2,0,L|396:336,1,45,8|0,0:0|0:0,0:0:0:0:
376,308,116515,6,0,B|284:316|284:316|240:340,1,135,4|4,1:1|1:2,0:0:0:0:
160,316,117358,1,0,1:2:0:0:
96,380,117695,2,0,P|72:324|104:244,1,135,4|8,1:2|0:0,0:0:0:0:
180,228,118538,1,8,1:2:0:0:
116,164,118875,1,8,0:0:0:0:
128,76,119212,6,0,P|208:36|312:60,1,180,4|0,1:0|1:0,0:0:0:0:
340,128,120222,1,0,0:0:0:0:
412,72,120559,2,0,L|508:68,1,90,0|0,0:0|0:0,0:0:0:0:
484,156,121233,1,0,1:0:0:0:
508,244,121570,1,0,0:0:0:0:
468,324,121908,6,0,B|432:336|432:336|312:332,1,135,10|2,1:2|1:2,0:0:0:0:
256,224,122919,2,0,B|292:212|292:212|412:216,1,135,10|0,1:2|1:0,0:0:0:0:
444,92,123931,1,10,1:2:0:0:
444,92,124100,1,8,1:2:0:0:
308,52,124605,6,0,P|231:96|148:92,1,135,4|0,1:1|0:0,0:0:0:0:
142,89,125279,1,2,1:2:0:0:
76,28,125616,1,8,0:0:0:0:
8,88,125953,2,0,L|16:196,1,90,2|8,1:2|0:0,0:0:0:0:
88,232,126627,1,0,1:2:0:0:
64,320,126964,1,8,0:0:0:0:
152,300,127301,6,0,B|244:296|244:296|304:312,1,135,2|2,1:2|0:0,0:0:0:0:
356,364,128144,1,0,0:0:0:0:
440,328,128481,2,0,P|472:268|472:212,1,90,2|0,0:0|1:0,0:0:0:0:
468,204,128987,1,8,0:0:0:0:
416,128,129324,2,0,L|316:112,1,90,0|8,1:0|0:0,0:0:0:0:
264,48,129998,6,0,P|216:40|164:56,1,90,4|8,1:1|0:0,0:0:0:0:
120,120,130673,1,2,1:2:0:0:
30,125,131010,1,8,0:0:0:0:
8,211,131347,1,2,1:2:0:0:
82,261,131684,1,8,0:0:0:0:
152,204,132021,1,2,1:2:0:0:
236,236,132358,1,8,0:0:0:0:
320,204,132695,6,0,P|380:252|380:340,1,135,2|2,1:2|0:0,0:0:0:0:
464,356,133537,1,0,0:0:0:0:
508,280,133874,2,0,L|520:144,1,135,0|0,0:0|0:0,0:0:0:0:
428,144,134717,1,8,1:2:0:0:
472,64,135054,1,8,0:0:0:0:
384,64,135391,6,0,P|336:60|284:44,1,90,4|8,1:1|0:0,0:0:0:0:
212,84,136066,1,2,1:2:0:0:
284,140,136403,1,8,0:0:0:0:
200,176,136740,2,0,P|156:168|104:180,1,90,2|8,1:2|0:0,0:0:0:0:
64,100,137414,2,0,P|36:135|20:186,1,90,0|8,0:0|0:0,0:0:0:0:
64,256,138088,5,8,1:2:0:0:
20,332,138425,1,8,0:0:0:0:
99,373,138762,1,8,1:2:0:0:
147,295,139099,1,8,0:0:0:0:
224,340,139436,2,0,B|268:308|328:324|328:324|376:320|408:260,1,180,0|4,0:0|0:3,0:0:0:0:
428,208,140448,1,8,0:0:0:0:
340,216,140785,6,0,P|368:144|448:120,1,135,4|0,1:1|0:0,0:0:0:0:
460,112,141459,1,2,1:2:0:0:
420,32,141796,1,0,0:0:0:0:
336,60,142133,2,0,P|284:64|244:56,1,90,2|8,1:2|0:0,0:0:0:0:
164,20,142807,1,2,1:2:0:0:
92,72,143144,1,8,0:0:0:0:
4,44,143481,6,0,B|0:136|0:136|16:196,1,135,2|2,1:2|0:0,0:0:0:0:
92,212,144324,1,0,0:0:0:0:
84,300,144661,2,0,L|204:288,1,90,2|0,0:0|1:0,0:0:0:0:
220,284,145167,1,8,0:0:0:0:
284,352,145504,2,0,L|380:352,1,90,2|8,1:2|0:0,0:0:0:0:
460,320,146178,6,0,P|484:284|476:212,1,90,6|8,1:2|0:0,0:0:0:0:
420,176,146851,1,2,1:2:0:0:
340,216,147188,1,0,0:0:0:0:
260,172,147527,2,0,L|252:76,1,90,2|8,1:2|0:0,0:0:0:0:
164,72,148200,2,0,L|172:172,1,90,2|8,1:2|0:0,0:0:0:0:
132,240,148875,6,0,B|40:248|40:248|0:268,2,135,12|14|8,1:2|0:0|0:0,0:0:0:0:
200,300,150223,1,2,1:2:0:0:
244,304,150392,1,8,1:2:0:0:
288,308,150560,1,8,0:0:0:0:
352,244,150897,1,8,1:3:0:0:
432,284,151234,1,8,0:0:0:0:
488,212,151571,6,0,P|500:124|464:28,1,180,4|2,1:1|1:2,0:0:0:0:
384,12,152582,1,8,0:0:0:0:
328,84,152919,2,0,P|240:108|148:88,1,180,2|2,1:2|1:2,0:0:0:0:
88,32,153931,1,8,0:0:0:0:
68,120,154268,5,6,1:2:0:0:
132,180,154605,1,8,0:0:0:0:
48,212,154942,1,2,1:2:0:0:
116,272,155279,1,8,0:0:0:0:
204,248,155616,2,0,B|256:248|288:216|288:216|352:280|464:232,1,270,10|8,1:2|0:3,0:0:0:0:
424,152,156964,6,0,B|436:64|436:64|472:20,2,135,12|10|8,1:2|1:2|0:0,0:0:0:0:
460,180,158144,1,6,1:2:0:0:
480,268,158481,2,0,B|384:280|384:280|332:264,1,135,0|8,0:0|0:3,0:0:0:0:
296,196,159324,1,4,0:3:0:0:
208,208,159661,6,0,P|204:292|240:352,2,135,12|10|8,1:2|1:2|0:0,0:0:0:0:
208,164,160841,1,4,1:0:0:0:
296,144,161178,2,0,P|320:92|292:12,1,135,0|8,1:0|0:0,0:0:0:0:
232,80,162021,1,8,0:0:0:0:
144,104,162358,6,0,L|-16:96,2,135,12|10|8,1:2|1:2|0:0,0:0:0:0:
168,144,163538,1,8,1:2:0:0:
88,188,163875,2,0,P|48:256|72:324,1,135,8|8,0:0|0:3,0:0:0:0:
144,332,164717,1,4,0:3:0:0:
220,284,165054,6,0,L|332:280,1,90,4|8,1:1|0:0,0:0:0:0:
384,332,165728,2,0,L|480:328,1,90,8|8,1:2|0:0,0:0:0:0:
460,240,166403,2,0,L|468:140,1,90,12|8,1:2|0:0,0:0:0:0:
376,152,167077,2,0,L|384:12,1,135,8|4,0:3|1:2,0:0:0:0:
256,192,167751,12,0,170279,0:0:0:0:
348,80,177864,6,0,L|336:228,1,135,0|0,0:0|0:0,0:0:0:0:
360,252,178549,6,0,P|284:284|164:260,1,180,2|8,0:0|0:0,0:0:0:0:
61,316,179728,2,0,P|97:236|72:91,1,225,2|8,1:2|0:0,0:0:0:0:
232,12,181245,6,0,P|212:116|244:196,1,180,2|8,0:0|0:0,0:0:0:0:
372,172,182425,2,0,P|288:200|240:320,1,225,2|8,1:2|0:0,0:0:0:0:
376,308,183773,5,0,0:0:0:0:
432,92,184616,1,8,0:0:0:0:
300,120,185122,1,2,1:2:0:0:
472,264,185964,1,8,0:0:0:0:
304,332,186638,6,0,P|212:300|168:212,1,180,2|8,0:0|0:0,0:0:0:0:
52,296,187818,2,0,P|132:212|112:72,1,225,2|10,1:2|1:2,0:0:0:0:
68,44,188998,1,8,0:0:0:0:
131,108,189335,6,0,L|232:104,1,90,4|8,1:1|0:0,0:0:0:0:
288,44,190009,2,0,L|396:48,1,90,2|8,1:2|0:0,0:0:0:0:
452,100,190683,2,0,P|464:144|460:208,1,90,2|8,1:2|0:0,0:0:0:0:
380,224,191357,2,0,P|368:180|372:116,1,90,0|8,1:2|0:0,0:0:0:0:
288,96,192031,6,0,L|180:104,1,90,2|8,1:2|0:0,0:0:0:0:
124,52,192705,2,0,L|20:64,1,90,0|8,0:0|0:0,0:0:0:0:
88,136,193380,2,0,P|80:228|20:312,1,180,0|8,0:0|1:2,0:0:0:0:
104,356,194391,1,8,0:0:0:0:
188,320,194728,6,0,B|308:316|308:316|384:344,2,180,2|8|2,1:2|0:2|1:2,0:0:0:0:
124,256,196413,2,0,B|68:252|68:252|28:228,2,90,2|8|2,1:2|0:0|1:2,0:0:0:0:
256,192,197425,12,0,200122,0:0:0:0:
256,20,201470,6,0,L|264:184,1,135,4|0,1:1|0:0,0:0:0:0:
264,200,202144,1,2,1:2:0:0:
180,240,202481,1,0,0:0:0:0:
136,160,202818,2,0,P|88:152|32:168,1,90,2|8,1:2|0:0,0:0:0:0:
92,240,203492,1,2,1:2:0:0:
40,312,203829,1,8,0:0:0:0:
128,320,204166,6,0,B|280:332,1,135,2|2,1:2|0:0,0:0:0:0:
340,280,205009,1,0,0:0:0:0:
412,332,205346,2,0,B|480:320|480:320|512:276,1,90,2|0,0:0|0:0,0:0:0:0:
504,260,205852,1,8,0:0:0:0:
452,188,206189,2,0,L|444:96,1,90,0|8,1:0|0:0,0:0:0:0:
372,44,206863,6,0,P|324:36|272:52,1,90,4|8,1:1|0:0,0:0:0:0:
232,116,207537,1,2,1:2:0:0:
152,76,207874,1,8,0:0:0:0:
96,144,208211,1,2,1:2:0:0:
8,152,208548,1,8,0:0:0:0:
36,240,208886,1,2,1:2:0:0:
124,232,209223,1,8,0:0:0:0:
160,312,209559,6,0,P|226:310|280:349,1,135,2|2,1:2|0:0,0:0:0:0:
352,296,210402,1,0,1:0:0:0:
415,360,210739,2,0,P|443:299|424:236,1,135,0|8,0:0|0:0,0:0:0:0:
340,204,211582,1,10,1:2:0:0:
412,148,211919,1,8,0:0:0:0:
388,60,212256,6,0,B|348:36|348:36|284:36,1,90,4|8,1:1|0:0,0:0:0:0:
216,40,212931,1,0,1:0:0:0:
156,108,213268,1,8,0:0:0:0:
76,68,213605,2,0,P|68:112|80:164,1,90,2|8,1:2|0:0,0:0:0:0:
120,236,214279,2,0,L|108:344,1,90,0|8,0:0|0:0,0:0:0:0:
196,352,214953,5,8,1:2:0:0:
252,280,215290,1,8,0:0:0:0:
336,316,215627,1,8,1:2:0:0:
396,248,215964,1,8,0:0:0:0:
456,316,216301,2,0,B|500:272|488:208|456:180|456:180|448:128,1,180,8|4,1:2|3:3,0:0:0:0:
444,64,217313,1,0,1:2:0:0:
368,112,217650,6,0,P|284:120|220:92,1,135,12|0,1:2|0:0,0:0:0:0:
232,60,218324,1,8,1:2:0:0:
160,4,218661,1,8,0:0:0:0:
76,40,218998,2,0,P|60:100|68:152,1,90,8|8,1:2|0:0,0:0:0:0:
140,176,219672,1,8,1:2:0:0:
84,248,220009,1,8,0:0:0:0:
116,332,220346,6,0,B|157:343|157:343|249:339,1,135,8|0,1:2|0:0,0:0:0:0:
312,276,221189,1,0,1:0:0:0:
376,336,221526,2,0,L|496:332,1,90,0|0,1:0|1:0,0:0:0:0:
512,332,222032,1,8,0:0:0:0:
476,248,222368,2,0,L|484:140,1,90,8|8,1:2|0:0,0:0:0:0:
404,108,223043,6,0,P|392:156|352:192,1,90,12|8,1:2|0:0,0:0:0:0:
276,188,223717,1,8,1:2:0:0:
232,112,224054,1,8,0:0:0:0:
148,144,224391,2,0,L|52:136,1,90,8|8,1:2|0:0,0:0:0:0:
20,220,225066,2,0,L|132:232,1,90,8|8,1:2|0:0,0:0:0:0:
140,312,225740,5,12,1:2:0:0:
228,296,226077,1,8,0:0:0:0:
228,296,226245,1,6,0:0:0:0:
316,276,226582,1,0,0:0:0:0:
316,276,226751,1,8,0:0:0:0:
384,336,227088,1,12,1:2:0:0:
468,300,227425,1,8,0:0:0:0:
472,212,227762,1,8,1:2:0:0:
400,160,228099,2,0,L|384:96,1,45,8|8,0:0|0:0,0:0:0:0:
432,96,228436,6,0,P|460:60|460:4,1,90,12|8,1:2|0:0,0:0:0:0:
372,28,229110,1,8,1:2:0:0:
280,40,229448,1,8,0:0:0:0:
259,126,229785,2,0,L|238:214,1,90,8|8,1:2|0:0,0:0:0:0:
276,296,230459,1,8,1:2:0:0:
208,356,230796,1,8,0:0:0:0:
130,311,231133,5,12,1:2:0:0:
149,223,231470,1,8,0:0:0:0:
238,214,231807,1,8,1:2:0:0:
276,296,232144,1,8,0:0:0:0:
364,292,232481,2,0,B|376:244|376:244|368:200,1,90,10|0,1:2|0:0,0:0:0:0:
312,132,233155,1,8,1:2:0:0:
360,56,233492,1,8,0:0:0:0:
469,168,235178,6,0,L|464:312,2,135,12|10|8,1:2|1:2|0:0,0:0:0:0:
396,56,236688,2,0,B|328:60|328:60|300:84|300:84|244:44|168:88,1,225,4|8,0:3|0:3,0:0:0:0:
240,152,237850,6,0,P|224:216|152:256,1,135,12|12,1:2|1:2,0:0:0:0:
112,132,238857,2,0,P|68:116|16:132,1,90,8|0,0:0|1:0,0:0:0:0:
3,163,239369,2,0,L|-1:303,1,135,8|0,0:3|1:0,0:0:0:0:
90,315,240234,1,8,0:3:0:0:
74,226,240571,6,0,L|70:362,2,135,12|8|8,1:2|1:2|0:0,0:0:0:0:
188,156,242087,2,0,B|192:228|192:228|224:268|224:268|236:380,1,225,0|8,1:2|0:0,0:0:0:0:
316,328,243267,6,0,L|428:324,1,90,4|8,1:1|0:0,0:0:0:0:
472,264,243941,2,0,L|484:168,1,90,0|8,1:0|0:0,0:0:0:0:
440,92,244615,1,4,1:0:0:0:
360,132,244953,1,8,0:0:0:0:
288,76,245290,1,8,1:2:0:0:
208,116,245627,1,12,0:3:0:0:
148,48,245964,6,0,P|116:108|152:192,1,135,12|10,1:2|1:2,0:0:0:0:
212,212,246806,1,0,1:0:0:0:
280,156,247144,2,0,B|300:192|300:192|304:300,1,135,0|8,1:2|0:3,0:0:0:0:
232,340,247986,1,8,1:2:0:0:
144,316,248323,1,8,0:3:0:0:
56,340,248660,6,0,L|68:200,1,135,12|10,1:2|1:2,0:0:0:0:
12,136,249503,1,8,0:0:0:0:
76,76,249840,2,0,P|144:80|220:40,1,135,4|8,1:2|0:0,0:0:0:0:
284,100,250683,1,0,1:2:0:0:
368,64,251020,1,8,0:0:0:0:
448,104,251357,6,0,P|476:160|468:256,1,135,12|10,1:2|1:2,0:0:0:0:
412,296,252200,1,0,1:0:0:0:
332,256,252537,2,0,L|176:264,1,135,2|8,1:2|0:3,0:0:0:0:
124,316,253379,1,4,1:2:0:0:
64,248,253717,1,4,0:3:0:0:
136,196,254053,6,0,L|128:88,1,90,4|8,1:0|0:0,0:0:0:0:
212,72,254728,2,0,L|220:180,1,90,2|8,1:2|0:0,0:0:0:0:
304,184,255402,2,0,L|296:76,1,90,2|8,1:2|0:0,0:0:0:0:
376,56,256076,2,0,L|384:164,1,90,8|12,1:2|0:3,0:0:0:0:
468,180,256750,6,0,P|480:272|408:340,1,180,12|2,1:3|1:2,0:0:0:0:
344,300,257761,1,8,0:0:0:0:
268,348,258098,2,0,P|224:356|172:344,1,90,4|8,1:0|1:2,0:0:0:0:
224,268,258773,2,0,P|181:252|142:216,1,90,2|8,1:2|1:2,0:0:0:0:
68,268,259447,6,0,P|116:200|100:88,1,180,4|0,1:0|0:0,0:0:0:0:
44,48,260458,1,8,0:0:0:0:
110,106,260795,2,0,L|216:96,1,90,4|8,1:0|0:0,0:0:0:0:
268,36,261469,2,0,L|364:44,1,90,8|8,1:2|0:0,0:0:0:0:
388,128,262143,6,0,B|480:120|480:120|524:88,2,135,4|2|8,1:0|0:0|0:0,0:0:0:0:
284,212,263650,2,0,P|392:240|384:356,1,225,4|8,0:3|0:3,0:0:0:0:
320,296,264841,5,4,1:0:0:0:
236,328,265174,1,8,0:0:0:0:
156,284,265507,1,8,1:2:0:0:
76,320,265841,1,8,0:0:0:0:
156,284,266174,2,0,L|164:180,1,90,12|8,1:2|0:0,0:0:0:0:
84,152,266848,2,0,B|76:64|76:64|92:16,1,135,10|8,1:2|0:0,0:0:0:0:
