osu file format v14

[General]
AudioFilename: audio.mp3
AudioLeadIn: 0
PreviewTime: 200037
Countdown: 0
SampleSet: Soft
StackLeniency: 0.7
Mode: 0
LetterboxInBreaks: 0
WidescreenStoryboard: 1

[Editor]
DistanceSpacing: 1.6
BeatDivisor: 4
GridSize: 32
TimelineZoom: 1.5

[Metadata]
Title:Hi FiVE!
TitleUnicode:Hi FiVE!
Artist:LiSA
ArtistUnicode:LiSA
Creator:vick
Version:Insane
Source:
Tags:織部里沙 risa oribe LiSA BEST -Way- deca kibbleru narcissu totoizn japanese rock
BeatmapID:1026061
BeatmapSetID:480669

[Difficulty]
HPDrainRate:6
CircleSize:3.8
OverallDifficulty:7
ApproachRate:9
SliderMultiplier:1.6
SliderTickRate:1

[Events]
//Background and Video events
0,0,"thanks lasse.jpg",0,0
//Break Periods
2,167920,177864
//Storyboard Layer 0 (Background)
//Storyboard Layer 1 (Fail)
//Storyboard Layer 2 (Pass)
//Storyboard Layer 3 (Foreground)
//Storyboard Layer 4 (Overlay)
//Storyboard Sound Samples

[TimingPoints]
11356,337.078651685393,4,2,1,100,1,0
14053,-133.333333333333,4,2,1,60,0,0
16749,-100,4,2,1,60,0,0
24839,-133.333333333333,4,2,1,60,0,0
35120,306.122448979592,4,2,1,60,1,0
35273,337.078651685393,4,2,1,60,1,0
35610,337.078651685393,4,2,1,60,1,0
35610,-117.647058823529,4,2,1,60,0,0
43699,-100,4,2,1,60,0,0
59879,340.909090909091,4,2,1,60,1,0
61583,337.078651685393,4,2,1,60,1,0
62257,326.086956521739,4,2,1,60,1,0
62583,337.362946303064,4,2,1,75,1,1
62583,-100,4,2,1,75,0,1
77426,-100,4,2,1,60,0,0
78101,331.491712707182,4,2,1,60,1,0
78763,337.362946303064,4,2,1,75,1,1
78763,-100,4,2,1,75,0,1
90908,333.889816360601,4,2,1,60,1,1
90908,-100,4,2,1,60,0,1
92243,340.909090909091,4,2,1,60,1,1
92243,-90.9090909090909,4,2,1,60,0,1
92924,-83.3333333333333,4,2,1,60,0,1
93606,334.261838440111,4,2,1,60,1,1
93606,-100,4,2,1,60,0,1
94943,338.983050847458,4,2,1,60,1,0
97654,331.491712707182,4,2,1,60,1,0
98979,339.462517680339,4,2,1,60,1,0
100336,337.078651685393,4,2,1,60,1,0
100336,-100,4,2,1,60,0,0
122414,-200,4,2,1,60,0,0
124605,-100,4,2,1,75,0,1
139437,-100,4,2,1,60,0,0
140785,-100,4,2,1,75,0,1
154268,-90.9090909090909,4,2,1,75,0,1
154943,-83.3333333333333,4,2,1,75,0,1
155617,-100,4,2,1,75,0,1
156965,-100,4,2,1,60,0,0
167583,-100,4,2,1,60,0,0
177864,342.857142857143,4,2,1,60,1,0
178549,337.078651685393,4,2,1,60,1,0
178549,-133.333333333333,4,2,1,60,0,0
188661,-100,4,2,1,60,0,0
194728,-100,4,2,1,60,0,0
201470,-100,4,2,1,60,0,1
201471,-100,4,2,1,80,0,1
216301,-100,4,2,1,70,0,0
217650,-100,4,2,1,80,0,1
231133,-90.9090909090909,4,2,1,80,0,1
231808,-83.3333333333333,4,2,1,80,0,1
232482,-100,4,2,1,80,0,1
233661,-100,4,2,1,70,0,0
236357,331.858407079646,4,2,1,70,1,0
238348,339.943342776204,4,2,1,70,1,0
239197,345.821325648415,4,2,1,70,1,0
240234,337.078651685393,4,2,1,70,1,0
240571,337.078651685393,4,2,1,70,1,0
263650,333.333333333333,4,2,1,70,1,0
263650,-100,4,2,1,70,0,0
264841,333.333333333333,4,2,1,70,1,0
266174,337.078651685393,4,2,1,70,1,0
272915,-100,4,2,1,5,0,0

[Colours]
Combo1 : 85,255,170
Combo2 : 255,128,128
Combo3 : 176,230,255

[HitObjects]
114,52,14053,6,0,P|112:93|110:131,1,60.0000022888184,2|0,1:2|0:0,0:0:0:0:
159,199,14390,1,2,1:2:0:0:
159,199,14558,2,0,P|208:206|265:158,1,120.000004577637,2|0,0:0|0:0,0:0:0:0:
290,86,15063,1,2,1:2:0:0:
378,132,15233,6,0,P|370:184|357:259,1,120.000004577637,2|0,0:0|0:0,0:0:0:0:
293,304,15739,1,2,1:2:0:0:
334,376,15907,1,2,0:0:0:0:
163,280,16076,5,2,1:2:0:0:
467,301,16413,1,10,0:3:0:0:
347,49,16749,6,0,P|351:96|355:151,1,80,6|0,1:2|1:0,0:0:0:0:
398,241,17087,1,8,0:0:0:0:
220,143,17254,2,0,P|145:139|76:197,1,160,2|0,1:2|1:2,0:0:0:0:
81,344,17761,1,8,0:0:0:0:
202,305,17929,6,0,B|259:294|259:294|318:309|318:309|392:293,1,160,2|0,1:2|1:1,0:0:0:0:
476,182,18434,1,8,0:0:0:0:
315,100,18603,1,0,1:0:0:0:
345,219,18771,1,8,0:3:0:0:
409,50,18941,1,0,1:0:0:0:
217,114,19108,2,0,P|174:111|124:107,1,80,8|0,0:3|1:2,0:0:0:0:
12,254,19446,6,0,P|73:224|171:247,1,160,4|8,1:1|0:0,0:0:0:0:
234,335,19952,1,0,1:0:0:0:
315,227,20120,2,0,P|308:159|296:54,1,160,2|8,1:2|0:0,0:0:0:0:
406,15,20625,1,0,1:0:0:0:
499,158,20795,6,0,P|454:153|406:146,2,80,2|0|8,1:2|1:0|0:0,0:0:0:0:
315,227,21300,2,0,P|275:216|225:217,1,80,2|0,1:2|0:0,0:0:0:0:
366,355,21636,2,0,P|405:354|444:343,1,80,2|8,1:2|0:0,0:0:0:0:
501,249,21974,1,2,1:2:0:0:
256,192,22143,12,2,24671,0:0:0:0:
501,249,24840,6,0,P|496:208|485:125,1,120.000004577637,6|0,0:0|0:0,0:0:0:0:
391,69,25345,2,0,L|394:33,2,30.0000011444092,2|0|0,0:0|3:0|0:0,0:0:0:0:
338,150,25681,1,0,0:0:0:0:
256,83,25851,2,0,P|226:79|186:73,1,60.0000022888184,2|0,0:0|0:0,0:0:0:0:
142,94,26104,1,0,3:0:0:0:
142,94,26188,6,0,P|107:146|121:211,1,120.000004577637,2|0,0:0|0:0,0:0:0:0:
182,276,26693,2,0,L|179:309,2,30.0000011444092,2|0|0,0:0|3:0|0:0,0:0:0:0:
281,256,27031,2,0,L|276:322,2,60.0000022888184,0|0|0,0:0|0:0|0:0,0:0:0:0:
353,183,27535,6,0,P|345:138|334:48,1,120.000004577637,2|0,0:0|0:0,0:0:0:0:
235,43,28042,2,0,L|240:11,2,30.0000011444092,0|0|0,0:0|3:0|0:0,0:0:0:0:
148,97,28379,2,0,P|153:137|158:175,1,60.0000022888184,2|0,0:0|0:0,0:0:0:0:
84,230,28716,1,0,0:0:0:0:
84,230,28799,1,0,3:0:0:0:
84,230,28885,6,0,P|79:270|74:308,1,60.0000022888184,2|0,0:0|0:0,0:0:0:0:
168,371,29221,2,0,P|171:341|175:311,1,60.0000022888184,2|0,0:0|0:0,0:0:0:0:
248,226,29559,2,0,P|248:203|246:173,2,30.0000011444092,2|0|0,0:0|3:0|0:0,0:0:0:0:
313,305,29896,1,2,0:0:0:0:
313,305,30063,1,2,0:0:0:0:
380,228,30233,6,0,P|448:214|505:200,1,120.000004577637,2|0,0:0|0:0,0:0:0:0:
405,109,30739,1,0,0:0:0:0:
405,109,30823,1,0,3:0:0:0:
405,109,30907,2,0,P|339:112|284:74,1,120.000004577637,2|0,0:0|0:0,0:0:0:0:
183,30,31412,6,0,P|188:84|195:162,1,120.000004577637,2|0,0:0|0:0,0:0:0:0:
104,199,31917,1,2,0:0:0:0:
153,287,32087,2,0,L|149:322,2,30.0000011444092,0|0|0,0:0|3:0|0:0,0:0:0:0:
251,221,32424,1,2,0:0:0:0:
193,149,32591,1,2,0:0:0:0:
260,86,32761,6,0,P|323:81|390:75,1,120.000004577637,2|0,0:0|0:0,0:0:0:0:
490,182,33267,2,0,P|459:179|411:176,1,60.0000022888184,2|0,0:0|0:0,0:0:0:0:
388,207,33518,1,0,3:0:0:0:
388,207,33604,2,0,P|358:209|328:212,1,60.0000022888184,2|0,0:0|0:0,0:0:0:0:
221,261,33941,1,2,0:0:0:0:
150,152,34108,1,2,0:0:0:0:
256,192,34278,12,8,35273,0:3:0:0:
150,152,35610,6,0,P|157:217|162:295,1,136.000002593994,6|8,1:2|0:0,0:0:0:0:
218,60,36115,1,2,0:2:0:0:
218,60,36199,1,0,1:0:0:0:
218,60,36284,2,0,P|257:55|293:50,1,68.0000012969971,0|0,1:2|0:0,0:0:0:0:
391,118,36621,1,8,0:0:0:0:
403,9,36789,1,0,0:0:0:0:
300,155,36958,6,0,P|306:192|312:233,1,68.0000012969971,2|0,1:2|1:0,0:0:0:0:
301,341,37295,1,8,0:0:0:0:
407,254,37463,1,2,0:0:0:0:
407,254,37548,1,0,1:0:0:0:
407,254,37632,1,0,1:2:0:0:
296,370,37801,1,0,1:0:0:0:
197,232,37969,2,0,P|164:234|113:238,1,68.0000012969971,8|0,0:0|0:0,0:0:0:0:
3,118,38306,6,0,P|46:125|80:118,1,68.0000012969971,2|0,1:2|1:0,0:0:0:0:
150,47,38643,2,0,P|189:45|225:46,1,68.0000012969971,8|0,0:0|0:0,0:0:0:0:
251,78,38897,1,0,1:0:0:0:
251,78,38981,2,0,P|248:114|245:154,1,68.0000012969971,0|0,1:2|1:0,0:0:0:0:
347,259,39318,1,8,0:0:0:0:
353,142,39487,1,0,0:0:0:0:
233,283,39654,6,0,P|188:279|142:274,1,68.0000012969971,2|0,1:2|1:0,0:0:0:0:
9,183,39992,2,0,P|45:183|84:181,1,68.0000012969971,8|0,0:0|0:0,0:0:0:0:
76,181,40244,1,0,1:0:0:0:
76,181,40329,1,0,1:0:0:0:
217,144,40497,1,0,1:0:0:0:
193,343,40666,1,8,0:0:0:0:
141,244,40835,1,0,0:0:0:0:
330,281,41003,6,0,P|290:276|251:272,1,68.0000012969971,6|0,1:2|1:0,0:0:0:0:
420,225,41340,2,0,P|424:187|428:148,1,68.0000012969971,8|2,0:0|0:0,0:0:0:0:
434,109,41594,1,0,1:0:0:0:
434,109,41678,1,0,1:0:0:0:
312,8,41846,1,0,0:0:0:0:
240,91,42014,2,0,P|247:130|255:170,1,68.0000012969971,8|0,0:0|0:0,0:0:0:0:
226,287,42352,5,2,1:2:0:0:
355,207,42521,1,0,1:0:0:0:
197,291,42688,1,8,0:0:0:0:
309,355,42857,1,2,0:0:0:0:
309,355,42941,1,0,1:0:0:0:
309,355,43025,2,0,P|342:352|376:350,1,68.0000012969971,0|0,1:0|1:0,0:0:0:0:
483,260,43362,2,0,P|431:272|383:250,1,102.000001945496,12|0,0:0|0:0,0:0:0:0:
355,207,43699,6,0,P|359:164|363:119,1,80,4|0,1:1|1:0,0:0:0:0:
289,16,44036,1,8,0:0:0:0:
212,143,44205,1,2,0:0:0:0:
63,62,44374,2,0,P|111:58|145:54,1,80,0|0,1:0|1:0,0:0:0:0:
9,159,44711,1,8,0:0:0:0:
111,253,44879,6,0,P|198:243|289:232,1,160,2|0,1:2|1:0,0:0:0:0:
394,120,45385,1,8,0:0:0:0:
338,334,45553,1,2,1:2:0:0:
338,334,45638,1,8,0:0:0:0:
338,334,45722,1,8,1:2:0:0:
345,210,45890,1,8,0:3:0:0:
446,274,46059,1,4,0:3:0:0:
244,268,46227,6,0,B|192:263|192:263|142:282|142:282|82:274,1,160,4|0,1:1|1:0,0:0:0:0:
12,126,46733,1,8,0:0:0:0:
134,183,46902,1,2,0:0:0:0:
134,183,46986,1,8,0:0:0:0:
134,183,47070,1,0,1:0:0:0:
116,25,47239,1,0,1:0:0:0:
286,106,47407,2,0,P|247:102|190:96,1,80,8|0,0:0|0:0,0:0:0:0:
357,27,47744,6,0,P|396:23|444:18,1,80,2|0,1:2|1:0,0:0:0:0:
512,151,48082,2,0,P|473:147|422:142,1,80,8|0,0:0|0:0,0:0:0:0:
386,175,48334,1,8,0:0:0:0:
386,175,48418,2,0,P|375:218|389:267,1,80,0|0,1:0|1:0,0:0:0:0:
275,349,48757,2,0,P|285:310|274:269,1,80,8|0,0:0|0:0,0:0:0:0:
167,198,49094,6,0,P|126:201|80:204,1,80,2|0,1:2|1:0,0:0:0:0:
235,106,49431,1,8,0:0:0:0:
275,272,49598,1,0,0:0:0:0:
275,272,49684,1,8,0:0:0:0:
275,272,49768,2,0,P|323:269|358:266,1,80,0|0,1:0|1:0,0:0:0:0:
490,151,50105,2,0,P|446:157|411:147,1,80,8|0,0:0|0:0,0:0:0:0:
285,16,50441,6,0,P|296:99|306:174,1,160,4|8,1:1|0:0,0:0:0:0:
160,253,50947,2,0,P|167:209|173:171,1,80,0|0,0:0|1:0,0:0:0:0:
54,298,51285,1,8,0:0:0:0:
131,378,51452,1,8,0:0:0:0:
236,338,51622,1,8,0:0:0:0:
250,227,51789,6,0,P|234:144|220:68,1,160,4|8,1:1|0:0,0:0:0:0:
324,26,52296,2,0,P|397:69|477:43,1,160,2|0,1:2|1:2,0:0:0:0:
451,209,52801,1,8,0:0:0:0:
322,171,52969,6,0,B|242:145|241:217|148:170,1,160,4|0,1:0|1:0,0:0:0:0:
29,135,53475,1,8,0:0:0:0:
111,288,53643,1,2,1:2:0:0:
198,84,53812,2,0,P|191:40|183:1,1,80,8|8,1:2|0:0,0:0:0:0:
328,117,54149,1,8,0:0:0:0:
325,144,54233,1,8,0:0:0:0:
322,171,54317,1,8,0:0:0:0:
319,199,54402,1,8,0:0:0:0:
317,226,54487,6,0,P|325:285|330:329,1,80,4|0,1:1|1:0,0:0:0:0:
237,380,54823,1,8,0:0:0:0:
120,274,54993,1,2,0:0:0:0:
120,274,55077,1,8,0:0:0:0:
120,274,55160,2,0,P|126:207|128:175,1,80,0|0,1:0|0:0,0:0:0:0:
99,71,55498,1,8,0:0:0:0:
30,172,55667,1,0,0:0:0:0:
207,178,55835,6,0,P|287:165|367:150,1,160,2|8,1:2|0:0,0:0:0:0:
489,252,56340,1,2,0:0:0:0:
489,252,56425,1,8,0:0:0:0:
489,252,56509,2,0,P|445:248|398:245,1,80,0|0,1:0|1:2,0:0:0:0:
273,345,56846,2,0,P|320:338|362:333,1,80,8|0,0:0|1:2,0:0:0:0:
165,264,57184,6,0,L|117:271,5,40,2|0|0|0|0|0,1:2|0:0|0:0|0:0|0:0|0:0,0:0:0:0:
271,191,57689,2,0,L|319:198,5,40,2|0|0|0|0|0,1:2|0:0|0:0|0:0|0:0|0:0,0:0:0:0:
156,121,58194,2,0,L|148:75,3,40,2|0|0|0,1:2|0:0|0:0|0:0,0:0:0:0:
287,14,58532,6,0,L|280:53,5,40,2|0|0|0|0|0,1:2|0:0|0:0|0:0|0:0|0:0,0:0:0:0:
383,136,59037,2,0,L|389:175,5,40,2|0|0|0|0|0,1:2|0:0|0:0|0:0|0:0|0:0,0:0:0:0:
275,237,59543,2,0,L|268:276,3,40,2|0|8|0,1:2|0:0|0:0|0:0,0:0:0:0:
105,318,59879,6,0,P|100:274|95:225,1,80,6|0,1:2|0:0,0:0:0:0:
176,49,60219,1,8,0:0:0:0:
61,132,60390,1,8,0:0:0:0:
198,202,60560,1,8,0:0:0:0:
76,26,60731,1,8,0:0:0:0:
284,104,60901,2,0,P|325:98|377:90,1,80,8|8,0:0|0:0,0:0:0:0:
512,144,61242,5,8,0:0:0:0:
381,9,61413,1,8,0:0:0:0:
380,232,61583,1,8,0:0:0:0:
484,38,61751,1,8,0:0:0:0:
380,232,62257,5,12,0:1:0:0:
380,232,62583,6,0,P|306:207|221:234,1,160,4|8,1:1|0:0,0:0:0:0:
140,336,63089,1,0,0:0:0:0:
59,235,63257,2,0,P|66:165|73:76,1,160,0|8,1:0|0:0,0:0:0:0:
168,4,63763,1,0,0:0:0:0:
250,95,63932,6,0,P|298:89|335:84,1,80,2|0,1:2|1:0,0:0:0:0:
479,193,64269,2,0,P|431:187|394:182,1,80,8|0,0:0|0:0,0:0:0:0:
252,250,64607,1,2,1:2:0:0:
310,166,64775,1,0,1:0:0:0:
354,305,64944,2,0,P|350:345|346:396,1,80,8|0,0:0|0:0,0:0:0:0:
252,250,65281,6,0,P|185:212|91:231,1,160,4|8,1:0|0:0,0:0:0:0:
314,86,65787,2,0,P|311:135|309:172,1,80,2|0,0:0|1:0,0:0:0:0:
228,38,66125,1,0,1:2:0:0:
228,38,66293,1,8,0:0:0:0:
403,130,66462,6,0,P|399:202|393:298,1,160,2|0,0:0|1:0,0:0:0:0:
301,354,66968,1,8,0:0:0:0:
220,276,67137,2,0,P|180:282|140:287,1,80,2|0,0:0|1:0,0:0:0:0:
41,235,67473,1,2,1:2:0:0:
145,98,67643,2,0,P|141:151|139:189,1,80,8|0,0:0|0:0,0:0:0:0:
239,37,67980,6,0,B|289:60|289:60|410:40,1,160,4|8,1:1|0:0,0:0:0:0:
512,108,68487,1,0,0:0:0:0:
398,175,68655,2,0,P|376:252|432:309,1,160,2|8,1:2|0:0,0:0:0:0:
324,372,69161,1,0,0:0:0:0:
202,286,69329,6,0,P|248:283|294:280,1,80,2|0,1:2|1:0,0:0:0:0:
93,239,69666,1,8,0:0:0:0:
126,362,69835,1,0,0:0:0:0:
208,198,70004,2,0,P|206:153|204:104,1,80,2|0,1:2|1:2,0:0:0:0:
326,15,70342,2,0,P|324:54|322:94,1,80,8|0,0:0|0:0,0:0:0:0:
405,170,70679,6,0,P|362:224|381:314,1,160,2|8,1:2|0:0,0:0:0:0:
279,363,71186,2,0,P|202:353|108:337,1,160,2|0,0:0|1:2,0:0:0:0:
51,233,71692,2,0,P|94:240|147:249,1,80,8|0,0:0|0:0,0:0:0:0:
40,117,72029,6,0,P|113:140|186:98,1,160,2|8,1:2|0:0,0:0:0:0:
236,3,72535,1,2,0:0:0:0:
326,68,72703,2,0,P|320:124|316:171,1,80,8|0,1:2|1:2,0:0:0:0:
182,229,73041,1,8,0:0:0:0:
175,272,73126,1,8,0:0:0:0:
189,313,73210,1,8,0:0:0:0:
226,336,73294,1,8,0:0:0:0:
269,340,73378,6,0,P|310:333|357:323,1,80,4|0,1:1|1:0,0:0:0:0:
448,246,73715,1,8,0:0:0:0:
323,138,73884,1,2,0:0:0:0:
323,138,73968,1,8,0:0:0:0:
323,138,74053,2,0,P|327:183|332:230,1,80,0|0,1:0|0:0,0:0:0:0:
211,106,74390,1,8,0:0:0:0:
243,0,74558,1,0,0:0:0:0:
112,154,74727,6,0,P|117:203|122:248,1,80,2|0,1:2|1:0,0:0:0:0:
174,351,75064,1,8,0:0:0:0:
270,283,75233,2,0,B|324:270|324:270|374:285|374:285|437:271,1,160,2|0,0:0|1:2,0:0:0:0:
510,146,75739,1,8,0:0:0:0:
353,42,75909,1,0,0:0:0:0:
376,208,76078,5,8,0:2:0:0:
353,9,76246,1,0,1:0:0:0:
259,211,76414,1,8,0:0:0:0:
459,47,76583,1,0,1:2:0:0:
377,241,76752,1,8,1:2:0:0:
251,54,76920,1,0,1:2:0:0:
376,122,77089,1,8,0:0:0:0:
230,240,77258,1,0,0:0:0:0:
107,44,77426,5,0,0:0:0:0:
107,44,77510,1,0,1:0:0:0:
107,44,77595,2,0,L|114:84,5,40,4|0|8|0|8|0,0:3|1:0|0:3|1:2|0:3|1:2,0:0:0:0:
126,198,78101,2,0,L|168:202,1,40,8|0,0:0|0:0,0:0:0:0:
264,126,78266,2,0,L|224:122,1,40,8|0,0:2|0:0,0:0:0:0:
357,39,78432,1,8,0:0:0:0:
408,39,78515,1,8,0:0:0:0:
452,65,78598,1,8,0:0:0:0:
468,114,78681,1,8,0:0:0:0:
459,165,78763,6,0,P|447:258|437:328,1,160,4|8,1:1|0:0,0:0:0:0:
336,243,79269,1,0,0:0:0:0:
279,351,79437,2,0,P|198:365|138:301,1,160,2|8,1:2|0:0,0:0:0:0:
180,198,79943,1,0,0:0:0:0:
88,117,80112,6,0,P|47:116|5:114,1,80,2|0,1:2|1:0,0:0:0:0:
193,217,80449,2,0,P|234:216|276:214,1,80,8|0,0:0|0:0,0:0:0:0:
413,158,80786,1,2,1:2:0:0:
367,273,80955,1,0,1:2:0:0:
299,126,81124,2,0,P|301:85|304:34,1,80,8|0,0:0|0:0,0:0:0:0:
169,0,81461,6,0,P|196:66|146:147,1,160,2|8,1:2|0:0,0:0:0:0:
68,248,81968,2,0,P|157:242|236:234,1,160,2|0,0:0|1:2,0:0:0:0:
299,126,82473,1,8,0:0:0:0:
410,266,82642,6,0,P|362:321|258:310,1,160,2|0,0:0|1:0,0:0:0:0:
187,235,83148,1,8,0:0:0:0:
199,376,83316,1,0,0:0:0:0:
317,232,83486,2,0,P|314:192|309:138,1,80,0|0,1:0|1:2,0:0:0:0:
434,85,83823,2,0,P|430:124|427:164,1,80,8|0,0:0|0:0,0:0:0:0:
352,19,84160,6,0,B|297:15|297:15|251:32|251:32|170:21,1,160,4|8,1:1|0:0,0:0:0:0:
80,70,84667,1,0,0:0:0:0:
159,146,84835,2,0,B|177:193|177:193|157:307,1,160,2|8,1:2|0:0,0:0:0:0:
236,372,85342,1,0,0:0:0:0:
368,274,85510,6,0,P|329:277|283:279,1,80,2|0,1:2|1:0,0:0:0:0:
433,184,85847,2,0,P|472:187|518:189,1,80,8|0,0:0|0:0,0:0:0:0:
348,122,86184,1,2,1:2:0:0:
413,31,86353,1,0,1:2:0:0:
258,63,86522,2,0,P|214:60|163:55,1,80,8|0,0:0|0:0,0:0:0:0:
39,188,86859,6,0,P|127:180|208:171,1,160,4|8,1:1|0:0,0:0:0:0:
300,233,87365,2,0,P|374:183|452:204,1,160,6|0,0:0|1:2,0:0:0:0:
512,116,87871,1,8,0:0:0:0:
317,86,88041,1,0,1:2:0:0:
388,284,88208,5,0,1:0:0:0:
423,40,88378,1,8,1:2:0:0:
297,189,88547,1,8,0:2:0:0:
477,234,88715,1,0,0:0:0:0:
317,86,88884,5,8,1:2:0:0:
309,54,88968,1,8,0:0:0:0:
303,22,89052,1,8,0:0:0:0:
404,174,89220,1,8,0:0:0:0:
400,205,89306,1,8,0:0:0:0:
396,237,89389,1,8,0:0:0:0:
392,268,89473,1,8,0:0:0:0:
388,299,89558,6,0,P|330:334|244:307,1,160,4|8,1:1|0:0,0:0:0:0:
238,176,90065,1,0,0:0:0:0:
65,265,90233,2,0,P|115:260|157:256,1,80,2|0,1:2|1:2,0:0:0:0:
115,96,90570,1,8,0:0:0:0:
35,172,90738,1,0,0:0:0:0:
238,176,90908,6,0,P|230:91|223:13,1,160,2|8,1:2|0:0,0:0:0:0:
340,232,91408,1,0,0:0:0:0:
422,140,91575,2,0,P|468:135|512:130,1,80,2|0,1:2|1:2,0:0:0:0:
334,256,91909,1,8,0:0:0:0:
347,81,92076,1,0,1:2:0:0:
464,242,92243,6,0,P|458:288|451:343,1,88.000002685547,14|0,1:2|1:0,0:0:0:0:
321,376,92583,2,0,P|324:336|333:279,1,88.000002685547,8|0,0:0|0:0,0:0:0:0:
208,150,92924,2,0,B|156:143|156:143|92:153,1,95.9999970703126,10|0,1:2|1:2,0:0:0:0:
12,271,93265,2,0,B|64:277|64:277|114:267,1,95.9999970703126,8|0,0:0|0:0,0:0:0:0:
227,333,93606,5,10,1:2:0:0:
208,150,93773,1,8,1:2:0:0:
385,77,93940,1,8,0:0:0:0:
355,257,94107,1,10,0:0:0:0:
355,257,94190,1,2,0:0:0:0:
355,257,94274,1,8,1:2:0:0:
258,48,94441,5,8,0:0:0:0:
222,30,94525,1,8,0:0:0:0:
182,25,94608,1,8,0:0:0:0:
143,33,94692,1,8,0:0:0:0:
108,52,94775,1,8,0:0:0:0:
82,82,94859,1,8,0:0:0:0:
66,119,94943,6,0,P|70:168|75:221,1,80,4|0,1:1|1:0,0:0:0:0:
133,298,95281,1,8,0:0:0:0:
216,187,95451,2,0,P|301:194|390:201,1,160,2|0,1:2|1:2,0:0:0:0:
475,140,95959,1,8,0:0:0:0:
512,330,96129,6,0,P|436:342|360:269,1,160,2|0,1:2|1:0,0:0:0:0:
331,131,96637,1,8,0:0:0:0:
273,297,96807,1,0,1:2:0:0:
458,243,96976,1,8,0:3:0:0:
313,164,97146,5,0,0:0:0:0:
283,260,97315,1,4,0:3:0:0:
381,234,97485,1,0,0:0:0:0:
236,98,97654,6,0,P|178:96|55:90,1,160,4|8,1:1|0:0,0:0:0:0:
10,207,98151,1,0,0:0:0:0:
10,207,98316,2,0,P|93:194|161:244,1,160,2|8,1:2|0:0,0:0:0:0:
201,328,98814,1,0,0:0:0:0:
289,223,98979,6,0,P|283:177|278:134,1,80,2|0,1:2|1:0,0:0:0:0:
274,111,99233,1,8,0:0:0:0:
274,111,99318,1,8,0:0:0:0:
432,36,99488,2,0,L|426:79,3,40,2|8|8|8,0:0|0:0|0:3|0:3,0:0:0:0:
470,143,99827,2,0,L|464:186,3,40,8|8|4|4,0:3|0:3|0:3|0:3,0:0:0:0:
502,280,100167,1,4,0:3:0:0:
502,280,100251,1,4,0:3:0:0:
502,280,100336,6,0,P|448:335|366:335,1,160,4|8,1:1|0:0,0:0:0:0:
289,227,100841,1,0,0:0:0:0:
410,140,101010,2,0,P|408:174|405:227,1,80,2|0,1:2|1:0,0:0:0:0:
334,65,101347,1,8,0:0:0:0:
221,125,101515,1,0,0:0:0:0:
221,125,101600,1,0,0:0:0:0:
221,125,101684,6,0,P|136:121|60:116,1,160,2|8,1:2|0:0,0:0:0:0:
2,297,102190,1,0,0:0:0:0:
98,225,102359,2,0,P|140:226|180:230,1,80,2|0,1:2|1:2,0:0:0:0:
287,292,102696,1,8,0:0:0:0:
173,336,102864,1,0,0:0:0:0:
255,185,103032,6,0,P|251:135|249:95,1,80,2|0,1:2|1:0,0:0:0:0:
326,10,103370,1,8,0:0:0:0:
433,117,103538,1,0,0:0:0:0:
433,117,103623,1,0,0:0:0:0:
433,117,103706,2,0,P|428:164|416:282,1,160,2|8,1:2|0:0,0:0:0:0:
306,341,104213,6,0,P|235:304|149:326,1,160,2|0,0:0|0:0,0:0:0:0:
33,291,104718,1,8,0:0:0:0:
94,177,104887,1,2,0:0:0:0:
94,177,104971,1,0,0:0:0:0:
94,177,105055,2,0,P|91:129|88:89,1,80,2|0,1:2|1:2,0:0:0:0:
222,0,105392,1,8,0:0:0:0:
197,126,105560,1,0,0:0:0:0:
333,56,105729,6,0,P|412:54|471:122,1,160,6|8,1:2|0:0,0:0:0:0:
395,237,106235,1,2,0:0:0:0:
395,237,106319,1,0,0:0:0:0:
395,237,106403,2,0,P|351:233|231:222,1,160,0|8,0:0|0:0,0:0:0:0:
122,152,106909,6,0,P|79:155|44:179,1,80,2|2,0:0|1:2,0:0:0:0:
200,61,107246,2,0,P|286:58|300:58,1,80,2|8,1:2|0:0,0:0:0:0:
468,185,107583,2,0,P|382:182|368:182,1,80,0|2,0:0|1:2,0:0:0:0:
279,160,107920,1,0,1:2:0:0:
367,323,108089,1,8,0:0:0:0:
367,323,108426,6,0,P|323:321|271:336,1,80,4|0,1:1|1:0,0:0:0:0:
163,230,108763,2,0,P|207:228|260:225,1,80,8|0,0:0|0:0,0:0:0:0:
71,195,109100,2,0,P|65:115|58:33,1,160,2|8,1:2|0:0,0:0:0:0:
199,70,109605,6,0,P|286:74|338:16,1,160,2|0,1:2|1:0,0:0:0:0:
409,115,110111,1,8,0:0:0:0:
333,320,110280,1,10,0:0:0:0:
333,320,110364,1,0,0:0:0:0:
333,320,110449,1,10,1:2:0:0:
296,162,110616,1,8,0:0:0:0:
411,244,110786,1,8,0:0:0:0:
238,288,110953,6,0,P|153:282|68:274,1,160,6|0,1:2|1:0,0:0:0:0:
14,182,111459,1,8,0:0:0:0:
138,92,111628,1,2,0:0:0:0:
138,92,111713,1,8,0:0:0:0:
138,92,111797,2,0,P|134:132|129:181,1,80,0|0,1:0|1:0,0:0:0:0:
238,288,112134,1,8,0:0:0:0:
269,173,112302,1,0,0:0:0:0:
345,323,112470,6,0,P|391:318|443:311,1,80,2|0,1:2|1:0,0:0:0:0:
495,237,112808,1,8,0:0:0:0:
394,142,112976,1,0,0:0:0:0:
394,142,113061,1,8,0:0:0:0:
394,142,113145,2,0,P|387:99|394:56,1,80,0|0,1:0|1:0,0:0:0:0:
238,0,113482,2,0,P|241:40|244:83,1,80,8|0,0:0|0:0,0:0:0:0:
139,177,113819,6,0,P|96:174|56:171,1,80,2|0,1:2|1:0,0:0:0:0:
199,275,114156,1,8,0:0:0:0:
252,111,114325,1,0,0:0:0:0:
252,111,114409,1,8,0:0:0:0:
252,111,114493,2,0,P|291:109|335:106,1,80,0|0,1:0|1:0,0:0:0:0:
469,167,114831,1,8,0:0:0:0:
392,39,114999,1,0,0:0:0:0:
348,204,115167,6,0,P|357:267|373:368,1,160,2|8,1:2|0:0,0:0:0:0:
177,148,115673,1,0,0:0:0:0:
246,263,115841,1,8,1:2:0:0:
119,249,116010,1,0,0:0:0:0:
274,141,116178,1,8,0:0:0:0:
124,59,116346,1,0,0:0:0:0:
274,141,116515,6,0,P|361:147|420:83,1,160,4|8,1:1|0:0,0:0:0:0:
484,190,117021,2,0,P|474:271|462:362,1,160,4|0,1:2|1:2,0:0:0:0:
362,260,117527,1,8,0:0:0:0:
264,346,117696,6,0,B|206:351|206:351|161:335|161:335|98:340,1,160,4|0,1:2|1:0,0:0:0:0:
34,254,118201,1,8,0:0:0:0:
76,124,118370,1,0,0:0:0:0:
185,203,118538,2,0,P|231:196|265:177,1,80,8|0,1:2|1:2,0:0:0:0:
406,77,118876,1,8,0:0:0:0:
403,104,118960,1,8,0:0:0:0:
400,131,119044,1,8,0:0:0:0:
397,159,119129,1,8,0:0:0:0:
395,186,119213,6,0,P|403:245|408:289,1,80,4|0,1:0|1:0,0:0:0:0:
327,366,119550,1,8,0:0:0:0:
246,267,119718,1,2,0:0:0:0:
246,267,119802,1,8,0:0:0:0:
246,267,119887,2,0,B|167:231|167:298|66:246,1,160,0|8,1:0|0:0,0:0:0:0:
8,148,120392,1,0,0:0:0:0:
155,28,120561,6,0,P|146:105|135:196,1,160,2|8,1:2|0:0,0:0:0:0:
245,112,121067,1,2,0:0:0:0:
245,112,121151,1,0,0:0:0:0:
245,112,121234,2,0,P|294:109|364:194,1,160,0|8,1:0|0:0,0:0:0:0:
335,316,121741,1,0,0:0:0:0:
453,249,121908,5,10,1:2:0:0:
136,186,122077,1,10,1:2:0:0:
136,186,122415,6,0,L|54:182,1,80,2|0,1:2|1:2,0:0:0:0:
0,114,122920,5,10,1:2:0:0:
272,255,123089,1,8,1:2:0:0:
272,255,123426,5,0,1:0:0:0:
268,235,123510,1,8,0:3:0:0:
264,215,123595,1,0,0:0:0:0:
261,195,123679,1,0,0:0:0:0:
258,175,123763,1,4,0:3:0:0:
255,155,123847,1,0,0:0:0:0:
252,135,123932,5,10,1:2:0:0:
185,342,124100,1,8,1:2:0:0:
185,342,124605,6,0,P|105:331|25:320,1,160,4|8,1:1|0:0,0:0:0:0:
0,215,125111,1,0,0:0:0:0:
123,92,125279,2,0,B|142:139|142:139|124:255,1,160,2|8,1:2|0:0,0:0:0:0:
185,342,125786,1,0,0:0:0:0:
340,274,125954,6,0,P|300:272|260:270,1,80,2|0,1:2|1:0,0:0:0:0:
394,128,126291,2,0,P|433:126|473:124,1,80,8|0,0:0|0:0,0:0:0:0:
273,59,126628,1,0,1:2:0:0:
309,184,126797,1,0,1:0:0:0:
112,119,126965,2,0,P|160:121|215:123,1,80,8|0,0:0|0:0,0:0:0:0:
37,189,127302,6,0,P|31:244|19:350,1,160,2|8,1:2|0:0,0:0:0:0:
138,302,127808,2,0,B|189:296|189:296|239:308|239:308|298:302,1,160,2|0,0:0|0:0,0:0:0:0:
408,365,128314,1,8,0:0:0:0:
474,270,128482,6,0,P|467:181|460:101,1,160,2|0,0:0|1:0,0:0:0:0:
348,18,128988,1,8,0:0:0:0:
260,155,129156,2,0,P|307:148|358:139,1,80,2|0,0:0|1:0,0:0:0:0:
179,72,129493,1,0,1:0:0:0:
90,143,129662,2,0,P|94:192|97:231,1,80,8|0,0:0|0:0,0:0:0:0:
165,336,129998,6,0,B|209:310|209:310|328:320,1,160,4|8,1:1|0:0,0:0:0:0:
436,291,130505,1,0,0:0:0:0:
350,204,130673,2,0,P|340:116|397:63,1,160,2|8,1:2|0:0,0:0:0:0:
275,4,131179,1,0,0:0:0:0:
193,79,131347,6,0,P|153:75|108:69,1,80,2|0,1:2|1:0,0:0:0:0:
9,184,131684,1,8,0:0:0:0:
144,168,131853,1,0,0:0:0:0:
69,323,132022,2,0,P|74:275|78:230,1,80,2|0,1:2|0:0,0:0:0:0:
165,373,132359,2,0,P|205:369|255:364,1,80,8|0,0:0|0:0,0:0:0:0:
290,263,132696,6,0,B|376:221|370:290|461:243,1,160,2|8,1:2|0:0,0:0:0:0:
508,134,133201,2,0,B|494:90|494:90|434:68|370:85,1,160,2|0,0:0|1:0,0:0:0:0:
262,114,133707,2,0,P|219:113|180:91,1,80,8|0,0:0|0:0,0:0:0:0:
18,153,134044,6,0,P|93:154|149:222,1,160,2|8,1:2|0:0,0:0:0:0:
160,342,134550,1,0,0:0:0:0:
336,280,134718,2,0,P|290:281|240:283,1,80,8|0,1:2|1:0,0:0:0:0:
416,175,135055,1,8,0:0:0:0:
410,148,135140,1,8,0:0:0:0:
404,121,135224,1,8,0:0:0:0:
399,94,135308,1,8,0:0:0:0:
394,67,135392,6,0,P|350:64|304:61,1,80,4|0,1:1|1:0,0:0:0:0:
187,7,135729,1,8,0:0:0:0:
101,140,135898,1,2,0:0:0:0:
101,140,135982,1,8,0:0:0:0:
101,140,136066,2,0,P|104:183|108:234,1,80,2|0,1:2|0:0,0:0:0:0:
190,299,136404,1,8,0:0:0:0:
237,178,136572,1,0,0:0:0:0:
298,351,136741,6,0,P|345:345|395:338,1,80,2|0,1:2|1:0,0:0:0:0:
474,254,137078,1,8,0:0:0:0:
372,196,137246,2,0,B|352:143|352:143|374:27,1,160,2|0,0:0|1:0,0:0:0:0:
187,111,137752,1,8,0:0:0:0:
242,0,137920,1,0,1:0:0:0:
116,23,138089,5,8,1:2:0:0:
285,94,138258,1,0,1:0:0:0:
123,197,138426,1,8,0:0:0:0:
308,76,138595,1,0,1:0:0:0:
320,305,138763,1,8,1:2:0:0:
242,185,138932,1,0,1:2:0:0:
386,211,139100,1,8,0:0:0:0:
186,334,139268,1,0,0:0:0:0:
81,237,139437,5,8,0:0:0:0:
71,219,139521,1,8,0:3:0:0:
63,200,139605,1,8,0:3:0:0:
55,181,139689,1,8,0:3:0:0:
55,160,139774,1,8,0:3:0:0:
61,140,139858,1,8,0:3:0:0:
69,122,139942,1,8,0:3:0:0:
78,104,140027,1,8,0:3:0:0:
92,90,140111,6,0,L|84:48,1,40,4|0,0:3|0:0,0:0:0:0:
273,12,140280,2,0,L|265:51,1,40,4|0,0:3|0:0,0:0:0:0:
232,185,140449,1,8,0:0:0:0:
218,234,140533,1,8,0:0:0:0:
242,278,140617,1,8,0:0:0:0:
287,300,140701,1,8,0:0:0:0:
337,291,140786,6,0,P|418:279|501:266,1,160,4|8,1:1|0:0,0:0:0:0:
512,132,141291,1,0,0:0:0:0:
388,37,141460,2,0,B|372:91|372:91|398:214,1,160,2|8,1:2|0:0,0:0:0:0:
337,291,141965,1,0,0:0:0:0:
191,211,142134,6,0,P|238:208|278:208,1,80,2|0,1:2|1:0,0:0:0:0:
110,102,142471,2,0,P|63:99|25:96,1,80,8|0,0:0|0:0,0:0:0:0:
218,60,142808,1,2,1:2:0:0:
191,211,142977,1,0,1:0:0:0:
338,123,143145,2,0,P|331:79|324:39,1,80,8|0,0:0|0:0,0:0:0:0:
464,169,143482,6,0,P|420:231|430:319,1,160,2|8,1:2|0:0,0:0:0:0:
299,353,143988,2,0,P|241:347|122:334,1,160,2|0,0:0|0:0,0:0:0:0:
26,262,144493,1,8,0:0:0:0:
146,194,144661,6,0,P|160:115|106:49,1,160,2|0,0:0|1:0,0:0:0:0:
289,14,145168,1,8,0:0:0:0:
236,106,145336,1,0,0:0:0:0:
315,174,145505,2,0,P|355:167|404:158,1,80,2|0,1:2|1:0,0:0:0:0:
512,268,145842,2,0,P|472:261|429:268,1,80,8|0,0:0|0:0,0:0:0:0:
335,333,146179,6,0,B|292:347|256:321|256:321|200:316|184:358,1,160,6|8,1:2|0:0,0:0:0:0:
55,327,146684,1,0,0:0:0:0:
138,218,146852,2,0,P|128:133|118:51,1,160,2|8,1:2|0:0,0:0:0:0:
234,2,147359,1,0,0:0:0:0:
317,116,147527,6,0,P|273:112|223:106,1,80,2|0,1:2|1:0,0:0:0:0:
395,218,147864,2,0,P|439:214|489:208,1,80,8|0,0:0|0:0,0:0:0:0:
287,235,148201,1,2,1:2:0:0:
339,330,148370,1,0,1:0:0:0:
247,369,148538,2,0,P|207:365|167:360,1,80,8|0,0:0|0:0,0:0:0:0:
21,251,148876,6,0,P|103:265|163:214,1,160,12|0,1:2|0:0,0:0:0:0:
268,102,149381,2,0,P|263:158|253:272,1,160,14|0,0:0|0:0,0:0:0:0:
435,105,149887,1,8,0:0:0:0:
351,197,150055,1,0,0:0:0:0:
475,222,150223,5,2,1:2:0:0:
349,68,150392,1,8,1:2:0:0:
297,296,150560,1,8,0:0:0:0:
240,32,150729,1,0,0:0:0:0:
179,199,150897,5,8,1:3:0:0:
184,225,150982,1,8,0:3:0:0:
189,251,151067,1,8,0:3:0:0:
194,277,151151,1,8,0:3:0:0:
185,315,151235,1,8,0:0:0:0:
152,338,151319,1,8,0:0:0:0:
111,340,151404,1,8,0:0:0:0:
75,322,151488,1,8,0:0:0:0:
51,289,151571,6,0,P|44:206|36:113,1,160,4|8,1:1|0:0,0:0:0:0:
124,29,152078,1,0,0:0:0:0:
243,164,152246,2,0,P|186:160|157:158,1,80,2|0,1:2|1:0,0:0:0:0:
326,107,152583,1,8,0:0:0:0:
307,255,152752,1,0,0:0:0:0:
412,187,152920,6,0,P|485:208|501:291,1,160,2|8,1:2|0:0,0:0:0:0:
369,366,153426,1,0,0:0:0:0:
307,255,153595,2,0,P|263:251|225:247,1,80,2|0,1:2|0:0,0:0:0:0:
117,196,153931,1,8,0:0:0:0:
223,100,154100,1,0,0:0:0:0:
223,100,154184,1,0,0:0:0:0:
223,100,154268,6,0,P|219:54|215:7,1,88.000002685547,6|0,1:2|1:0,0:0:0:0:
368,120,154606,2,0,P|364:159|359:211,1,88.000002685547,8|0,0:0|0:0,0:0:0:0:
149,356,154943,2,0,P|109:357|55:334,1,95.9999970703126,2|0,1:2|1:0,0:0:0:0:
208,245,155279,2,0,P|248:244|301:268,1,95.9999970703126,8|0,0:0|0:0,0:0:0:0:
392,368,155616,5,10,1:2:0:0:
455,181,155786,1,0,1:2:0:0:
455,181,155869,1,0,1:2:0:0:
455,181,155953,1,8,0:0:0:0:
298,266,156123,1,0,1:2:0:0:
493,316,156291,1,8,1:2:0:0:
332,181,156459,5,8,0:0:0:0:
328,157,156544,1,8,0:0:0:0:
324,133,156628,2,0,L|330:88,1,40,8|8,0:3|0:3,0:0:0:0:
228,0,156797,2,0,L|222:39,1,40,4|0,0:3|0:0,0:0:0:0:
125,126,156965,6,0,P|131:177|137:229,1,80,12|0,1:2|1:0,0:0:0:0:
80,312,157302,1,8,0:0:0:0:
183,372,157471,2,0,P|261:360|350:344,1,160,10|0,1:2|0:0,0:0:0:0:
441,296,157976,1,8,0:0:0:0:
360,218,158145,6,0,P|345:137|395:78,1,160,6|8,1:2|0:0,0:0:0:0:
275,3,158651,1,8,0:0:0:0:
205,114,158819,1,4,0:3:0:0:
205,114,158904,1,0,0:0:0:0:
205,114,158987,2,0,L|158:111,3,40,8|8|8|8,0:3|0:3|0:3|0:3,0:0:0:0:
124,151,159325,2,0,L|77:148,3,40,4|4|0|2,0:3|0:3|1:0|0:0,0:0:0:0:
0,261,159661,6,0,L|85:254,1,80,12|0,1:2|1:0,0:0:0:0:
203,321,159999,1,8,0:0:0:0:
255,224,160167,2,0,P|246:139|237:58,1,160,10|0,1:2|1:0,0:0:0:0:
337,0,160673,1,8,0:0:0:0:
491,106,160841,2,0,P|443:154|349:146,1,160,4|0,1:0|1:0,0:0:0:0:
237,64,161347,5,8,0:3:0:0:
209,69,161432,1,0,0:0:0:0:
181,74,161516,1,8,0:2:0:0:
153,79,161600,1,8,0:3:0:0:
125,83,161684,2,0,L|79:80,1,40,8|0,0:0|0:0,0:0:0:0:
0,185,161853,2,0,L|46:182,1,40,8|0,0:0|0:0,0:0:0:0:
150,249,162022,2,0,P|177:248|198:243,3,40,8|0|0|0,0:0|0:0|0:0|0:0,0:0:0:0:
325,235,162358,6,0,P|318:286|309:344,1,80,12|0,1:2|1:0,0:0:0:0:
431,185,162696,1,8,0:0:0:0:
348,89,162864,2,0,B|293:80|293:80|251:100|251:100|183:93,1,160,10|0,1:2|1:0,0:0:0:0:
106,18,163370,1,8,0:0:0:0:
10,183,163538,2,0,P|53:189|96:181,1,80,8|0,1:2|0:0,0:0:0:0:
198,222,163876,5,8,0:0:0:0:
229,216,163960,1,8,0:0:0:0:
260,210,164044,2,0,L|303:214,3,40,8|0|0|0,0:0|0:0|0:0|0:0,0:0:0:0:
335,195,164381,2,0,L|378:199,3,40,8|8|8|0,0:3|0:3|0:3|0:0,0:0:0:0:
428,187,164718,1,4,0:3:0:0:
428,187,164802,1,4,0:3:0:0:
428,187,164887,1,8,0:0:0:0:
428,187,164970,1,8,0:0:0:0:
428,187,165055,6,0,P|461:118|433:40,1,160,4|8,1:1|0:0,0:0:0:0:
253,6,165561,1,0,1:0:0:0:
217,207,165729,1,8,1:2:0:0:
344,109,165898,1,0,1:0:0:0:
173,76,166066,2,0,P|129:79|86:81,1,80,8|0,0:0|1:0,0:0:0:0:
0,243,166404,5,12,1:2:0:0:
154,160,166572,1,0,1:0:0:0:
105,321,166741,1,8,0:0:0:0:
54,164,166909,1,0,0:0:0:0:
190,260,167078,6,0,P|249:256|309:251,1,120,8|8,0:3|0:3,0:0:0:0:
309,251,167583,1,4,1:2:0:0:
323,137,178549,6,0,P|317:200|311:269,1,120.000004577637,2|0,0:0|1:0,0:0:0:0:
248,320,179054,1,0,0:0:0:0:
248,320,179223,2,0,P|190:328|126:294,1,120.000004577637,8|0,0:0|0:0,0:0:0:0:
142,213,179728,2,0,P|144:147|93:104,1,120.000004577637,2|0,1:2|0:0,0:0:0:0:
160,38,180234,1,0,1:2:0:0:
232,90,180402,6,0,P|276:84|314:78,1,60.0000022888184,2|8,1:2|0:0,0:0:0:0:
375,48,180740,1,0,0:0:0:0:
439,109,180908,2,0,P|448:140|452:169,1,60.0000022888184,0|0,0:0|0:0,0:0:0:0:
372,221,181245,2,0,P|389:284|355:344,1,120.000004577637,2|0,0:0|1:2,0:0:0:0:
282,359,181751,2,0,P|251:358|210:355,1,60.0000022888184,2|8,0:0|0:0,0:0:0:0:
148,302,182088,1,0,0:0:0:0:
167,214,182256,1,0,0:0:0:0:
255,230,182425,6,0,P|311:225|349:157,1,120.000004577637,2|0,1:2|0:0,0:0:0:0:
320,91,182931,1,2,1:2:0:0:
320,91,183099,1,0,1:2:0:0:
381,25,183268,1,8,0:0:0:0:
462,63,183436,1,0,0:0:0:0:
440,150,183605,2,0,P|444:191|446:223,1,60.0000022888184,2|0,0:0|0:0,0:0:0:0:
407,291,183942,6,0,P|356:270|287:283,1,120.000004577637,2|0,0:0|1:2,0:0:0:0:
222,335,184447,1,0,0:0:0:0:
159,270,184616,2,0,P|164:229|167:204,1,60.0000022888184,8|0,0:0|0:0,0:0:0:0:
227,144,184953,1,0,0:0:0:0:
170,73,185122,6,0,P|113:64|54:101,1,120.000004577637,2|0,1:2|0:0,0:0:0:0:
50,182,185627,1,0,1:2:0:0:
50,182,185796,2,0,P|47:223|44:263,1,60.0000022888184,2|8,1:2|0:0,0:0:0:0:
87,321,186133,1,0,0:0:0:0:
164,274,186301,2,0,P|199:271|233:271,1,60.0000022888184,0|0,0:0|0:0,0:0:0:0:
295,325,186638,6,0,P|356:310|413:296,1,120.000004577637,2|0,0:0|1:2,0:0:0:0:
444,212,187144,2,0,P|447:162|450:131,1,60.0000022888184,2|8,0:0|0:0,0:0:0:0:
402,74,187481,1,0,0:0:0:0:
402,74,187650,1,0,0:0:0:0:
323,118,187818,2,0,P|270:114|188:106,1,120.000004577637,2|8,1:2|0:0,0:0:0:0:
113,119,188324,1,0,0:0:0:0:
113,119,188492,1,0,1:2:0:0:
148,197,188661,6,0,P|144:239|140:288,1,80,10|0,1:2|0:0,0:0:0:0:
136,315,188914,1,8,0:0:0:0:
136,315,188998,1,8,0:0:0:0:
248,378,189166,1,8,0:0:0:0:
327,260,189335,6,0,P|378:254|437:247,1,80,4|0,1:1|0:0,0:0:0:0:
498,136,189672,2,0,P|458:140|418:145,1,80,8|0,0:0|0:0,0:0:0:0:
318,94,190009,2,0,P|275:88|242:62,1,80,2|0,1:2|0:0,0:0:0:0:
145,17,190346,1,8,0:0:0:0:
145,17,190515,1,0,0:0:0:0:
52,144,190683,6,0,P|104:130|138:122,1,80,2|0,1:2|0:0,0:0:0:0:
77,248,191020,2,0,P|38:257|0:268,1,80,8|0,0:0|0:0,0:0:0:0:
172,290,191357,1,0,1:2:0:0:
172,290,191526,1,0,0:0:0:0:
238,200,191695,2,0,P|228:156|220:118,1,80,8|0,0:0|0:0,0:0:0:0:
310,40,192032,6,0,P|349:46|396:39,1,80,2|0,1:2|0:0,0:0:0:0:
480,106,192369,2,0,P|468:177|452:274,1,160,8|0,0:0|1:0,0:0:0:0:
313,296,192874,1,0,0:0:0:0:
359,187,193043,1,8,0:0:0:0:
256,103,193211,6,0,P|175:87|103:151,1,160,2|0,0:0|0:0,0:0:0:0:
82,264,193717,1,8,0:0:0:0:
250,346,193886,1,2,0:0:0:0:
250,346,193970,1,8,0:0:0:0:
250,346,194054,1,8,1:2:0:0:
198,186,194223,1,8,0:0:0:0:
143,350,194391,1,8,0:0:0:0:
336,284,194560,1,8,0:0:0:0:
198,186,194728,6,0,P|157:190|117:194,2,80,2|0|0,1:2|1:0|0:0,0:0:0:0:
288,217,195234,1,0,1:2:0:0:
338,87,195402,2,0,P|330:45|321:4,1,80,8|0,0:2|1:2,0:0:0:0:
431,51,195740,2,0,P|439:90|446:129,1,80,2|0,1:2|1:2,0:0:0:0:
504,206,196077,6,0,P|501:245|497:294,1,80,2|0,1:2|1:2,0:0:0:0:
439,362,196414,1,2,1:2:0:0:
374,290,196582,1,0,1:2:0:0:
239,361,196751,1,8,0:0:0:0:
177,287,196919,1,0,1:2:0:0:
177,287,197088,2,0,P|189:232|193:204,1,80,2|0,1:2|1:2,0:0:0:0:
255,82,197425,6,0,P|245:43|239:3,2,80,2|0|0,1:2|1:0|1:2,0:0:0:0:
290,171,197931,1,0,1:2:0:0:
383,96,198099,2,0,P|428:91|469:85,1,80,8|0,0:0|1:2,0:0:0:0:
512,233,198436,1,0,1:2:0:0:
512,233,198605,6,0,P|435:229|386:294,1,160,2|0,1:2|1:2,0:0:0:0:
254,297,199110,1,2,1:2:0:0:
306,138,199279,2,0,P|313:177|321:216,1,80,0|8,1:2|0:0,0:0:0:0:
136,55,199616,1,8,0:0:0:0:
212,164,199784,1,8,0:0:0:0:
84,174,199953,1,12,0:0:0:0:
84,174,201133,5,12,0:1:0:0:
84,174,201470,6,0,P|77:258|71:336,1,160,4|8,1:1|0:0,0:0:0:0:
176,372,201976,1,0,0:0:0:0:
253,298,202145,2,0,B|335:252|335:323|430:275,1,160,2|8,1:2|0:0,0:0:0:0:
491,205,202650,1,0,0:0:0:0:
363,83,202818,6,0,P|367:133|369:171,1,80,2|0,1:2|1:0,0:0:0:0:
238,22,203156,2,0,P|235:68|232:110,1,80,8|0,0:0|0:0,0:0:0:0:
88,225,203493,1,2,1:2:0:0:
136,112,203662,1,0,1:0:0:0:
238,206,203830,2,0,P|278:201|324:194,1,80,8|0,0:0|0:0,0:0:0:0:
491,313,204167,6,0,P|425:276|346:296,1,160,2|8,1:2|0:0,0:0:0:0:
259,365,204673,2,0,P|176:353|96:340,1,160,2|0,0:0|0:0,0:0:0:0:
7,248,205178,1,8,0:0:0:0:
122,199,205347,6,0,P|148:120|107:55,1,160,2|0,0:0|0:0,0:0:0:0:
215,2,205853,1,8,0:0:0:0:
338,118,206020,2,0,P|293:112|252:107,1,80,2|0,0:0|1:0,0:0:0:0:
408,46,206358,1,0,1:0:0:0:
479,136,206527,2,0,P|474:179|469:217,1,80,8|0,0:0|0:0,0:0:0:0:
391,312,206864,6,0,B|341:286|341:286|223:298,1,160,4|8,1:1|0:0,0:0:0:0:
136,369,207369,1,0,0:0:0:0:
67,274,207537,2,0,P|61:209|52:112,1,160,2|8,1:2|0:0,0:0:0:0:
128,31,208044,1,0,0:0:0:0:
244,137,208211,6,0,P|201:134|155:130,1,80,2|0,1:2|1:0,0:0:0:0:
327,68,208549,1,8,0:0:0:0:
399,153,208718,1,0,0:0:0:0:
334,244,208886,2,0,P|291:241|245:237,1,80,2|0,1:2|1:0,0:0:0:0:
123,338,209223,2,0,P|166:335|212:331,1,80,8|0,0:0|0:0,0:0:0:0:
50,267,209560,6,0,P|45:202|36:101,1,160,2|8,1:2|0:0,0:0:0:0:
160,15,210065,2,0,B|138:55|138:55|150:182,1,160,2|0,0:0|1:0,0:0:0:0:
321,92,210572,2,0,P|273:89|232:87,1,80,8|0,0:0|0:0,0:0:0:0:
357,191,210908,6,0,P|433:166|502:198,1,160,2|8,1:2|0:0,0:0:0:0:
396,357,211414,1,0,0:0:0:0:
298,301,211583,2,0,P|253:305|213:308,1,80,10|0,1:2|0:0,0:0:0:0:
101,278,211920,1,8,0:0:0:0:
106,251,212004,1,8,0:0:0:0:
112,224,212089,1,8,0:0:0:0:
118,197,212173,1,8,0:0:0:0:
124,170,212257,6,0,P|117:116|112:80,1,80,4|0,1:1|1:0,0:0:0:0:
199,0,212593,1,8,0:0:0:0:
289,111,212763,1,0,0:0:0:0:
289,111,212847,1,8,0:0:0:0:
289,111,212931,2,0,P|331:103|380:93,1,80,0|0,1:0|0:0,0:0:0:0:
501,187,213268,1,8,0:0:0:0:
374,183,213437,1,0,0:0:0:0:
430,273,213605,6,0,P|425:317|420:354,1,80,2|0,1:2|1:0,0:0:0:0:
374,183,213942,1,8,0:0:0:0:
286,278,214110,2,0,P|239:274|120:265,1,160,2|0,0:0|1:0,0:0:0:0:
229,89,214617,1,8,0:0:0:0:
132,178,214785,1,2,0:0:0:0:
132,178,214869,1,0,0:0:0:0:
132,178,214954,5,8,1:2:0:0:
141,16,215122,1,0,1:0:0:0:
238,184,215291,1,8,0:0:0:0:
39,152,215459,2,0,L|-1:161,2,40,0|0|8,0:0|0:0|1:2,0:0:0:0:
229,89,215796,1,0,0:0:0:0:
177,254,215965,1,8,0:0:0:0:
337,219,216133,1,8,0:0:0:0:
337,219,216218,1,8,0:0:0:0:
337,219,216302,6,0,L|382:222,1,40,8|0,1:2|0:0,0:0:0:0:
497,124,216470,2,0,L|457:121,1,40,8|0,1:2|1:0,0:0:0:0:
307,71,216639,1,8,3:0:0:0:
268,79,216723,1,8,0:3:0:0:
229,89,216808,1,8,0:3:0:0:
190,99,216892,1,8,0:3:0:0:
151,109,216976,5,4,3:3:0:0:
118,131,217060,1,4,0:3:0:0:
98,165,217144,1,4,0:3:0:0:
95,205,217228,1,4,0:3:0:0:
110,241,217313,2,0,L|107:288,1,40,0|0,1:2|1:2,0:0:0:0:
222,375,217482,2,0,L|219:335,1,40,0|0,1:2|0:0,0:0:0:0:
307,216,217650,6,0,P|356:218|401:215,1,80,12|0,1:2|1:0,0:0:0:0:
446,109,217987,1,8,0:0:0:0:
251,28,218156,1,0,0:0:0:0:
251,28,218240,1,8,0:0:0:0:
251,28,218324,2,0,P|256:72|261:121,1,80,8|0,1:2|1:0,0:0:0:0:
117,226,218662,1,8,0:0:0:0:
138,110,218830,1,0,1:0:0:0:
255,284,218998,6,0,P|309:276|345:269,1,80,8|0,1:2|1:0,0:0:0:0:
507,173,219336,2,0,P|453:165|417:158,1,80,8|0,0:0|0:0,0:0:0:0:
388,150,219589,1,8,0:0:0:0:
388,150,219673,1,8,1:2:0:0:
260,21,219841,1,0,1:0:0:0:
279,198,220010,1,8,0:0:0:0:
364,44,220178,1,0,1:0:0:0:
200,112,220347,6,0,P|158:112|113:108,1,80,8|0,1:2|1:0,0:0:0:0:
17,191,220684,1,8,0:0:0:0:
142,296,220853,1,0,0:0:0:0:
142,296,220937,1,8,0:0:0:0:
142,296,221020,2,0,P|138:245|133:201,1,80,8|0,1:2|1:0,0:0:0:0:
264,339,221358,1,8,0:0:0:0:
232,218,221527,1,0,1:0:0:0:
340,262,221695,6,0,P|390:254|427:248,1,80,8|0,1:2|1:0,0:0:0:0:
496,109,222032,1,8,0:0:0:0:
333,67,222201,1,2,0:0:0:0:
411,171,222369,1,8,1:2:0:0:
398,7,222537,1,0,1:0:0:0:
285,140,222706,2,0,P|245:136|199:132,1,80,8|0,0:0|1:0,0:0:0:0:
71,254,223044,6,0,P|149:226|226:255,1,160,12|8,1:2|0:0,0:0:0:0:
297,347,223549,1,0,0:0:0:0:
297,347,223633,1,8,0:0:0:0:
297,347,223718,2,0,P|344:335|386:332,1,80,8|0,1:2|1:0,0:0:0:0:
498,284,224055,1,8,0:0:0:0:
367,211,224223,1,0,1:0:0:0:
470,100,224392,6,0,P|466:150|463:190,1,80,8|0,1:2|1:0,0:0:0:0:
392,31,224729,2,0,P|350:27|305:23,1,80,8|0,0:0|0:0,0:0:0:0:
270,19,224982,1,8,0:0:0:0:
270,19,225066,1,8,1:2:0:0:
297,133,225235,1,0,1:0:0:0:
119,91,225403,2,0,P|161:87|206:83,1,80,8|0,0:0|1:0,0:0:0:0:
54,175,225740,6,0,P|60:253|66:345,1,160,12|8,1:2|0:0,0:0:0:0:
174,361,226246,2,0,P|219:315|325:323,1,160,6|0,0:0|0:0,0:0:0:0:
405,372,226751,1,8,0:0:0:0:
489,297,226920,1,0,1:0:0:0:
397,219,227089,6,0,B|394:167|394:167|412:120|412:120|403:51,1,160,12|0,1:2|0:0,0:0:0:0:
253,7,227594,1,0,1:0:0:0:
293,137,227763,1,8,1:2:0:0:
141,75,227931,1,8,0:0:0:0:
109,72,228015,1,8,0:0:0:0:
78,81,228099,1,8,0:0:0:0:
52,99,228183,1,8,0:0:0:0:
34,126,228268,1,8,0:0:0:0:
27,157,228352,1,0,0:0:0:0:
30,188,228436,6,0,P|29:237|21:352,1,160,12|8,1:2|0:0,0:0:0:0:
183,168,228942,1,0,1:0:0:0:
117,258,229110,1,8,1:2:0:0:
203,330,229279,2,0,P|256:326|297:324,1,80,2|8,1:2|0:0,0:0:0:0:
421,279,229617,1,0,1:2:0:0:
342,199,229785,6,0,P|330:116|386:60,1,160,8|8,1:2|0:0,0:0:0:0:
278,11,230291,1,0,1:0:0:0:
197,85,230459,2,0,P|148:76|114:69,1,80,8|0,1:2|1:0,0:0:0:0:
7,190,230796,1,8,0:0:0:0:
119,159,230965,1,0,1:0:0:0:
199,284,231133,6,0,P|150:275|102:267,1,88.000002685547,12|0,1:2|1:0,0:0:0:0:
274,361,231471,2,0,P|313:353|366:347,1,88.000002685547,8|0,0:0|0:0,0:0:0:0:
473,266,231808,2,0,P|481:223|494:170,1,95.9999970703126,8|0,1:2|1:0,0:0:0:0:
396,55,232145,2,0,P|387:94|376:151,1,95.9999970703126,8|0,0:0|0:0,0:0:0:0:
287,227,232482,6,0,P|221:186|135:205,1,160,10|0,1:2|0:0,0:0:0:0:
38,119,232987,1,8,0:0:0:0:
155,15,233155,2,0,P|149:64|143:113,1,80,8|8,1:2|0:0,0:0:0:0:
74,264,233493,1,8,0:0:0:0:
212,169,233662,1,8,0:0:0:0:
212,169,235178,6,0,P|302:156|377:144,1,160,12|8,1:2|0:0,0:0:0:0:
512,273,235684,2,0,P|445:241|363:272,1,160,10|0,1:2|1:2,0:0:0:0:
283,345,236190,1,8,0:0:0:0:
203,266,236357,2,0,P|209:210|221:94,1,160,12|4,1:2|0:3,0:0:0:0:
145,35,236771,5,4,0:3:0:0:
145,35,236854,2,0,L|102:39,3,40,8|0|4|0,0:3|0:0|0:3|0:0,0:0:0:0:
219,106,237186,2,0,L|258:109,3,40,8|0|0|0,0:3|0:0|1:0|1:0,0:0:0:0:
401,52,237518,1,8,0:3:0:0:
401,52,237601,1,8,0:3:0:0:
401,52,237684,1,8,0:3:0:0:
401,52,237767,1,8,0:3:0:0:
401,52,237850,6,0,P|393:122|380:216,1,160,12|0,1:2|0:0,0:0:0:0:
307,296,238348,2,0,P|241:260|156:279,1,160,12|0,1:2|0:0,0:0:0:0:
60,223,238857,1,8,0:0:0:0:
129,61,239027,6,0,P|133:104|136:152,1,80,8|0,1:2|1:0,0:0:0:0:
247,191,239283,1,8,0:3:0:0:
247,191,239369,1,8,0:3:0:0:
247,191,239456,1,8,0:3:0:0:
247,191,239542,1,8,0:3:0:0:
247,191,239629,1,8,0:3:0:0:
247,191,239715,2,0,L|288:188,3,40,4|0|0|0,0:3|1:0|1:0|1:0,0:0:0:0:
403,159,240061,5,8,0:3:0:0:
403,159,240148,1,8,0:3:0:0:
403,159,240234,1,8,0:3:0:0:
395,206,240318,1,8,0:3:0:0:
388,253,240402,1,12,0:3:0:0:
381,300,240486,1,12,0:3:0:0:
372,346,240571,6,0,L|202:331,1,160,12|8,1:2|0:0,0:0:0:0:
60,215,241076,2,0,P|142:240|214:198,1,160,8|0,1:2|1:0,0:0:0:0:
254,103,241582,1,8,0:0:0:0:
364,177,241750,6,0,B|358:230|358:230|370:284|370:284|360:359,1,160,8|0,1:2|1:2,0:0:0:0:
175,341,242256,1,8,0:0:0:0:
175,341,242340,1,8,0:0:0:0:
175,341,242424,1,8,0:0:0:0:
125,150,242593,1,8,0:0:0:0:
236,246,242762,1,8,0:0:0:0:
236,246,242846,1,8,0:0:0:0:
236,246,242930,2,0,L|281:248,1,40,8|0,0:0|0:0,0:0:0:0:
385,331,243099,2,0,L|340:333,1,40,8|0,0:0|0:0,0:0:0:0:
463,226,243267,6,0,P|467:182|471:129,1,80,4|0,1:1|1:0,0:0:0:0:
355,43,243604,2,0,P|358:82|361:122,1,80,8|0,0:0|1:0,0:0:0:0:
236,246,243941,1,0,1:0:0:0:
261,117,244110,1,0,1:0:0:0:
116,39,244278,2,0,P|125:92|130:126,1,80,8|0,0:0|0:0,0:0:0:0:
103,159,244531,1,8,0:0:0:0:
103,159,244615,6,0,P|129:233|88:311,1,160,4|8,1:0|0:0,0:0:0:0:
230,382,245121,1,0,1:0:0:0:
219,204,245290,1,8,1:2:0:0:
332,288,245458,1,12,0:3:0:0:
358,296,245542,1,12,0:3:0:0:
385,292,245627,1,12,0:3:0:0:
410,279,245711,1,8,0:3:0:0:
430,260,245795,1,12,0:3:0:0:
444,236,245879,1,8,0:3:0:0:
453,209,245964,6,0,P|449:163|446:121,1,80,12|0,1:2|1:0,0:0:0:0:
366,41,246301,1,8,0:0:0:0:
281,132,246469,2,0,P|235:125|117:107,1,160,10|0,1:2|1:0,0:0:0:0:
17,210,246975,1,8,0:0:0:0:
116,340,247144,2,0,P|111:297|103:245,1,80,0|0,1:2|0:0,0:0:0:0:
224,194,247481,6,0,L|218:238,5,40,8|8|8|0|4|0,0:3|0:3|0:3|0:0|0:3|0:0,0:0:0:0:
309,123,247986,2,0,L|303:83,3,40,8|0|0|0,1:2|1:2|1:2|1:2,0:0:0:0:
406,62,248323,2,0,L|411:22,3,40,8|0|4|0,0:3|0:0|0:3|0:0,0:0:0:0:
456,157,248660,6,0,P|461:202|467:250,1,80,12|0,1:2|1:0,0:0:0:0:
402,357,248997,1,8,0:0:0:0:
301,230,249166,2,0,B|257:211|257:211|130:230,1,160,10|8,1:2|0:0,0:0:0:0:
99,217,249587,1,8,0:0:0:0:
93,210,249672,1,8,0:0:0:0:
87,203,249756,1,8,0:0:0:0:
81,197,249840,6,0,P|50:124|82:53,1,160,4|0,1:2|1:2,0:0:0:0:
219,80,250346,2,0,P|270:76|310:71,1,80,8|0,0:0|1:2,0:0:0:0:
473,182,250683,2,0,L|426:178,3,40,0|0|0|0,1:2|0:0|0:2|0:0,0:0:0:0:
342,226,251020,1,8,0:0:0:0:
331,251,251104,1,8,0:0:0:0:
321,277,251188,1,8,0:0:0:0:
311,303,251273,1,8,0:0:0:0:
301,329,251357,6,0,P|259:329|212:327,1,80,12|0,1:2|1:0,0:0:0:0:
123,257,251694,1,8,0:0:0:0:
234,165,251863,2,0,P|226:94|216:1,1,160,10|0,1:2|1:0,0:0:0:0:
375,159,252368,1,8,0:0:0:0:
325,293,252537,6,0,P|262:263|160:290,1,160,2|0,1:2|1:0,0:0:0:0:
67,206,253042,2,0,L|23:212,3,40,8|0|4|0,0:3|0:0|0:3|0:0,0:0:0:0:
144,122,253379,2,0,L|188:128,3,40,4|0|0|0,1:2|1:2|1:2|1:2,0:0:0:0:
265,61,253717,1,4,0:3:0:0:
265,61,253801,1,4,0:3:0:0:
265,61,253885,1,4,0:3:0:0:
265,61,253969,1,4,0:3:0:0:
265,61,254054,6,0,B|325:49|325:49|367:63|367:63|435:54,1,160,4|8,1:0|0:0,0:0:0:0:
511,141,254559,1,0,1:0:0:0:
424,303,254728,2,0,P|426:260|428:221,1,80,2|0,1:2|1:0,0:0:0:0:
302,135,255065,1,8,0:0:0:0:
322,259,255233,1,0,1:0:0:0:
188,186,255402,6,0,P|111:191|26:196,1,160,2|8,1:2|0:0,0:0:0:0:
111,287,255908,1,8,0:0:0:0:
111,287,255992,1,0,0:0:0:0:
111,287,256076,2,0,L|107:331,1,40,8|8,1:2|0:3,0:0:0:0:
203,384,256245,2,0,L|206:344,1,40,8|0,0:3|0:0,0:0:0:0:
274,251,256413,2,0,P|270:228|265:202,3,40,12|8|8|8,0:3|0:3|0:3|0:3,0:0:0:0:
308,114,256750,6,0,P|374:71|455:93,1,160,12|8,1:3|0:0,0:0:0:0:
232,14,257256,1,0,1:0:0:0:
166,107,257424,2,0,P|170:151|174:197,1,80,2|0,1:2|1:0,0:0:0:0:
46,298,257762,1,8,0:0:0:0:
72,184,257930,1,0,1:0:0:0:
188,324,258099,6,0,P|261:313|362:304,1,160,4|8,1:0|1:2,0:0:0:0:
455,219,258604,1,0,1:2:0:0:
331,117,258773,2,0,P|338:159|345:204,1,80,2|0,1:2|1:2,0:0:0:0:
386,36,259110,1,8,1:2:0:0:
261,0,259278,1,0,1:2:0:0:
187,106,259447,6,0,P|194:148|201:193,1,80,4|0,1:0|1:0,0:0:0:0:
134,297,259784,1,8,0:0:0:0:
241,351,259953,2,0,P|325:329|415:319,1,160,2|0,1:2|1:2,0:0:0:0:
512,221,260458,2,0,P|469:215|427:211,1,80,8|0,0:0|1:2,0:0:0:0:
332,138,260795,6,0,P|339:91|346:40,1,80,4|0,1:0|1:0,0:0:0:0:
195,10,261132,1,8,0:0:0:0:
240,122,261301,1,0,1:0:0:0:
41,195,261469,1,8,1:2:0:0:
86,63,261638,1,8,0:0:0:0:
165,285,261806,1,8,0:0:0:0:
149,146,261975,1,8,0:0:0:0:
263,323,262144,6,0,P|351:305|426:291,1,160,4|8,1:0|1:2,0:0:0:0:
512,189,262649,2,0,P|436:195|375:139,1,160,2|0,0:0|1:0,0:0:0:0:
341,32,263155,1,8,0:0:0:0:
247,127,263323,6,0,P|171:121|97:117,1,120,2|0,1:2|0:0,0:0:0:0:
37,143,263650,1,4,0:3:0:0:
37,143,263733,1,4,0:3:0:0:
37,143,263816,2,0,L|41:194,3,40,4|4|4|0,0:3|0:3|0:3|1:0,0:0:0:0:
117,233,264150,2,0,L|113:272,3,40,4|4|4|0,0:3|0:3|0:3|1:0,0:0:0:0:
185,331,264483,1,8,0:3:0:0:
216,328,264566,1,8,0:3:0:0:
247,325,264650,1,8,0:3:0:0:
279,322,264733,1,8,0:3:0:0:
310,319,264841,6,0,P|357:323|409:326,1,80,4|0,1:0|1:0,0:0:0:0:
512,214,265174,1,8,0:0:0:0:
335,93,265341,1,0,1:0:0:0:
372,231,265507,1,8,1:2:0:0:
438,61,265674,1,0,1:0:0:0:
235,87,265841,2,0,P|195:86|146:83,1,80,8|0,0:0|1:0,0:0:0:0:
186,256,266174,5,12,1:2:0:0:
130,162,266342,1,0,1:0:0:0:
118,325,266511,1,8,0:0:0:0:
254,188,266679,1,0,1:0:0:0:
76,238,266848,5,10,1:2:0:0:
281,304,267016,1,8,0:0:0:0:
44,233,267185,1,8,0:0:0:0:
307,95,267353,1,8,0:0:0:0:
256,192,267522,12,0,272915,0:0:0:0:
