osu file format v14

[General]
AudioFilename: audio.mp3
AudioLeadIn: 0
PreviewTime: 200037
Countdown: 0
SampleSet: None
StackLeniency: 0.7
Mode: 0
LetterboxInBreaks: 0
WidescreenStoryboard: 1

[Editor]
DistanceSpacing: 1.2
BeatDivisor: 4
GridSize: 32
TimelineZoom: 2.2

[Metadata]
Title:Hi FiVE!
TitleUnicode:Hi FiVE!
Artist:LiSA
ArtistUnicode:LiSA
Creator:vick
Version:Hard
Source:
Tags:織部里沙 risa oribe LiSA BEST -Way- deca kibbleru narcissu totoizn japanese rock
BeatmapID:2675857
BeatmapSetID:480669

[Difficulty]
HPDrainRate:5
CircleSize:3.5
OverallDifficulty:6
ApproachRate:8
SliderMultiplier:1.4
SliderTickRate:1

[Events]
//Background and Video events
0,0,"thanks lasse.jpg",0,0
//Break Periods
2,167920,177779
//Storyboard Layer 0 (Background)
//Storyboard Layer 1 (Fail)
//Storyboard Layer 2 (Pass)
//Storyboard Layer 3 (Foreground)
//Storyboard Layer 4 (Overlay)
//Storyboard Sound Samples

[TimingPoints]
11356,337.078651685393,4,2,1,100,1,0
14053,-133.333333333333,4,2,1,60,0,0
16749,-100,4,2,1,60,0,0
24839,-133.333333333333,4,2,1,60,0,0
35120,306.122448979592,4,2,1,60,1,0
35273,337.078651685393,4,2,1,60,1,0
35610,337.078651685393,4,2,1,60,1,0
35610,-117.647058823529,4,2,1,60,0,0
43699,-100,4,2,1,60,0,0
59879,340.909090909091,4,2,1,60,1,0
61583,337.078651685393,4,2,1,60,1,0
62257,326.086956521739,4,2,1,60,1,0
62583,337.362946303064,4,2,1,75,1,1
62583,-83.3333333333333,4,2,1,75,0,1
77426,-83.3333333333333,4,2,1,60,0,0
78101,331.491712707182,4,2,1,60,1,0
78763,337.362946303064,4,2,1,75,1,1
78763,-83.3333333333333,4,2,1,75,0,1
90908,333.889816360601,4,2,1,60,1,1
90908,-83.3333333333333,4,2,1,60,0,1
92243,340.909090909091,4,2,1,60,1,1
92243,-83.3333333333333,4,2,1,60,0,1
93606,334.261838440111,4,2,1,60,1,1
93606,-83.3333333333333,4,2,1,60,0,1
94943,338.983050847458,4,2,1,60,1,0
97654,331.491712707182,4,2,1,60,1,0
98979,339.462517680339,4,2,1,60,1,0
100336,337.078651685393,4,2,1,60,1,0
100336,-100,4,2,1,60,0,0
122414,-200,4,2,1,60,0,0
122920,-100,4,2,1,60,0,0
124605,-83.3333333333333,4,2,1,75,0,1
139437,-100,4,2,1,60,0,0
140785,-83.3333333333333,4,2,1,75,0,1
156965,-100,4,2,1,60,0,0
167583,-100,4,2,1,60,0,0
177864,342.857142857143,4,2,1,60,1,0
178549,337.078651685393,4,2,1,60,1,0
178549,-133.333333333333,4,2,1,60,0,0
189335,-100,4,2,1,60,0,0
201470,-83.3333333333333,4,2,1,60,0,1
201471,-83.3333333333333,4,2,1,80,0,1
216301,-100,4,2,1,70,0,0
217650,-83.3333333333333,4,2,1,80,0,1
233661,-100,4,2,1,70,0,0
236357,331.858407079646,4,2,1,70,1,0
238348,339.943342776204,4,2,1,70,1,0
239197,345.821325648415,4,2,1,70,1,0
240234,337.078651685393,4,2,1,70,1,0
240571,337.078651685393,4,2,1,70,1,0
263650,333.333333333333,4,2,1,70,1,0
263650,-100,4,2,1,70,0,0
264841,333.333333333333,4,2,1,70,1,0
266174,337.078651685393,4,2,1,70,1,0
272915,-100,4,2,1,5,0,0

[Colours]
Combo1 : 85,255,170
Combo2 : 255,128,128
Combo3 : 176,230,255

[HitObjects]
41,276,14053,6,0,P|79:279|115:281,1,52.5000020027161,2|0,1:2|0:0,0:0:0:0:
168,254,14390,1,2,1:2:0:0:
168,254,14558,2,0,P|184:199|164:146,1,105.000004005432,2|0,0:0|0:0,0:0:0:0:
113,100,15064,1,2,1:2:0:0:
171,46,15233,6,0,P|224:42|292:38,1,105.000004005432,2|0,0:0|0:0,0:0:0:0:
338,85,15738,2,0,P|336:113|333:145,1,52.5000020027161,2|2,1:2|0:0,0:0:0:0:
377,202,16075,5,2,1:2:0:0:
159,154,16412,1,10,0:3:0:0:
159,154,16749,6,0,P|86:170|67:240,1,140,6|8,1:2|0:0,0:0:0:0:
116,309,17255,2,0,P|188:302|259:294,1,140,2|0,1:2|1:2,0:0:0:0:
346,330,17761,1,8,0:0:0:0:
423,271,17929,6,0,B|427:220|427:220|413:172|413:172|415:127,1,140,2|0,1:2|1:1,0:0:0:0:
364,48,18435,2,0,P|329:34|286:35,1,70,8|0,0:0|1:0,0:0:0:0:
270,127,18772,2,0,P|235:141|205:172,1,70,8|0,0:3|1:0,0:0:0:0:
259,249,19109,2,0,P|244:284|246:327,1,70,8|0,0:3|1:2,0:0:0:0:
160,367,19446,6,0,P|107:356|21:334,1,140,4|8,1:1|0:0,0:0:0:0:
77,252,19952,1,0,1:0:0:0:
77,252,20120,2,0,P|105:189|64:117,1,140,2|8,1:2|0:0,0:0:0:0:
106,33,20626,1,0,1:0:0:0:
188,84,20794,6,0,P|223:77|262:69,1,70,2|0,1:2|1:0,0:0:0:0:
348,103,21131,1,8,0:0:0:0:
348,103,21300,2,0,P|331:140|338:184,1,70,2|0,1:2|0:0,0:0:0:0:
407,231,21637,2,0,P|405:267|386:308,1,70,2|8,1:2|0:0,0:0:0:0:
300,332,21974,1,2,1:2:0:0:
256,192,22143,12,0,24502,0:0:0:0:
300,332,24839,6,0,P|246:316|196:320,1,105.000004005432,6|0,0:0|0:0,0:0:0:0:
115,303,25345,1,2,0:0:0:0:
154,229,25513,2,0,P|151:176|148:112,1,105.000004005432,0|2,0:0|0:0,0:0:0:0:
191,51,26019,1,0,0:0:0:0:
191,51,26188,6,0,P|248:29|302:42,1,105.000004005432,2|0,0:0|0:0,0:0:0:0:
352,91,26693,1,2,0:0:0:0:
352,91,26862,2,0,P|400:85|425:80,2,52.5000020027161,0|0|0,0:0|0:0|0:0,0:0:0:0:
279,133,27367,1,0,0:0:0:0:
334,196,27536,6,0,P|330:235|325:317,1,105.000004005432,2|0,0:0|0:0,0:0:0:0:
259,353,28042,1,0,0:0:0:0:
190,305,28210,2,0,P|160:299|125:299,1,52.5000020027161,0|2,0:0|0:0,0:0:0:0:
66,253,28547,2,0,P|63:221|54:194,1,52.5000020027161,0|0,0:0|0:0,0:0:0:0:
123,150,28884,6,0,P|119:96|138:45,1,105.000004005432,2|2,0:0|0:0,0:0:0:0:
217,30,29390,1,0,0:0:0:0:
217,30,29558,2,0,P|248:26|284:21,1,52.5000020027161,2|0,0:0|0:0,0:0:0:0:
351,44,29896,2,0,P|356:76|359:98,1,52.5000020027161,2|0,0:0|0:0,0:0:0:0:
436,128,30233,6,0,P|419:183|427:238,1,105.000004005432,2|0,0:0|0:0,0:0:0:0:
392,306,30738,1,0,0:0:0:0:
392,306,30907,2,0,P|339:303|269:299,1,105.000004005432,2|0,0:0|0:0,0:0:0:0:
219,250,31412,6,0,P|164:242|108:262,1,105.000004005432,2|0,0:0|0:0,0:0:0:0:
33,246,31918,1,2,0:0:0:0:
33,246,32087,1,0,0:0:0:0:
68,170,32255,2,0,P|64:141|60:111,1,52.5000020027161,0|2,0:0|0:0,0:0:0:0:
145,121,32592,2,0,P|149:92|153:62,1,52.5000020027161,2|2,0:0|0:0,0:0:0:0:
230,39,32929,6,0,P|285:32|350:22,1,105.000004005432,0|2,0:0|0:0,0:0:0:0:
411,58,33435,1,0,0:0:0:0:
411,58,33603,2,0,P|408:88|405:115,1,52.5000020027161,2|0,0:0|0:0,0:0:0:0:
355,177,33940,1,2,0:0:0:0:
391,252,34109,1,2,0:0:0:0:
256,192,34278,12,8,35273,0:3:0:0:
391,252,35610,6,0,P|330:244|266:237,1,119.000002269745,6|8,1:2|0:0,0:0:0:0:
200,176,36115,1,2,0:2:0:0:
200,176,36199,1,0,1:0:0:0:
200,176,36284,2,0,P|166:180|139:187,1,59.5000011348725,0|0,1:2|0:0,0:0:0:0:
55,144,36621,2,0,P|70:113|78:84,1,59.5000011348725,8|0,0:0|0:0,0:0:0:0:
154,33,36958,6,0,P|212:25|283:13,1,119.000002269745,2|8,1:2|0:0,0:0:0:0:
353,63,37463,2,0,L|395:68,2,29.7500005674362,2|0|0,0:0|1:0|1:2,0:0:0:0:
274,117,37801,1,0,1:0:0:0:
348,175,37969,2,0,P|345:205|341:235,1,59.5000011348725,8|0,0:0|0:0,0:0:0:0:
285,311,38306,6,0,P|228:333|154:311,1,119.000002269745,2|8,1:2|0:0,0:0:0:0:
96,265,38812,1,0,0:0:0:0:
96,265,38896,1,0,1:0:0:0:
96,265,38980,2,0,P|99:202|103:129,1,119.000002269745,0|8,1:2|0:0,0:0:0:0:
144,60,39486,1,0,0:0:0:0:
226,106,39654,6,0,P|259:100|287:94,1,59.5000011348725,2|0,1:2|1:0,0:0:0:0:
379,109,39992,1,8,0:0:0:0:
349,199,40160,1,0,0:0:0:0:
349,199,40244,1,0,1:0:0:0:
349,199,40329,2,0,P|346:234|351:269,1,59.5000011348725,0|0,1:0|1:0,0:0:0:0:
323,350,40666,1,8,0:0:0:0:
258,280,40834,1,0,0:0:0:0:
190,347,41003,6,0,P|134:359|63:326,1,119.000002269745,6|8,1:2|0:0,0:0:0:0:
35,253,41508,2,0,L|-1:250,2,29.7500005674362,2|0|0,0:0|1:0|1:0,0:0:0:0:
123,218,41845,1,0,0:0:0:0:
65,142,42014,2,0,P|62:107|58:71,1,59.5000011348725,8|0,0:0|0:0,0:0:0:0:
122,11,42351,6,0,P|177:17|255:26,1,119.000002269745,2|8,1:2|0:0,0:0:0:0:
309,90,42857,1,2,0:0:0:0:
309,90,42941,1,0,1:0:0:0:
309,90,43025,2,0,P|340:85|381:76,1,59.5000011348725,0|0,1:0|1:0,0:0:0:0:
453,121,43362,1,12,0:0:0:0:
453,121,43699,6,0,P|448:194|444:265,1,140,4|8,1:1|0:0,0:0:0:0:
372,328,44205,1,2,0:0:0:0:
310,251,44374,2,0,P|322:214|333:179,1,70,0|0,1:0|1:0,0:0:0:0:
293,93,44711,1,8,0:0:0:0:
210,145,44879,6,0,P|138:151|84:104,1,140,2|0,1:2|1:0,0:0:0:0:
8,168,45385,1,8,0:0:0:0:
82,231,45553,1,2,1:2:0:0:
82,231,45638,1,8,0:0:0:0:
82,231,45722,2,0,P|78:267|73:304,1,70,8|8,1:2|0:3,0:0:0:0:
146,366,46059,1,4,0:3:0:0:
228,313,46227,6,0,P|298:293|381:268,1,140,4|0,1:1|1:0,0:0:0:0:
460,281,46733,1,8,0:0:0:0:
493,188,46902,1,2,0:0:0:0:
493,188,46986,1,8,0:0:0:0:
493,188,47070,2,0,P|486:149|480:116,1,70,0|0,1:0|1:0,0:0:0:0:
380,95,47407,2,0,P|386:129|392:163,1,70,8|0,0:0|0:0,0:0:0:0:
318,228,47744,6,0,P|261:218|173:204,1,140,2|8,1:2|0:0,0:0:0:0:
95,154,48250,2,0,L|89:112,2,35,0|8|0,0:0|0:0|1:0,0:0:0:0:
28,226,48587,1,0,1:0:0:0:
107,284,48756,2,0,P|150:277|186:271,1,70,8|0,0:0|0:0,0:0:0:0:
269,302,49093,6,0,P|340:269|400:285,1,140,2|8,1:2|0:0,0:0:0:0:
465,214,49598,1,0,0:0:0:0:
465,214,49683,1,8,0:0:0:0:
465,214,49767,2,0,P|469:170|472:138,1,70,0|0,1:0|1:0,0:0:0:0:
426,56,50104,1,8,0:0:0:0:
244,130,50441,6,0,P|206:133|124:74,1,140,4|8,1:1|0:0,0:0:0:0:
38,121,50947,2,0,P|33:164|28:195,1,70,0|0,0:0|1:0,0:0:0:0:
52,285,51284,1,8,0:0:0:0:
141,245,51452,1,8,0:0:0:0:
162,340,51621,1,8,0:0:0:0:
250,298,51789,6,0,P|309:294|409:286,1,140,4|8,1:1|0:0,0:0:0:0:
463,222,52295,2,0,P|480:156|431:93,1,140,2|0,1:2|1:2,0:0:0:0:
357,51,52801,1,8,0:0:0:0:
281,112,52969,6,0,P|218:103|136:88,1,140,4|0,1:0|1:0,0:0:0:0:
50,123,53475,2,0,P|37:160|39:196,1,70,8|2,0:0|1:2,0:0:0:0:
130,222,53812,2,0,P|146:257|173:281,1,70,8|8,1:2|0:0,0:0:0:0:
256,235,54149,1,8,0:0:0:0:
271,242,54233,1,8,0:0:0:0:
288,247,54317,1,8,0:0:0:0:
305,248,54401,1,8,0:0:0:0:
323,247,54486,6,0,P|376:241|471:228,1,140,4|8,1:1|0:0,0:0:0:0:
489,134,54992,2,0,L|504:99,2,35,2|8|0,0:0|0:0|1:0,0:0:0:0:
401,89,55329,1,0,0:0:0:0:
316,137,55497,2,0,P|282:130|244:109,1,70,8|0,0:0|0:0,0:0:0:0:
168,60,55834,6,0,P|161:137|151:213,1,140,2|8,1:2|0:0,0:0:0:0:
66,244,56340,1,2,0:0:0:0:
66,244,56424,1,8,0:0:0:0:
66,244,56508,2,0,P|71:281|95:317,1,70,0|0,1:0|1:2,0:0:0:0:
172,356,56845,2,0,P|212:352|258:347,1,70,8|0,0:0|1:2,0:0:0:0:
298,268,57183,6,0,P|370:251|444:294,1,140,2|0,1:2|0:0,0:0:0:0:
492,202,57688,2,0,P|482:140|469:52,1,140,2|0,1:2|0:0,0:0:0:0:
382,19,58194,2,0,P|345:14|298:25,1,70,2|0,1:2|0:0,0:0:0:0:
259,101,58531,6,0,P|211:97|103:88,1,140,2|0,1:2|0:0,0:0:0:0:
49,157,59036,2,0,P|24:223|66:300,1,140,2|0,1:2|0:0,0:0:0:0:
137,325,59542,2,0,P|189:317|219:312,1,70,2|8,1:2|0:0,0:0:0:0:
291,268,59879,6,0,P|322:204|312:123,1,140,6|8,1:2|0:0,0:0:0:0:
278,46,60390,1,8,0:0:0:0:
189,5,60560,1,8,0:0:0:0:
111,65,60731,2,0,P|120:104|128:142,1,70,8|8,0:0|0:0,0:0:0:0:
191,206,61072,5,8,0:0:0:0:
260,294,61242,1,8,0:0:0:0:
98,340,61413,1,8,0:0:0:0:
105,228,61583,1,8,0:0:0:0:
189,352,61751,1,8,0:0:0:0:
189,352,62257,5,12,0:1:0:0:
189,352,62583,6,0,P|272:329|368:330,1,167.999994873047,4|8,1:1|0:0,0:0:0:0:
449,296,63089,1,0,0:0:0:0:
449,296,63257,2,0,P|445:253|441:209,1,83.9999974365235,0|0,1:0|0:0,0:0:0:0:
431,111,63595,2,0,P|390:99|340:105,1,83.9999974365235,8|0,0:0|0:0,0:0:0:0:
269,156,63932,6,0,P|211:148|96:132,1,167.999994873047,2|8,1:2|0:0,0:0:0:0:
36,203,64438,1,0,0:0:0:0:
46,299,64607,2,0,P|88:289|123:248,1,83.9999974365235,2|0,1:2|1:0,0:0:0:0:
165,177,64944,1,8,0:0:0:0:
165,177,65281,6,0,P|157:92|151:7,1,167.999994873047,4|8,1:0|0:0,0:0:0:0:
238,50,65787,2,0,P|279:45|321:38,1,83.9999974365235,2|0,0:0|1:0,0:0:0:0:
412,66,66125,2,0,P|435:101|439:143,1,83.9999974365235,0|8,1:2|0:0,0:0:0:0:
424,238,66462,1,2,0:0:0:0:
331,201,66631,6,0,P|284:195|163:176,1,167.999994873047,0|8,0:0|0:0,0:0:0:0:
91,112,67137,1,2,0:0:0:0:
53,196,67306,2,0,P|60:240|68:292,1,83.9999974365235,0|0,1:0|0:0,0:0:0:0:
160,325,67643,2,0,P|153:283|146:242,1,83.9999974365235,8|0,0:0|0:0,0:0:0:0:
214,174,67980,6,0,P|299:150|370:188,1,167.999994873047,4|8,1:1|0:0,0:0:0:0:
406,272,68486,1,0,0:0:0:0:
485,216,68655,2,0,P|489:167|478:133,1,83.9999974365235,2|0,1:2|0:0,0:0:0:0:
416,60,68992,1,8,0:0:0:0:
416,60,69161,1,0,0:0:0:0:
332,108,69330,6,0,P|285:103|239:97,1,83.9999974365235,2|0,1:2|1:0,0:0:0:0:
134,183,69667,2,0,P|181:178|227:172,1,83.9999974365235,8|0,0:0|0:0,0:0:0:0:
298,225,70004,2,0,P|310:266|292:314,1,83.9999974365235,2|0,1:2|1:2,0:0:0:0:
215,354,70342,1,8,0:0:0:0:
215,354,70679,6,0,P|156:303|58:309,1,167.999994873047,2|8,1:2|0:0,0:0:0:0:
23,218,71185,1,2,0:0:0:0:
76,137,71354,2,0,B|133:127|133:127|180:145|180:145|260:137,1,167.999994873047,0|8,0:0|0:0,0:0:0:0:
308,70,71860,1,0,0:0:0:0:
308,70,72029,6,0,P|389:85|417:184,1,167.999994873047,2|8,1:2|0:0,0:0:0:0:
363,233,72535,1,2,0:0:0:0:
363,233,72619,1,0,0:0:0:0:
363,233,72703,2,0,P|367:276|373:321,1,83.9999974365235,8|0,1:2|1:2,0:0:0:0:
283,355,73041,2,0,L|237:348,3,41.9999987182618,8|8|8|8,0:0|0:0|0:0|0:0,0:0:0:0:
203,318,73378,6,0,P|156:318|113:323,1,83.9999974365235,4|0,1:1|1:0,0:0:0:0:
42,262,73715,1,8,0:0:0:0:
101,185,73884,1,2,0:0:0:0:
101,185,73968,1,8,0:0:0:0:
101,185,74053,2,0,P|112:145|100:93,1,83.9999974365235,0|0,1:0|0:0,0:0:0:0:
154,20,74390,2,0,P|201:16|248:11,1,83.9999974365235,8|0,0:0|0:0,0:0:0:0:
326,51,74728,5,2,1:2:0:0:
326,51,74896,2,0,P|367:47|417:54,1,83.9999974365235,0|8,1:0|0:0,0:0:0:0:
480,118,75234,2,0,P|467:168|444:288,1,167.999994873047,2|0,0:0|1:2,0:0:0:0:
367,340,75740,2,0,P|361:296|358:254,1,83.9999974365235,8|0,0:0|0:0,0:0:0:0:
313,170,76077,5,8,0:2:0:0:
222,135,76246,1,0,1:0:0:0:
214,230,76414,2,0,P|207:274|200:324,1,83.9999974365235,8|0,0:0|1:2,0:0:0:0:
105,296,76752,2,0,P|112:340|119:390,2,83.9999974365235,8|0|8,1:2|1:2|0:0,0:0:0:0:
28,236,77258,1,0,0:0:0:0:
86,159,77426,6,0,P|125:158|181:155,1,83.9999974365235,0|4,0:0|0:3,0:0:0:0:
290,108,77764,1,8,0:3:0:0:
290,108,77848,1,0,1:2:0:0:
290,108,77933,1,8,0:3:0:0:
290,108,78017,1,0,1:2:0:0:
290,108,78101,2,0,L|335:102,3,35,8|0|8|0,0:0|0:0|0:2|0:0,0:0:0:0:
355,76,78432,2,0,L|400:70,3,35,8|8|8|8,0:0|0:0|0:0|0:0,0:0:0:0:
430,99,78763,6,0,P|443:182|459:267,1,167.999994873047,4|8,1:1|0:0,0:0:0:0:
413,354,79269,1,0,0:0:0:0:
333,299,79437,2,0,B|293:277|293:277|152:289,1,167.999994873047,2|8,1:2|0:0,0:0:0:0:
81,250,79943,1,0,0:0:0:0:
124,163,80112,6,0,P|120:119|115:75,1,83.9999974365235,2|0,1:2|1:0,0:0:0:0:
195,25,80449,2,0,P|199:66|203:108,1,83.9999974365235,8|0,0:0|0:0,0:0:0:0:
290,151,80787,2,0,P|335:153|383:139,1,83.9999974365235,2|0,1:2|1:2,0:0:0:0:
462,106,81124,1,8,0:0:0:0:
462,106,81461,6,0,B|449:161|449:161|469:284,1,167.999994873047,2|8,1:2|0:0,0:0:0:0:
398,339,81967,2,0,P|347:286|249:293,1,167.999994873047,2|0,0:0|1:2,0:0:0:0:
179,345,82473,1,8,0:0:0:0:
98,290,82642,6,0,P|102:229|107:109,1,167.999994873047,2|0,0:0|1:0,0:0:0:0:
189,72,83148,1,8,0:0:0:0:
247,148,83317,1,0,0:0:0:0:
335,107,83486,2,0,P|329:64|323:23,2,83.9999974365235,0|0|8,1:0|1:2|0:0,0:0:0:0:
482,231,84160,6,0,P|409:219|338:277,1,167.999994873047,4|8,1:1|0:0,0:0:0:0:
288,357,84666,1,0,0:0:0:0:
199,318,84835,2,0,P|195:251|189:146,1,167.999994873047,2|8,1:2|0:0,0:0:0:0:
124,78,85341,1,0,0:0:0:0:
212,39,85510,6,0,B|270:34|270:34|315:52|315:52|385:47,1,167.999994873047,2|8,1:2|0:0,0:0:0:0:
467,102,86016,1,0,0:0:0:0:
432,191,86184,2,0,P|390:200|343:190,1,83.9999974365235,2|0,1:2|1:2,0:0:0:0:
256,166,86522,1,8,0:0:0:0:
207,249,86691,1,0,0:0:0:0:
125,197,86859,6,0,P|132:118|140:24,1,167.999994873047,4|8,1:1|0:0,0:0:0:0:
230,63,87365,2,0,P|289:85|397:45,1,167.999994873047,6|0,0:0|1:2,0:0:0:0:
470,8,87871,1,8,0:0:0:0:
507,97,88040,1,0,1:2:0:0:
429,155,88209,6,0,P|438:227|449:336,1,167.999994873047,0|8,1:0|0:2,0:0:0:0:
361,355,88715,1,0,0:0:0:0:
280,301,88883,2,0,P|290:257|300:210,1,83.9999974365235,8|8,1:2|0:0,0:0:0:0:
256,130,89221,1,8,0:0:0:0:
182,192,89389,1,8,0:0:0:0:
182,192,89474,1,8,0:0:0:0:
182,192,89558,6,0,P|100:205|35:155,1,167.999994873047,4|8,1:1|0:0,0:0:0:0:
35,59,90064,1,0,0:0:0:0:
35,59,90233,2,0,P|86:55|121:50,1,83.9999974365235,2|0,1:2|1:2,0:0:0:0:
208,86,90570,2,0,P|254:78|292:50,1,83.9999974365235,8|0,0:0|0:0,0:0:0:0:
377,89,90908,6,0,P|370:184|365:261,1,167.999994873047,2|8,1:2|0:0,0:0:0:0:
325,344,91408,1,0,0:0:0:0:
266,267,91575,2,0,P|225:260|182:266,1,83.9999974365235,2|0,1:2|1:2,0:0:0:0:
109,329,91909,1,8,0:0:0:0:
32,269,92076,1,0,1:2:0:0:
74,184,92243,6,0,P|66:139|58:92,1,83.9999974365235,14|0,1:2|1:0,0:0:0:0:
132,38,92583,2,0,P|139:79|146:120,1,83.9999974365235,8|0,0:0|0:0,0:0:0:0:
242,124,92924,2,0,P|289:128|333:119,1,83.9999974365235,10|0,1:2|1:2,0:0:0:0:
420,207,93265,2,0,P|378:200|336:204,1,83.9999974365235,8|0,0:0|0:0,0:0:0:0:
270,276,93606,6,0,P|281:328|288:361,2,83.9999974365235,10|8|8,1:2|1:2|0:0,0:0:0:0:
196,213,94107,1,10,0:0:0:0:
245,130,94274,2,0,P|310:102|402:124,1,167.999994873047,8|8,1:2|0:0,0:0:0:0:
470,191,94775,5,8,0:0:0:0:
470,191,94859,1,8,0:0:0:0:
470,191,94943,2,0,P|465:243|461:277,1,70,4|0,1:1|1:0,0:0:0:0:
441,356,95281,1,8,0:0:0:0:
363,295,95451,2,0,P|295:276|228:296,1,140,2|0,1:2|1:2,0:0:0:0:
160,364,95959,1,8,0:0:0:0:
79,308,96129,6,0,P|82:257|87:162,1,140,2|0,1:2|1:0,0:0:0:0:
168,113,96637,1,8,0:0:0:0:
231,184,96807,1,0,1:2:0:0:
291,107,96976,2,0,P|286:68|281:35,2,70,8|0|4,0:3|0:0|0:3,0:0:0:0:
231,184,97485,1,0,0:0:0:0:
319,229,97654,6,0,P|376:217|468:198,1,140,4|8,1:1|0:0,0:0:0:0:
504,285,98151,1,0,0:0:0:0:
426,344,98316,2,0,P|364:361|296:332,1,140,2|8,1:2|0:0,0:0:0:0:
227,261,98814,1,0,0:0:0:0:
189,348,98979,6,0,P|150:339|115:330,1,70,2|0,1:2|1:0,0:0:0:0:
51,261,99318,1,8,0:0:0:0:
51,261,99488,1,2,0:0:0:0:
128,201,99657,2,0,P|124:167|116:128,1,70,8|8,0:3|0:3,0:0:0:0:
215,126,99997,1,4,0:3:0:0:
168,31,100167,1,4,0:3:0:0:
287,36,100336,6,0,P|365:29|429:24,1,140,4|8,1:1|0:0,0:0:0:0:
507,96,100841,1,0,0:0:0:0:
507,96,101010,2,0,P|476:138|495:232,1,140,2|8,1:2|0:0,0:0:0:0:
454,313,101515,6,0,P|385:294|318:274,1,140,0|0,0:0|0:0,0:0:0:0:
248,206,102021,1,8,0:0:0:0:
163,255,102189,2,0,P|165:291|166:326,2,70,0|2|0,0:0|1:2|1:2,0:0:0:0:
84,196,102695,2,0,P|88:155|92:117,1,70,8|0,0:0|0:0,0:0:0:0:
163,60,103032,6,0,P|233:41|300:72,1,140,2|8,1:2|0:0,0:0:0:0:
338,152,103538,1,0,0:0:0:0:
338,152,103706,2,0,P|334:192|331:225,1,70,2|0,1:2|0:0,0:0:0:0:
373,310,104043,1,8,0:0:0:0:
373,310,104212,1,2,0:0:0:0:
283,349,104380,6,0,P|214:332|143:314,1,140,0|8,0:0|0:0,0:0:0:0:
74,248,104886,1,2,0:0:0:0:
144,179,105055,2,0,P|138:143|131:107,1,70,2|0,1:2|1:2,0:0:0:0:
177,23,105392,1,8,0:0:0:0:
177,23,105729,6,0,P|250:43|312:17,1,140,6|8,1:2|0:0,0:0:0:0:
389,74,106234,1,2,0:0:0:0:
389,74,106403,2,0,P|387:115|386:155,1,70,2|0,1:2|0:0,0:0:0:0:
335,228,106740,2,0,P|299:228|254:214,1,70,8|2,0:0|0:0,0:0:0:0:
208,139,107077,6,0,P|157:144|62:152,1,140,2|8,1:2|0:0,0:0:0:0:
3,225,107583,1,0,0:0:0:0:
70,295,107751,2,0,P|112:294|146:283,1,70,2|0,1:2|1:2,0:0:0:0:
208,355,108088,2,0,P|241:346|276:346,1,70,8|0,0:0|0:0,0:0:0:0:
368,311,108425,6,0,P|381:243|398:162,1,140,4|8,1:1|0:0,0:0:0:0:
343,90,108931,1,0,0:0:0:0:
265,150,109100,2,0,P|188:151|140:102,1,140,2|8,1:2|0:0,0:0:0:0:
97,25,109605,1,2,1:2:0:0:
20,86,109774,6,0,P|24:137|26:169,1,70,0|0,0:0|1:0,0:0:0:0:
106,211,110111,1,8,0:0:0:0:
73,303,110279,1,10,0:0:0:0:
166,334,110448,2,0,P|203:325|240:317,1,70,10|8,1:2|0:0,0:0:0:0:
331,328,110785,1,8,0:0:0:0:
274,221,110953,6,0,P|281:160|289:74,1,140,6|0,1:2|1:0,0:0:0:0:
215,15,111459,1,8,0:0:0:0:
126,58,111628,1,2,0:0:0:0:
126,58,111712,1,8,0:0:0:0:
126,58,111796,2,0,P|132:104|137:132,1,70,0|0,1:0|1:0,0:0:0:0:
57,185,112133,2,0,P|57:227|56:263,1,70,8|0,0:0|0:0,0:0:0:0:
135,313,112470,6,0,P|209:316|259:260,1,140,2|8,1:2|0:0,0:0:0:0:
222,179,112976,1,0,0:0:0:0:
222,179,113060,1,8,0:0:0:0:
222,179,113144,2,0,P|226:145|231:99,1,70,0|0,1:0|1:0,0:0:0:0:
274,21,113482,1,8,0:0:0:0:
274,21,113650,1,0,0:0:0:0:
352,79,113819,6,0,P|390:78|425:68,1,70,2|0,1:2|1:0,0:0:0:0:
483,145,114156,2,0,P|480:181|478:221,1,70,8|0,0:0|0:0,0:0:0:0:
437,242,114409,1,8,0:0:0:0:
437,242,114493,2,0,P|438:277|440:314,1,70,0|0,1:0|1:0,0:0:0:0:
354,360,114830,1,8,0:0:0:0:
354,360,115167,6,0,P|300:328|221:337,1,140,2|8,1:2|0:0,0:0:0:0:
137,291,115673,1,0,0:0:0:0:
137,291,115841,1,8,1:2:0:0:
189,208,116010,2,0,P|183:171|177:137,2,70,0|8|0,0:0|0:0|0:0,0:0:0:0:
283,234,116515,6,0,P|351:226|394:155,1,140,4|8,1:1|0:0,0:0:0:0:
372,75,117021,2,0,P|331:70|221:54,1,140,4|0,1:2|1:2,0:0:0:0:
142,93,117527,1,8,0:0:0:0:
142,93,117695,6,0,B|151:140|151:140|134:255,1,140,4|0,1:2|1:0,0:0:0:0:
217,288,118201,2,0,L|222:366,2,70,8|0|8,0:0|0:0|1:2,0:0:0:0:
274,209,118706,1,0,1:2:0:0:
354,297,118875,1,8,0:0:0:0:
354,297,118959,1,8,0:0:0:0:
354,297,119043,1,8,0:0:0:0:
354,297,119128,1,8,0:0:0:0:
354,297,119212,6,0,P|414:314|485:257,1,140,4|8,1:0|0:0,0:0:0:0:
489,177,119718,1,2,0:0:0:0:
489,177,119802,1,8,0:0:0:0:
489,177,119886,2,0,P|485:140|481:102,1,70,0|0,1:0|0:0,0:0:0:0:
418,31,120223,1,0,0:0:0:0:
418,31,120560,6,0,P|357:51|268:29,1,140,2|8,1:2|0:0,0:0:0:0:
200,89,121066,1,2,0:0:0:0:
200,89,121150,1,0,0:0:0:0:
200,89,121234,2,0,P|204:127|208:165,1,70,0|0,1:0|0:0,0:0:0:0:
140,230,121571,2,0,P|140:267|137:304,1,70,8|0,0:0|0:0,0:0:0:0:
207,369,121909,5,10,1:2:0:0:
280,304,122077,1,10,1:2:0:0:
280,304,122414,6,0,P|319:304|360:306,1,70,2|0,1:2|1:2,0:0:0:0:
448,304,122920,5,10,1:2:0:0:
415,211,123088,1,8,1:2:0:0:
415,211,123425,6,0,L|421:165,5,35,0|8|0|0|4|0,1:0|0:3|0:0|0:0|0:3|0:0,0:0:0:0:
425,127,123931,5,10,1:2:0:0:
344,70,124100,1,8,1:2:0:0:
344,70,124605,6,0,P|268:93|179:39,1,167.999994873047,4|8,1:1|0:0,0:0:0:0:
95,62,125111,1,0,0:0:0:0:
117,155,125279,2,0,P|110:199|104:243,1,83.9999974365235,2|0,1:2|0:0,0:0:0:0:
147,325,125616,2,0,P|189:341|232:337,1,83.9999974365235,8|0,0:0|0:0,0:0:0:0:
289,264,125953,6,0,P|377:271|466:277,1,167.999994873047,2|8,1:2|0:0,0:0:0:0:
501,190,126459,1,0,0:0:0:0:
508,93,126628,2,0,P|461:100|425:131,1,83.9999974365235,0|0,1:2|1:0,0:0:0:0:
399,212,126965,1,8,0:0:0:0:
399,212,127302,6,0,P|407:295|415:381,1,167.999994873047,2|8,1:2|0:0,0:0:0:0:
325,343,127807,1,2,0:0:0:0:
325,343,127976,2,0,P|284:338|231:349,1,83.9999974365235,0|0,0:0|0:0,0:0:0:0:
151,311,128313,1,8,0:0:0:0:
207,232,128482,6,0,P|199:172|186:61,1,167.999994873047,2|0,0:0|1:0,0:0:0:0:
266,12,128987,1,8,0:0:0:0:
336,77,129156,1,2,0:0:0:0:
336,77,129324,2,0,P|379:72|428:67,1,83.9999974365235,0|0,1:0|1:0,0:0:0:0:
495,128,129661,2,0,P|492:173|488:218,1,83.9999974365235,8|0,0:0|0:0,0:0:0:0:
423,283,129998,6,0,P|347:287|287:223,1,167.999994873047,4|8,1:1|0:0,0:0:0:0:
248,135,130504,1,0,0:0:0:0:
179,203,130673,2,0,P|111:192|12:171,1,167.999994873047,2|8,1:2|0:0,0:0:0:0:
3,75,131178,1,0,0:0:0:0:
78,14,131347,6,0,P|122:11|161:23,1,83.9999974365235,2|0,1:2|1:0,0:0:0:0:
214,102,131684,2,0,P|261:95|300:90,1,83.9999974365235,8|0,0:0|0:0,0:0:0:0:
365,21,132021,2,0,P|409:18|457:33,1,83.9999974365235,2|0,1:2|0:0,0:0:0:0:
488,115,132358,1,8,0:0:0:0:
488,115,132695,6,0,P|477:207|467:286,1,167.999994873047,2|8,1:2|0:0,0:0:0:0:
387,335,133201,2,0,P|323:293|221:312,1,167.999994873047,2|0,0:0|1:0,0:0:0:0:
151,349,133706,2,0,P|108:341|74:314,1,83.9999974365235,8|0,0:0|0:0,0:0:0:0:
89,221,134043,6,0,P|76:138|64:53,1,167.999994873047,2|8,1:2|0:0,0:0:0:0:
147,5,134549,1,0,0:0:0:0:
206,81,134718,2,0,P|252:75|298:68,1,83.9999974365235,8|0,1:2|1:0,0:0:0:0:
400,108,135055,1,8,0:0:0:0:
400,108,135139,1,8,0:0:0:0:
400,108,135223,1,8,0:0:0:0:
400,108,135307,1,8,0:0:0:0:
400,108,135392,6,0,P|434:181|403:265,1,167.999994873047,4|8,1:1|0:0,0:0:0:0:
342,331,135897,1,2,0:0:0:0:
265,271,136066,2,0,P|201:274|85:280,1,167.999994873047,2|8,1:2|0:0,0:0:0:0:
28,211,136571,1,0,0:0:0:0:
84,127,136740,6,0,P|76:83|69:43,2,83.9999974365235,2|0|8,1:2|1:0|0:0,0:0:0:0:
174,172,137246,2,0,P|168:219|154:347,1,167.999994873047,2|0,0:0|1:0,0:0:0:0:
252,361,137751,2,0,P|298:354|355:344,1,83.9999974365235,8|0,0:0|1:0,0:0:0:0:
416,288,138088,5,8,1:2:0:0:
385,196,138257,1,0,1:0:0:0:
295,241,138425,2,0,P|254:238|208:236,1,83.9999974365235,8|0,0:0|1:0,0:0:0:0:
130,175,138762,2,0,P|88:176|46:179,2,83.9999974365235,8|0|8,1:2|1:2|0:0,0:0:0:0:
218,125,139268,1,0,0:0:0:0:
218,125,139437,6,0,P|214:80|210:39,1,70,0|8,0:0|0:3,0:0:0:0:
287,18,139774,1,8,0:3:0:0:
287,18,139858,1,8,0:3:0:0:
287,18,139942,1,8,0:3:0:0:
287,18,140027,1,8,0:3:0:0:
287,18,140111,2,0,L|325:21,3,35,4|0|4|0,0:3|0:0|0:3|0:0,0:0:0:0:
346,54,140448,2,0,L|384:57,3,35,8|8|8|8,0:0|0:0|0:0|0:0,0:0:0:0:
422,86,140785,6,0,P|432:172|442:254,1,167.999994873047,4|8,1:1|0:0,0:0:0:0:
365,314,141291,1,0,0:0:0:0:
281,265,141459,2,0,B|195:226|195:295|106:249,1,167.999994873047,2|8,1:2|0:0,0:0:0:0:
33,207,141965,1,0,0:0:0:0:
101,138,142133,6,0,P|104:96|107:49,1,83.9999974365235,2|0,1:2|1:0,0:0:0:0:
203,16,142470,2,0,P|200:57|197:99,1,83.9999974365235,8|0,0:0|0:0,0:0:0:0:
271,161,142807,2,0,P|313:163|356:144,1,83.9999974365235,2|0,1:2|1:0,0:0:0:0:
434,97,143144,1,8,0:0:0:0:
434,97,143482,6,0,P|430:179|426:273,1,167.999994873047,2|8,1:2|0:0,0:0:0:0:
355,330,143987,2,0,P|292:282|204:292,1,167.999994873047,2|0,0:0|0:0,0:0:0:0:
110,294,144493,1,8,0:0:0:0:
148,205,144661,6,0,P|143:154|130:37,1,167.999994873047,2|0,0:0|1:0,0:0:0:0:
222,67,145167,2,0,P|273:59|312:49,1,83.9999974365235,8|0,0:0|0:0,0:0:0:0:
384,107,145504,2,0,P|427:109|473:112,2,83.9999974365235,2|0|8,1:2|1:0|0:0,0:0:0:0:
295,146,146010,1,0,0:0:0:0:
369,203,146178,6,0,P|376:288|324:355,1,167.999994873047,6|8,1:2|0:0,0:0:0:0:
233,366,146684,1,0,0:0:0:0:
219,269,146852,2,0,P|144:239|61:261,1,167.999994873047,2|8,1:2|0:0,0:0:0:0:
1,184,147358,1,0,0:0:0:0:
51,101,147527,6,0,P|95:96|144:89,1,83.9999974365235,2|0,1:2|1:0,0:0:0:0:
227,115,147864,2,0,P|268:104|304:76,1,83.9999974365235,8|0,0:0|0:0,0:0:0:0:
385,33,148201,2,0,P|387:80|403:127,1,83.9999974365235,2|0,1:2|1:0,0:0:0:0:
438,202,148538,1,8,0:0:0:0:
438,202,148875,6,0,P|356:198|263:192,1,167.999994873047,12|0,1:2|0:0,0:0:0:0:
211,268,149380,2,0,P|128:244|49:276,1,167.999994873047,14|0,0:0|0:0,0:0:0:0:
4,188,149886,1,8,0:0:0:0:
4,188,150055,1,0,0:0:0:0:
75,123,150223,6,0,B|135:117|135:117|176:135|176:135|249:127,1,167.999994873047,2|8,1:2|0:0,0:0:0:0:
309,62,150729,1,0,0:0:0:0:
385,120,150897,2,0,P|381:165|377:208,1,83.9999974365235,8|8,1:3|0:3,0:0:0:0:
288,242,151234,2,0,L|292:293,3,41.9999987182618,8|8|8|8,0:0|0:0|0:0|0:0,0:0:0:0:
274,329,151571,6,0,P|189:322|102:312,1,167.999994873047,4|8,1:1|0:0,0:0:0:0:
31,251,152077,1,0,0:0:0:0:
106,190,152246,2,0,P|101:144|96:100,1,83.9999974365235,2|0,1:2|1:0,0:0:0:0:
145,23,152583,1,8,0:0:0:0:
145,23,152751,1,0,0:0:0:0:
220,84,152920,6,0,P|312:96|381:44,1,167.999994873047,2|8,1:2|0:0,0:0:0:0:
451,111,153425,1,0,0:0:0:0:
391,187,153594,2,0,P|396:236|399:271,1,83.9999974365235,2|0,1:2|0:0,0:0:0:0:
338,346,153931,1,8,0:0:0:0:
338,346,154100,1,0,0:0:0:0:
257,293,154268,6,0,B|217:275|217:275|90:285,1,167.999994873047,6|8,1:2|0:0,0:0:0:0:
17,107,154942,2,0,P|94:142|181:110,1,167.999994873047,2|8,1:2|0:0,0:0:0:0:
240,52,155448,1,0,0:0:0:0:
240,52,155532,1,0,0:0:0:0:
240,52,155616,6,0,P|291:45|325:39,1,83.9999974365235,10|0,1:2|1:2,0:0:0:0:
415,67,155953,1,8,0:0:0:0:
361,147,156122,1,0,1:2:0:0:
452,177,156291,2,0,P|458:254|465:348,1,167.999994873047,8|8,1:2|0:3,0:0:0:0:
353,318,156796,1,4,0:3:0:0:
353,318,156880,1,0,0:0:0:0:
353,318,156965,6,0,P|358:273|363:238,2,70,12|0|8,1:2|1:0|0:0,0:0:0:0:
269,352,157470,2,0,P|195:338|123:330,1,140,10|0,1:2|0:0,0:0:0:0:
55,279,157976,1,8,0:0:0:0:
122,217,158144,6,0,P|135:146|96:87,1,140,6|8,1:2|0:0,0:0:0:0:
166,27,158650,2,0,L|206:24,3,35,8|0|4|0,0:0|0:0|0:3|0:0,0:0:0:0:
243,41,158987,2,0,L|283:38,3,35,8|8|8|8,0:3|0:3|0:3|0:3,0:0:0:0:
320,55,159324,2,0,L|360:52,3,35,4|4|0|2,0:3|0:3|1:0|0:0,0:0:0:0:
392,79,159661,6,0,L|467:79,2,70,12|0|8,1:2|1:0|0:0,0:0:0:0:
328,144,160167,2,0,P|311:181|341:276,1,140,10|0,1:2|1:0,0:0:0:0:
406,331,160673,1,8,0:0:0:0:
324,370,160841,6,0,P|254:363|175:354,1,140,4|0,1:0|1:0,0:0:0:0:
142,274,161347,2,0,L|136:232,3,35,8|0|8|8,0:3|0:0|0:2|0:3,0:0:0:0:
107,204,161684,2,0,L|101:162,3,35,8|0|8|0,0:0|0:0|0:0|0:0,0:0:0:0:
79,129,162021,2,0,L|73:87,3,35,8|0|0|0,0:0|0:0|0:0|0:0,0:0:0:0:
74,48,162358,6,0,P|39:44|-12:38,2,70,12|0|8,1:2|1:0|0:0,0:0:0:0:
157,85,162864,2,0,P|211:76|296:61,1,140,10|0,1:2|1:0,0:0:0:0:
385,69,163369,1,8,0:0:0:0:
443,139,163538,6,0,P|438:183|426:295,1,140,8|8,1:2|0:0,0:0:0:0:
368,332,164043,1,8,0:0:0:0:
365,334,164128,1,0,0:0:0:0:
362,336,164212,1,0,0:0:0:0:
359,338,164296,1,0,0:0:0:0:
356,340,164380,2,0,L|300:332,3,35,8|8|8|0,0:3|0:3|0:3|0:0,0:0:0:0:
278,353,164718,2,0,L|222:345,3,35,4|4|8|8,0:3|0:3|0:0|0:0,0:0:0:0:
202,326,165055,6,0,P|154:328|116:330,1,70,4|0,1:1|0:0,0:0:0:0:
47,248,165392,2,0,P|81:246|116:244,1,70,8|0,0:0|1:0,0:0:0:0:
200,207,165729,2,0,P|211:174|209:132,1,70,8|0,1:2|1:0,0:0:0:0:
150,70,166066,1,8,0:0:0:0:
150,70,166234,1,0,1:0:0:0:
224,17,166403,6,0,P|272:14|307:11,1,70,12|0,1:2|1:0,0:0:0:0:
375,53,166740,2,0,P|381:88|388:123,1,70,8|0,0:0|0:0,0:0:0:0:
350,205,167077,2,0,L|344:319,2,105,8|8|4,0:3|0:3|1:2,0:0:0:0:
350,205,178549,6,0,P|299:198|243:188,1,105.000004005432,2|0,0:0|1:0,0:0:0:0:
181,136,179054,1,0,0:0:0:0:
181,136,179223,2,0,P|151:143|70:157,1,105.000004005432,8|0,0:0|0:0,0:0:0:0:
17,213,179728,6,0,P|15:274|14:327,1,105.000004005432,2|0,1:2|0:0,0:0:0:0:
91,352,180234,1,0,1:2:0:0:
91,352,180402,2,0,P|143:326|204:329,1,105.000004005432,2|0,1:2|0:0,0:0:0:0:
267,354,180908,1,0,0:0:0:0:
267,354,181245,6,0,P|330:347|381:341,1,105.000004005432,2|0,0:0|1:2,0:0:0:0:
443,298,181751,2,0,P|451:271|451:239,1,52.5000020027161,2|8,0:0|0:0,0:0:0:0:
403,178,182088,1,0,0:0:0:0:
403,178,182256,1,0,0:0:0:0:
321,200,182425,6,0,P|280:197|202:190,1,105.000004005432,2|0,1:2|0:0,0:0:0:0:
155,133,182931,2,0,P|122:137|98:140,2,52.5000020027161,2|0|8,1:2|1:2|0:0,0:0:0:0:
215,74,183436,2,0,P|249:73|275:73,1,52.5000020027161,0|2,0:0|0:0,0:0:0:0:
348,96,183773,1,0,0:0:0:0:
348,96,183942,6,0,P|406:100|454:80,1,105.000004005432,2|0,0:0|1:2,0:0:0:0:
499,149,184447,1,0,0:0:0:0:
499,149,184616,2,0,P|496:193|490:261,1,105.000004005432,8|0,0:0|0:0,0:0:0:0:
418,297,185122,6,0,P|382:293|308:285,1,105.000004005432,2|0,1:2|0:0,0:0:0:0:
243,240,185627,1,0,1:2:0:0:
243,240,185796,2,0,P|195:258|135:241,1,105.000004005432,2|0,1:2|0:0,0:0:0:0:
89,183,186301,2,0,P|91:149|92:126,1,52.5000020027161,0|0,0:0|0:0,0:0:0:0:
157,78,186638,6,0,P|199:63|273:33,1,105.000004005432,2|0,0:0|1:2,0:0:0:0:
328,82,187144,2,0,P|386:71|446:94,1,105.000004005432,2|0,0:0|0:0,0:0:0:0:
473,154,187650,1,0,0:0:0:0:
421,220,187818,6,0,P|424:248|434:329,1,105.000004005432,2|8,1:2|0:0,0:0:0:0:
361,368,188324,1,0,0:0:0:0:
361,368,188492,1,0,1:2:0:0:
315,297,188661,2,0,P|279:300|250:302,1,52.5000020027161,10|0,1:2|0:0,0:0:0:0:
223,285,188914,1,8,0:0:0:0:
223,285,188998,2,0,P|196:283|170:280,1,52.5000020027161,8|8,0:0|0:0,0:0:0:0:
161,189,189335,6,0,P|93:194|-1:202,2,140,4|8|2,1:1|0:0|1:2,0:0:0:0:
239,141,190178,1,0,0:0:0:0:
239,141,190346,2,0,P|242:104|231:72,1,70,8|0,0:0|0:0,0:0:0:0:
310,27,190683,6,0,P|345:24|387:21,1,70,2|0,1:2|0:0,0:0:0:0:
461,62,191020,1,8,0:0:0:0:
461,62,191189,1,0,0:0:0:0:
425,145,191357,2,0,P|428:185|443:220,1,70,0|0,1:2|0:0,0:0:0:0:
349,233,191695,2,0,P|360:265|362:300,1,70,8|0,0:0|0:0,0:0:0:0:
287,351,192032,6,0,P|222:346|130:335,2,140,2|8|0,1:2|0:0|1:0,0:0:0:0:
362,300,192874,1,0,0:0:0:0:
362,300,193043,2,0,P|403:293|445:289,1,70,8|2,0:0|0:0,0:0:0:0:
481,213,193380,6,0,P|487:142|493:70,1,140,0|8,0:0|0:0,0:0:0:0:
408,38,193886,1,2,0:0:0:0:
408,38,193970,1,8,0:0:0:0:
408,38,194054,2,0,P|371:43|331:50,1,70,8|8,1:2|0:0,0:0:0:0:
265,103,194391,1,8,0:0:0:0:
183,61,194560,1,8,0:0:0:0:
124,130,194728,6,0,P|119:173|116:207,1,70,2|0,1:2|1:0,0:0:0:0:
34,239,195065,2,0,P|39:282|42:316,1,70,0|0,0:0|1:2,0:0:0:0:
119,356,195402,1,8,0:2:0:0:
119,356,195571,1,0,1:2:0:0:
196,308,195740,2,0,P|232:307|269:308,1,70,2|0,1:2|1:2,0:0:0:0:
348,347,196077,6,0,P|387:343|421:331,1,70,2|0,1:2|1:2,0:0:0:0:
462,254,196414,2,0,P|465:213|468:174,1,70,2|0,1:2|1:2,0:0:0:0:
434,99,196751,1,8,0:0:0:0:
434,99,196919,1,0,1:2:0:0:
352,139,197088,2,0,P|311:140|279:134,1,70,2|0,1:2|1:2,0:0:0:0:
200,95,197425,6,0,P|198:56|196:18,2,70,2|0|0,1:2|1:0|1:2,0:0:0:0:
130,154,197931,1,0,1:2:0:0:
130,154,198099,2,0,P|126:192|124:230,1,70,8|0,0:0|1:2,0:0:0:0:
168,303,198436,1,0,1:2:0:0:
240,247,198605,6,0,P|313:227|387:258,1,140,2|0,1:2|1:2,0:0:0:0:
459,221,199110,1,2,1:2:0:0:
459,221,199279,2,0,P|456:179|458:144,1,70,0|8,1:2|0:0,0:0:0:0:
501,71,199616,1,8,0:0:0:0:
426,18,199784,1,8,0:0:0:0:
370,90,199953,1,12,0:0:0:0:
370,90,201133,5,12,0:1:0:0:
370,90,201470,6,0,P|277:110|218:75,1,167.999994873047,4|8,1:1|0:0,0:0:0:0:
144,12,201975,1,0,0:0:0:0:
83,87,202144,2,0,P|93:139|100:176,1,83.9999974365235,2|0,1:2|0:0,0:0:0:0:
39,245,202481,2,0,P|63:285|86:315,1,83.9999974365235,8|0,0:0|0:0,0:0:0:0:
174,352,202818,6,0,P|263:343|343:333,1,167.999994873047,2|8,1:2|0:0,0:0:0:0:
406,262,203324,1,0,0:0:0:0:
324,210,203492,2,0,P|319:124|388:71,1,167.999994873047,2|8,1:2|0:0,0:0:0:0:
298,16,203998,1,0,0:0:0:0:
226,80,204166,6,0,P|149:75|40:67,1,167.999994873047,2|8,1:2|0:0,0:0:0:0:
7,150,204672,2,0,P|15:193|24:242,1,83.9999974365235,2|0,0:0|0:0,0:0:0:0:
97,293,205009,1,0,0:0:0:0:
97,293,205178,1,8,0:0:0:0:
167,226,205346,6,0,P|256:206|326:250,1,167.999994873047,2|0,0:0|0:0,0:0:0:0:
378,318,205852,1,8,0:0:0:0:
378,318,206020,1,2,0:0:0:0:
450,253,206189,2,0,P|442:208|435:167,1,83.9999974365235,0|0,1:0|1:0,0:0:0:0:
392,83,206526,1,8,0:0:0:0:
392,83,206863,6,0,P|306:85|237:27,1,167.999994873047,4|8,1:1|0:0,0:0:0:0:
171,102,207369,1,0,0:0:0:0:
237,171,207537,2,0,P|229:248|217:345,1,167.999994873047,2|8,1:2|0:0,0:0:0:0:
308,303,208043,1,0,0:0:0:0:
308,303,208211,6,0,P|354:296|404:288,1,83.9999974365235,2|0,1:2|1:0,0:0:0:0:
463,186,208548,2,0,P|421:192|379:198,1,83.9999974365235,8|0,0:0|0:0,0:0:0:0:
288,164,208886,2,0,P|245:144|226:113,1,83.9999974365235,2|0,1:2|1:0,0:0:0:0:
218,17,209223,1,8,0:0:0:0:
218,17,209560,6,0,P|140:24|46:28,1,167.999994873047,2|8,1:2|0:0,0:0:0:0:
23,120,210065,2,0,B|52:153|52:153|36:288,1,167.999994873047,2|0,0:0|1:0,0:0:0:0:
106,344,210571,1,8,0:0:0:0:
106,344,210740,1,0,0:0:0:0:
175,277,210908,6,0,P|169:233|163:191,1,83.9999974365235,2|0,1:2|0:0,0:0:0:0:
204,106,211245,1,8,0:0:0:0:
285,157,211414,1,0,0:0:0:0:
285,157,211498,1,0,0:0:0:0:
285,157,211582,2,0,P|330:150|372:142,1,83.9999974365235,10|0,1:2|0:0,0:0:0:0:
455,184,211919,2,0,L|463:237,3,41.9999987182618,8|8|8|8,0:0|0:0|0:0|0:0,0:0:0:0:
444,271,212256,6,0,P|391:267|347:262,1,83.9999974365235,4|0,1:1|1:0,0:0:0:0:
275,311,212593,2,0,P|231:315|179:321,1,83.9999974365235,8|0,0:0|0:0,0:0:0:0:
101,280,212931,2,0,P|58:250|47:138,1,167.999994873047,0|8,1:0|0:0,0:0:0:0:
102,64,213436,1,0,0:0:0:0:
186,110,213605,6,0,P|231:102|276:90,1,83.9999974365235,2|0,1:2|1:0,0:0:0:0:
340,28,213942,1,8,0:0:0:0:
413,89,214110,2,0,P|410:162|405:267,1,167.999994873047,2|0,0:0|1:0,0:0:0:0:
331,318,214616,1,8,0:0:0:0:
331,318,214784,1,2,0:0:0:0:
259,252,214953,6,0,P|266:208|273:166,1,83.9999974365235,8|0,1:2|1:0,0:0:0:0:
194,82,215290,2,0,P|187:123|180:164,1,83.9999974365235,8|0,0:0|0:0,0:0:0:0:
141,194,215543,1,0,0:0:0:0:
141,194,215627,2,0,P|143:241|150:288,1,83.9999974365235,8|0,1:2|0:0,0:0:0:0:
222,339,215964,2,0,P|272:333|316:328,1,83.9999974365235,8|8,0:0|0:0,0:0:0:0:
419,259,216301,5,8,1:2:0:0:
419,259,216386,1,0,0:0:0:0:
419,259,216470,1,8,1:2:0:0:
419,259,216554,1,0,1:0:0:0:
419,259,216638,2,0,L|431:212,3,35,8|8|8|8,3:0|0:3|0:3|0:3,0:0:0:0:
408,189,216975,2,0,L|413:153,3,35,4|4|4|4,3:3|0:3|0:3|0:3,0:0:0:0:
392,118,217313,2,0,L|393:82,3,35,0|0|0|0,1:2|1:2|1:2|0:0,0:0:0:0:
355,51,217650,6,0,P|273:37|182:21,1,167.999994873047,12|8,1:2|0:0,0:0:0:0:
95,41,218155,1,0,0:0:0:0:
127,132,218324,2,0,P|122:173|116:221,1,83.9999974365235,8|0,1:2|1:0,0:0:0:0:
152,305,218661,2,0,P|194:324|255:323,1,83.9999974365235,8|0,0:0|1:0,0:0:0:0:
311,272,218998,6,0,P|357:266|400:260,1,83.9999974365235,8|0,1:2|1:0,0:0:0:0:
458,188,219335,1,8,0:0:0:0:
458,188,219504,1,0,0:0:0:0:
404,107,219672,2,0,P|365:93|318:97,1,83.9999974365235,8|0,1:2|1:0,0:0:0:0:
234,135,220009,2,0,P|192:131|143:125,1,83.9999974365235,8|0,0:0|1:0,0:0:0:0:
59,160,220346,6,0,P|68:228|84:332,1,167.999994873047,8|8,1:2|0:0,0:0:0:0:
176,352,220852,2,0,P|249:307|324:326,1,167.999994873047,0|0,0:0|1:0,0:0:0:0:
416,354,221357,2,0,P|460:332|478:288,1,83.9999974365235,8|0,0:0|1:0,0:0:0:0:
442,211,221695,6,0,P|438:160|427:36,1,167.999994873047,8|8,1:2|0:0,0:0:0:0:
347,97,222200,1,2,0:0:0:0:
347,97,222369,2,0,P|305:90|252:81,1,83.9999974365235,8|0,1:2|1:0,0:0:0:0:
188,16,222706,1,8,0:0:0:0:
121,91,222874,1,0,1:0:0:0:
182,171,223043,6,0,B|187:224|187:224|169:282|169:282|176:342,1,167.999994873047,12|8,1:2|0:0,0:0:0:0:
84,377,223548,1,0,0:0:0:0:
20,298,223717,2,0,P|12:252|25:199,1,83.9999974365235,8|0,1:2|1:0,0:0:0:0:
102,159,224054,2,0,P|105:113|109:58,1,83.9999974365235,8|0,0:0|1:0,0:0:0:0:
195,25,224391,6,0,P|263:16|347:92,1,167.999994873047,8|8,1:2|0:0,0:0:0:0:
331,173,224897,1,0,0:0:0:0:
331,173,224981,1,8,0:0:0:0:
331,173,225065,2,0,P|326:216|322:264,1,83.9999974365235,8|0,1:2|1:0,0:0:0:0:
256,333,225402,2,0,P|215:342|171:333,1,83.9999974365235,8|0,0:0|1:0,0:0:0:0:
78,300,225740,6,0,P|71:240|58:119,1,167.999994873047,12|8,1:2|0:0,0:0:0:0:
150,90,226245,2,0,P|208:32|293:30,1,167.999994873047,6|0,0:0|0:0,0:0:0:0:
375,82,226751,2,0,P|370:137|367:179,1,83.9999974365235,8|0,0:0|1:0,0:0:0:0:
325,257,227088,6,0,P|275:257|193:165,1,167.999994873047,12|0,1:2|0:0,0:0:0:0:
150,90,227593,1,0,1:0:0:0:
65,141,227762,1,8,1:2:0:0:
90,238,227931,1,8,0:0:0:0:
90,238,228015,1,8,0:0:0:0:
90,238,228099,2,0,L|86:280,3,41.9999987182618,8|8|8|0,0:0|0:0|0:0|0:0,0:0:0:0:
122,315,228436,6,0,P|180:351|282:327,1,167.999994873047,12|8,1:2|0:0,0:0:0:0:
366,269,228942,1,0,1:0:0:0:
366,269,229110,2,0,P|360:227|353:178,1,83.9999974365235,8|2,1:2|1:2,0:0:0:0:
405,103,229447,1,8,0:0:0:0:
405,103,229616,1,0,1:2:0:0:
326,46,229784,6,0,B|273:27|273:27|216:44|216:44|152:32,1,167.999994873047,8|8,1:2|0:0,0:0:0:0:
78,78,230290,1,0,1:0:0:0:
117,166,230459,2,0,P|113:209|107:256,2,83.9999974365235,8|0|8,1:2|1:0|0:0,0:0:0:0:
206,131,230964,1,0,1:0:0:0:
258,212,231133,6,0,P|334:250|416:222,1,167.999994873047,12|8,1:2|0:0,0:0:0:0:
447,138,231638,1,0,0:0:0:0:
385,62,231807,2,0,P|298:53|207:42,1,167.999994873047,8|8,1:2|0:0,0:0:0:0:
129,83,232313,1,0,0:0:0:0:
129,83,232481,6,0,P|136:130|141:172,1,83.9999974365235,10|0,1:2|0:0,0:0:0:0:
71,234,232818,1,0,0:0:0:0:
71,234,232987,1,8,0:0:0:0:
140,300,233155,2,0,P|188:294|231:288,1,83.9999974365235,8|8,1:2|0:0,0:0:0:0:
287,216,233492,1,8,0:0:0:0:
351,324,233661,1,8,0:0:0:0:
351,324,235178,6,0,P|429:320|474:255,1,140,12|8,1:2|0:0,0:0:0:0:
434,184,235683,2,0,P|430:127|424:39,1,140,10|0,1:2|1:2,0:0:0:0:
331,12,236189,1,8,0:0:0:0:
278,95,236357,6,0,P|206:104|146:62,1,140,12|4,1:2|0:3,0:0:0:0:
59,102,236854,2,0,L|51:145,3,35,8|0|4|0,0:3|0:0|0:3|0:0,0:0:0:0:
72,181,237186,2,0,L|67:223,3,35,8|0|0|0,0:3|0:0|1:0|1:0,0:0:0:0:
90,260,237518,2,0,L|87:304,3,35,8|8|8|8,0:3|0:3|0:3|0:3,0:0:0:0:
112,337,237850,6,0,P|167:330|262:320,1,140,12|0,1:2|0:0,0:0:0:0:
346,335,238348,2,0,P|401:294|476:291,1,140,12|0,1:2|0:0,0:0:0:0:
502,196,238857,1,8,0:0:0:0:
502,196,239027,1,8,1:2:0:0:
432,129,239197,6,0,L|391:132,3,35,0|8|8|8,1:0|0:3|0:3|0:3,0:0:0:0:
353,108,239542,2,0,L|312:111,3,35,8|8|4|0,0:3|0:3|0:3|1:0,0:0:0:0:
275,84,239888,2,0,L|234:87,3,35,0|0|8|8,1:0|1:0|0:3|0:3,0:0:0:0:
189,89,240234,1,8,0:3:0:0:
164,92,240318,1,8,0:3:0:0:
139,96,240402,1,12,0:3:0:0:
114,100,240486,1,12,0:3:0:0:
89,105,240571,6,0,P|44:148|53:237,1,140,12|8,1:2|0:0,0:0:0:0:
107,287,241076,2,0,P|181:277|249:268,1,140,8|0,1:2|1:0,0:0:0:0:
332,295,241582,1,8,0:0:0:0:
405,242,241750,6,0,B|426:201|426:201|412:96,1,140,8|0,1:2|1:2,0:0:0:0:
348,44,242256,1,8,0:0:0:0:
272,94,242424,1,8,0:0:0:0:
272,94,242509,1,0,0:0:0:0:
272,94,242593,2,0,L|231:92,3,35,8|0|8|8,0:0|0:0|0:0|0:0,0:0:0:0:
197,68,242930,2,0,L|156:66,3,35,8|0|8|0,0:0|0:0|0:0|0:0,0:0:0:0:
122,89,243267,6,0,P|88:132|101:235,1,140,4|8,1:1|0:0,0:0:0:0:
151,280,243773,1,0,1:0:0:0:
222,224,243941,2,0,P|262:221|302:217,1,70,0|0,1:0|1:0,0:0:0:0:
372,261,244278,1,8,0:0:0:0:
433,193,244447,1,0,0:0:0:0:
433,193,244531,1,8,0:0:0:0:
433,193,244615,6,0,P|439:153|444:115,1,70,4|0,1:0|0:0,0:0:0:0:
353,104,244953,2,0,P|347:64|342:26,2,70,8|0|8,0:0|1:0|1:2,0:0:0:0:
280,158,245458,1,12,0:3:0:0:
280,158,245542,1,12,0:3:0:0:
280,158,245627,2,0,P|242:152|211:144,1,70,12|12,0:3|0:3,0:0:0:0:
132,189,245964,6,0,P|68:201|26:266,1,140,12|8,1:2|0:0,0:0:0:0:
71,338,246469,2,0,P|115:334|214:323,1,140,10|0,1:2|1:0,0:0:0:0:
295,354,246975,1,8,0:0:0:0:
365,296,247144,6,0,P|357:257|348:207,1,70,0|0,1:2|0:0,0:0:0:0:
395,147,247481,1,8,0:3:0:0:
329,83,247649,2,0,P|292:79|250:91,1,70,8|4,0:3|0:3,0:0:0:0:
228,118,247902,1,0,0:0:0:0:
228,118,247986,2,0,P|191:115|142:110,1,70,8|0,1:2|1:2,0:0:0:0:
70,138,248323,1,8,0:3:0:0:
70,138,248408,1,0,0:0:0:0:
70,138,248492,1,4,0:3:0:0:
129,206,248660,6,0,P|120:275|113:346,1,140,12|8,1:2|0:0,0:0:0:0:
201,323,249166,2,0,P|278:305|345:335,1,140,10|8,1:2|0:0,0:0:0:0:
405,269,249672,1,8,0:0:0:0:
405,269,249756,1,8,0:0:0:0:
405,269,249840,6,0,P|413:234|437:132,1,140,4|0,1:2|1:2,0:0:0:0:
384,58,250346,1,8,0:0:0:0:
313,115,250514,2,0,P|276:108|236:103,1,70,0|0,1:2|1:2,0:0:0:0:
160,140,250851,1,0,0:2:0:0:
160,140,250936,1,0,0:0:0:0:
160,140,251020,2,0,L|121:140,3,35,8|8|8|8,0:0|0:0|0:0|0:0,0:0:0:0:
82,158,251357,6,0,P|76:199|57:303,1,140,12|8,1:2|0:0,0:0:0:0:
133,347,251863,2,0,P|199:333|221:253,1,140,10|0,1:2|1:0,0:0:0:0:
178,192,252368,1,8,0:0:0:0:
210,106,252537,6,0,P|259:64|349:67,1,140,2|0,1:2|1:0,0:0:0:0:
412,102,253042,2,0,L|418:143,3,35,8|0|4|0,0:3|0:0|0:3|0:0,0:0:0:0:
398,178,253379,2,0,L|404:219,3,35,4|0|0|0,1:2|1:2|1:2|1:2,0:0:0:0:
435,245,253717,2,0,L|441:286,3,35,4|4|4|4,0:3|0:3|0:3|0:3,0:0:0:0:
427,323,254054,6,0,P|367:329|281:337,1,140,4|8,1:0|0:0,0:0:0:0:
206,295,254559,1,0,1:0:0:0:
252,216,254728,2,0,P|256:179|262:137,1,70,2|0,1:2|1:0,0:0:0:0:
320,77,255065,1,8,0:0:0:0:
320,77,255233,1,0,1:0:0:0:
244,25,255402,6,0,P|198:29|87:42,1,140,2|8,1:2|0:0,0:0:0:0:
40,104,255908,1,8,0:0:0:0:
40,104,255992,1,0,0:0:0:0:
40,104,256076,2,0,P|50:142|56:177,1,70,8|8,1:2|0:3,0:0:0:0:
128,227,256413,2,0,L|126:265,3,35,12|8|8|8,0:3|0:3|0:3|0:3,0:0:0:0:
137,306,256750,6,0,P|180:304|226:302,1,70,12|0,1:3|0:0,0:0:0:0:
286,347,257087,1,8,0:0:0:0:
370,313,257256,2,0,P|397:253|395:173,1,140,0|0,1:0|1:0,0:0:0:0:
383,89,257762,1,8,0:0:0:0:
314,29,257930,1,0,1:0:0:0:
269,108,258099,6,0,P|213:122|134:96,1,140,4|8,1:0|1:2,0:0:0:0:
72,33,258604,1,0,1:2:0:0:
19,107,258773,2,0,P|29:143|39:181,1,70,2|0,1:2|1:2,0:0:0:0:
28,265,259110,1,8,1:2:0:0:
28,265,259278,1,0,1:2:0:0:
116,286,259447,6,0,P|156:276|199:265,1,70,4|0,1:0|1:0,0:0:0:0:
249,205,259784,1,8,0:0:0:0:
303,278,259953,2,0,P|346:305|437:294,1,140,2|0,1:2|1:2,0:0:0:0:
490,227,260458,1,8,0:0:0:0:
454,142,260627,1,0,1:2:0:0:
367,167,260795,6,0,P|323:173|221:181,1,140,4|8,1:0|0:0,0:0:0:0:
150,229,261301,1,0,1:0:0:0:
83,166,261469,2,0,P|78:131|73:91,1,70,8|8,1:2|0:0,0:0:0:0:
129,24,261806,1,8,0:0:0:0:
217,3,261975,1,8,0:0:0:0:
243,90,262144,6,0,P|280:102|382:75,1,140,4|8,1:0|1:2,0:0:0:0:
435,147,262649,2,0,P|426:205|417:296,1,140,2|0,0:0|1:0,0:0:0:0:
344,340,263155,1,8,0:0:0:0:
263,297,263323,2,0,P|220:302|163:311,1,70,2|0,1:2|0:0,0:0:0:0:
90,272,263650,5,4,0:3:0:0:
90,272,263733,1,4,0:3:0:0:
90,272,263816,2,0,L|86:232,3,35,4|4|4|0,0:3|0:3|0:3|1:0,0:0:0:0:
98,192,264150,2,0,L|94:152,3,35,4|4|4|0,0:3|0:3|0:3|1:0,0:0:0:0:
108,113,264483,2,0,L|104:73,3,35,8|8|8|8,0:3|0:3|0:3|0:3,0:0:0:0:
144,30,264841,6,0,P|180:25|218:19,1,70,4|0,1:0|1:0,0:0:0:0:
292,64,265174,1,8,0:0:0:0:
292,64,265341,1,0,1:0:0:0:
238,137,265507,2,0,P|236:175|235:211,1,70,8|0,1:2|1:0,0:0:0:0:
157,256,265841,2,0,P|161:294|166:332,1,70,8|0,0:0|1:0,0:0:0:0:
249,356,266174,6,0,P|297:354|331:351,1,70,12|0,1:2|1:0,0:0:0:0:
405,322,266511,2,0,P|418:290|415:249,1,70,8|0,0:0|1:0,0:0:0:0:
386,166,266847,1,10,1:2:0:0:
275,124,267016,1,8,0:0:0:0:
352,90,267185,1,8,0:0:0:0:
310,201,267353,1,8,0:0:0:0:
