osu file format v14

[General]
AudioFilename: audio.mp3
AudioLeadIn: 0
PreviewTime: 200037
Countdown: 0
SampleSet: None
StackLeniency: 0.7
Mode: 0
LetterboxInBreaks: 0
WidescreenStoryboard: 1

[Editor]
Bookmarks: 124605,245964
DistanceSpacing: 0.9
BeatDivisor: 4
GridSize: 32
TimelineZoom: 1.8

[Metadata]
Title:Hi FiVE!
TitleUnicode:Hi FiVE!
Artist:LiSA
ArtistUnicode:LiSA
Creator:vick
Version:DeKibb's Extra
Source:
Tags:織部里沙 risa oribe LiSA BEST -Way- deca kibbleru narcissu totoizn japanese rock
BeatmapID:2732592
BeatmapSetID:480669

[Difficulty]
HPDrainRate:6
CircleSize:4
OverallDifficulty:8
ApproachRate:9.2
SliderMultiplier:1.8
SliderTickRate:1

[Events]
//Background and Video events
0,0,"thanks lasse.jpg",0,0
//Break Periods
2,170648,177979
//Storyboard Layer 0 (Background)
//Storyboard Layer 1 (Fail)
//Storyboard Layer 2 (Pass)
//Storyboard Layer 3 (Foreground)
//Storyboard Layer 4 (Overlay)
//Storyboard Sound Samples

[TimingPoints]
11356,337.078651685393,4,2,1,60,1,0
14053,-166.666666666667,4,2,1,60,0,0
15064,-142.857142857143,4,2,1,60,0,0
15401,-125,4,2,1,60,0,0
16075,-83.3333333333333,4,2,1,60,0,0
16749,-100,4,2,1,60,0,0
18772,-133.333333333333,4,2,1,60,0,0
19109,-200,4,2,1,60,0,0
19446,-100,4,2,1,60,0,0
24839,-133.333333333333,4,2,1,60,0,0
35120,306.122448979592,4,2,1,60,1,0
35273,337.078651685393,4,2,1,60,1,0
35610,337.078651685393,4,2,1,60,1,0
35610,-117.647058823529,4,2,1,60,0,0
43699,-100,4,2,1,60,0,0
46733,-111.111111111111,4,2,1,60,0,0
57183,-90.9090909090908,4,2,1,60,0,0
59542,-83.3333333333333,4,2,1,60,0,0
59879,340.909090909091,4,2,1,60,1,0
61583,337.078651685393,4,2,1,60,1,0
62257,326.086956521739,4,2,1,60,1,0
62583,337.362946303064,4,2,1,75,1,1
62583,-100,4,2,1,75,0,1
77426,-100,4,2,1,60,0,0
78101,331.491712707182,4,2,1,60,1,0
78101,-83.3333333333333,4,2,1,60,0,0
78763,337.362946303064,4,2,1,75,1,1
78763,-100,4,2,1,75,0,1
90908,333.889816360601,4,2,1,60,1,1
90908,-100,4,2,1,60,0,1
92243,340.909090909091,4,2,1,60,1,1
92243,-100,4,2,1,60,0,1
93606,334.261838440111,4,2,1,60,1,1
94943,338.983050847458,4,2,1,60,1,0
96976,-133.333333333333,4,2,1,60,0,0
97313,-200,4,2,1,60,0,0
97654,331.491712707182,4,2,1,60,1,0
97654,-100,4,2,1,60,0,0
98979,339.462517680339,4,2,1,60,1,0
100336,337.078651685393,4,2,1,60,1,0
100336,-117.647058823529,4,2,1,60,0,0
110953,-100,4,2,1,60,0,0
111459,-111.111111111111,4,2,1,60,0,0
122414,-200,4,2,1,60,0,0
123762,-83.3333333333333,4,2,1,60,0,0
124605,-100,4,2,1,75,0,1
139437,-100,4,2,1,60,0,1
140111,-83.3333333333333,4,2,1,60,0,0
140785,-100,4,2,1,75,0,1
156965,-100,4,2,1,60,0,0
163538,-83.3333333333333,4,2,1,60,0,0
163875,-100,4,2,1,60,0,0
167583,-100,4,2,1,60,0,0
177864,342.857142857143,4,2,1,60,1,0
178549,337.078651685393,4,2,1,60,1,0
178549,-125,4,2,1,60,0,0
188661,-100,4,2,1,60,0,0
200122,-333.333333333333,4,2,1,60,0,0
201470,-100,4,2,1,80,0,1
216301,-100,4,2,1,70,0,0
216638,-83.3333333333333,4,2,1,70,0,0
217650,-100,4,2,1,80,0,1
233492,-142.857142857143,4,2,1,80,0,1
233661,-100,4,2,1,70,0,0
236357,331.858407079646,4,2,1,70,1,0
238348,339.943342776204,4,2,1,70,1,0
239197,345.821325648415,4,2,1,70,1,0
240061,-83.3333333333333,4,2,1,70,0,0
240234,337.078651685393,4,2,1,70,1,0
240234,-71.4285714285714,4,2,1,70,0,0
240571,337.078651685393,4,2,1,70,1,0
263650,333.333333333333,4,2,1,70,1,0
263650,-100,4,2,1,70,0,0
264841,333.333333333333,4,2,1,70,1,0
266174,337.078651685393,4,2,1,70,1,0
272915,-100,4,2,1,5,0,0

[Colours]
Combo1 : 85,255,170
Combo2 : 255,128,128
Combo3 : 176,230,255

[HitObjects]
216,65,14053,5,2,1:2:0:0:
216,65,14221,2,0,P|207:98|196:132,1,53.9999983520508,0|2,0:0|1:2,0:0:0:0:
301,123,14558,2,0,P|307:148|314:175,1,53.9999983520508,2|0,0:0|1:2,0:0:0:0:
213,222,14896,1,0,0:0:0:0:
213,222,15064,2,0,P|202:255|192:285,1,62.9999980773926,2|2,1:2|0:0,0:0:0:0:
188,297,15317,5,0,0:0:0:0:
183,311,15401,2,0,P|139:319|85:331,1,72,0|0,1:2|0:0,0:0:0:0:
403,144,15738,2,0,P|422:175|454:221,1,72,2|2,1:2|0:0,0:0:0:0:
343,344,16075,2,0,P|296:278|297:199,1,161.999995056153,2|0,1:2|0:0,0:0:0:0:
318,120,16412,1,10,0:3:0:0:
134,312,16749,5,2,1:2:0:0:
35,155,16918,1,0,1:0:0:0:
194,212,17087,1,8,0:0:0:0:
0,258,17255,2,0,B|61:248|61:248|103:223|103:223|190:213,1,180,2|0,1:2|1:2,0:0:0:0:
279,101,17761,1,8,0:0:0:0:
434,263,17929,6,0,P|346:263|287:198,1,180,2|0,1:2|1:1,0:0:0:0:
199,36,18435,1,8,0:0:0:0:
379,99,18603,1,0,1:0:0:0:
182,130,18772,6,0,L|161:212,1,67.5000025749208,8|0,0:3|1:0,0:0:0:0:
328,284,19109,6,0,L|341:348,1,45,8|0,0:3|1:2,0:0:0:0:
65,321,19446,5,4,1:1:0:0:
252,236,19615,1,0,1:0:0:0:
86,238,19783,2,0,P|73:186|59:138,1,90,8|0,0:0|1:0,0:0:0:0:
287,153,20120,5,2,1:2:0:0:
172,268,20289,1,0,1:0:0:0:
323,296,20457,2,0,P|310:339|300:383,1,90,8|0,0:0|1:0,0:0:0:0:
395,145,20794,5,2,1:2:0:0:
426,222,20963,2,0,L|513:247,1,90,0|8,1:0|0:0,0:0:0:0:
310,45,21300,2,0,P|274:107|155:120,1,180,2|2,1:2|1:2,0:0:0:0:
115,67,21806,1,8,0:0:0:0:
52,246,21974,6,0,L|150:224,1,90,2|0,1:2|1:0,0:0:0:0:
139,226,22480,1,0,1:0:0:0:
139,226,22817,1,0,1:0:0:0:
139,226,23154,1,0,1:0:0:0:
139,226,23491,1,0,1:0:0:0:
139,226,23828,1,0,1:0:0:0:
139,226,24165,1,0,1:0:0:0:
139,226,24502,1,0,1:0:0:0:
106,326,24671,5,2,0:0:0:0:
240,337,24839,2,0,P|244:283|261:189,1,135.000005149842,2|0,0:0|0:0,0:0:0:0:
194,52,25345,1,2,0:0:0:0:
194,52,25429,1,0,3:0:0:0:
194,52,25513,1,0,0:0:0:0:
194,52,25598,2,0,P|193:99|183:159,1,101.250003862381,0|2,3:0|0:0,0:0:0:0:
271,128,26019,6,0,L|313:112,2,33.7500012874604,0|0|2,0:0|3:0|0:0,0:0:0:0:
167,236,26356,2,0,P|131:222|90:214,1,67.5000025749208,0|0,0:0|0:0,0:0:0:0:
20,252,26693,1,2,0:0:0:0:
20,252,26778,1,0,3:0:0:0:
20,252,26862,1,0,0:0:0:0:
20,252,26946,2,0,P|1:193|-4:152,1,101.250003862381,0|0,3:0|0:0,0:0:0:0:
113,54,27367,1,0,0:0:0:0:
232,143,27536,6,0,P|294:169|383:177,1,135.000005149842,2|0,0:0|0:0,0:0:0:0:
408,327,28126,1,0,3:0:0:0:
408,327,28210,2,0,L|358:336,2,33.7500012874604,0|0|2,0:0|3:0|0:0,0:0:0:0:
436,212,28547,1,0,0:0:0:0:
298,295,28716,1,0,0:0:0:0:
298,295,28800,1,0,3:0:0:0:
298,295,28884,6,0,L|281:373,1,67.5000025749208,2|0,0:0|0:0,0:0:0:0:
207,296,29221,2,0,L|183:169,1,101.250003862381,2|0,0:0|3:0,0:0:0:0:
157,117,29558,1,2,0:0:0:0:
157,117,29643,2,0,L|232:125,1,67.5000025749208,0|0,3:0|0:0,0:0:0:0:
241,126,29896,1,2,0:0:0:0:
345,95,30064,1,2,0:0:0:0:
417,216,30233,6,0,L|349:208,1,67.5000025749208,2|0,0:0|0:0,0:0:0:0:
224,274,30570,2,0,L|156:281,1,67.5000025749208,0|0,0:0|0:0,0:0:0:0:
142,290,30822,1,0,3:0:0:0:
127,299,30907,2,0,L|109:247,2,33.7500012874604,2|0|0,0:0|3:0|0:0,0:0:0:0:
305,320,31244,1,0,0:0:0:0:
172,192,31412,1,2,0:0:0:0:
172,192,31497,1,0,3:0:0:0:
172,192,31581,6,0,L|191:49,1,135.000005149842,0|2,0:0|0:0,0:0:0:0:
367,211,32171,1,0,3:0:0:0:
367,211,32255,2,0,L|385:257,2,33.7500012874604,0|0|2,0:0|3:0|0:0,0:0:0:0:
403,130,32592,1,2,0:0:0:0:
270,227,32761,1,2,0:0:0:0:
270,227,32845,1,0,3:0:0:0:
270,227,32929,6,0,P|261:263|250:305,1,67.5000025749208,0|0,0:0|0:0,0:0:0:0:
429,351,33266,2,0,P|384:324|318:314,1,101.250003862381,2|0,0:0|3:0,0:0:0:0:
217,368,33603,2,0,L|175:381,2,33.7500012874604,2|0|0,0:0|3:0|0:0,0:0:0:0:
270,227,33940,1,2,0:0:0:0:
121,231,34109,2,0,P|80:222|45:210,1,67.5000025749208,2|0,0:0|0:0,0:0:0:0:
48,120,34446,5,0,0:0:0:0:
24,222,34615,1,0,0:0:0:0:
130,143,34783,2,0,P|159:136|201:126,1,67.5000025749208,0|0,0:0|0:0,0:0:0:0:
268,74,35120,1,0,1:0:0:0:
268,74,35196,1,0,1:0:0:0:
268,74,35273,6,0,B|279:128|279:128|293:152|293:152|303:203,1,135,8|0,0:3|0:0,0:0:0:0:
331,181,35610,6,0,L|312:273,1,76.5000014591217,6|0,1:2|1:0,0:0:0:0:
371,325,35947,1,8,0:0:0:0:
235,371,36115,1,2,0:2:0:0:
235,371,36199,1,0,1:0:0:0:
235,371,36284,2,0,P|193:313|206:216,1,153.000002918243,0|8,1:2|0:0,0:0:0:0:
399,63,36789,6,0,P|416:111|423:142,1,76.5000014591217,0|2,0:0|1:2,0:0:0:0:
347,229,37126,2,0,P|330:181|323:150,1,76.5000014591217,0|8,1:0|0:0,0:0:0:0:
440,226,37463,1,2,0:0:0:0:
440,226,37548,1,0,1:0:0:0:
440,226,37632,1,0,1:2:0:0:
314,68,37801,1,0,1:0:0:0:
246,203,37969,2,0,P|210:217|173:227,1,76.5000014591217,8|0,0:0|0:0,0:0:0:0:
28,113,38306,5,2,1:2:0:0:
28,113,38475,1,0,1:0:0:0:
51,194,38643,2,0,P|58:239|68:321,1,114.750002188683,8|0,0:0|1:0,0:0:0:0:
77,329,38980,2,0,P|82:289|92:243,1,76.5000014591217,0|0,1:2|1:0,0:0:0:0:
182,141,39317,1,8,0:0:0:0:
246,203,39486,6,0,P|278:209|328:214,1,76.5000014591217,0|2,0:0|1:2,0:0:0:0:
355,306,39823,2,0,P|322:299|273:295,1,76.5000014591217,0|8,1:0|0:0,0:0:0:0:
407,233,40160,2,0,L|453:211,2,38.2500007295609,0|0|0,0:0|1:0|1:0,0:0:0:0:
246,203,40497,1,0,1:0:0:0:
366,318,40666,1,8,0:0:0:0:
372,145,40834,1,0,0:0:0:0:
372,145,40918,1,0,0:0:0:0:
372,145,41003,5,6,1:2:0:0:
260,294,41171,1,0,1:0:0:0:
115,151,41340,2,0,L|195:133,1,76.5000014591217,8|2,0:0|0:0,0:0:0:0:
204,131,41593,1,0,1:0:0:0:
218,128,41677,2,0,P|143:108|98:36,1,153.000002918243,0|8,1:0|0:0,0:0:0:0:
165,247,42183,6,0,P|169:284|172:323,1,76.5000014591217,0|2,0:0|1:2,0:0:0:0:
339,323,42520,2,0,P|342:284|347:247,1,76.5000014591217,0|8,1:0|0:0,0:0:0:0:
394,178,42857,2,0,L|443:163,2,38.2500007295609,2|0|0,0:0|1:0|1:0,0:0:0:0:
305,166,43194,1,0,1:0:0:0:
423,351,43362,2,0,L|504:383,1,76.5000014591217,12|0,0:0|0:0,0:0:0:0:
259,277,43699,5,4,1:1:0:0:
177,345,43868,1,0,1:0:0:0:
168,226,44036,1,8,0:0:0:0:
278,382,44205,1,2,0:0:0:0:
89,351,44374,2,0,L|0:387,1,90,0|0,1:0|1:0,0:0:0:0:
143,121,44711,2,0,P|166:162|169:210,1,90,8|2,0:0|1:2,0:0:0:0:
94,265,45048,5,8,0:0:0:0:
259,173,45216,1,0,1:0:0:0:
43,85,45385,5,8,0:0:0:0:
276,178,45553,1,2,1:2:0:0:
293,183,45638,1,8,0:0:0:0:
310,188,45722,1,8,1:2:0:0:
221,258,45890,5,8,0:3:0:0:
375,127,46059,1,4,0:3:0:0:
273,94,46227,6,0,L|314:300,1,180,4|0,1:1|1:0,0:0:0:0:
427,384,46733,2,0,P|440:343|437:296,1,80.9999975280763,8|2,0:0|0:0,0:0:0:0:
486,241,46986,1,8,0:0:0:0:
473,225,47070,2,0,L|386:210,1,80.9999975280763,0|0,1:0|1:0,0:0:0:0:
216,238,47407,2,0,P|203:197|206:150,1,80.9999975280763,8|0,0:0|0:0,0:0:0:0:
465,78,47744,5,2,1:2:0:0:
465,78,47913,1,0,1:0:0:0:
317,143,48081,2,0,L|301:274,1,121.499996292114,8|8,0:0|0:0,0:0:0:0:
368,332,48418,1,0,1:0:0:0:
368,332,48587,1,0,1:0:0:0:
137,361,48756,2,0,L|122:240,1,121.499996292114,8|0,0:0|0:0,0:0:0:0:
129,221,49093,6,0,L|37:209,1,80.9999975280763,2|0,1:2|1:0,0:0:0:0:
35,25,49430,2,0,P|88:25|142:76,1,121.499996292114,8|8,0:0|0:0,0:0:0:0:
143,87,49767,2,0,L|235:75,1,80.9999975280763,0|0,1:0|1:0,0:0:0:0:
440,175,50104,2,0,P|401:219|317:223,1,121.499996292114,8|0,0:0|0:0,0:0:0:0:
321,224,50441,6,0,L|304:124,1,80.9999975280763,4|0,1:1|1:0,0:0:0:0:
385,35,50778,1,8,0:0:0:0:
60,292,51115,5,0,1:0:0:0:
134,190,51284,1,8,0:0:0:0:
150,282,51452,1,8,0:0:0:0:
42,202,51621,1,8,0:0:0:0:
164,294,51789,6,0,P|207:303|258:322,1,80.9999975280763,4|0,1:1|1:0,0:0:0:0:
309,376,52126,1,8,0:0:0:0:
466,95,52295,2,0,P|400:89|322:151,1,161.999995056153,2|0,1:2|1:2,0:0:0:0:
309,249,52801,1,8,0:0:0:0:
269,68,52969,6,0,L|308:253,1,161.999995056153,4|0,1:0|1:0,0:0:0:0:
389,322,53475,1,8,0:0:0:0:
210,268,53643,1,2,1:2:0:0:
406,328,53812,1,8,1:2:0:0:
284,373,53980,1,8,0:0:0:0:
420,176,54149,1,8,0:0:0:0:
383,173,54233,1,8,0:0:0:0:
348,181,54317,1,8,0:0:0:0:
313,190,54402,1,8,0:0:0:0:
277,189,54486,6,0,P|270:130|261:85,1,80.9999975280763,4|0,1:1|1:0,0:0:0:0:
53,131,54823,1,8,0:0:0:0:
108,210,54992,1,2,0:0:0:0:
108,210,55076,1,8,0:0:0:0:
107,210,55160,2,0,P|65:275|82:371,1,161.999995056153,0|8,1:0|0:0,0:0:0:0:
358,296,55666,6,0,P|318:286|280:273,1,80.9999975280763,0|2,0:0|1:2,0:0:0:0:
53,131,56003,2,0,P|92:121|130:108,1,80.9999975280763,0|8,1:0|0:0,0:0:0:0:
206,65,56340,1,2,0:0:0:0:
206,65,56424,1,8,0:0:0:0:
206,65,56508,1,0,1:0:0:0:
117,208,56677,1,0,1:2:0:0:
65,41,56845,1,8,0:0:0:0:
122,223,57014,1,0,1:2:0:0:
223,148,57183,6,0,L|281:158,3,49.5000015106202,2|0|0|0,1:2|0:0|0:0|0:0,0:0:0:0:
298,238,57520,2,0,L|240:248,1,49.5000015106202,0|0,0:0|0:0,0:0:0:0:
122,223,57688,2,0,L|64:233,3,49.5000015106202,2|0|0|0,1:2|0:0|0:0|0:0,0:0:0:0:
49,310,58025,2,0,L|107:320,1,49.5000015106202,0|0,0:0|0:0,0:0:0:0:
227,336,58194,2,0,L|285:346,3,49.5000015106202,2|0|0|0,1:2|0:0|0:0|0:0,0:0:0:0:
448,359,58531,6,0,B|454:333|454:333|452:295,3,49.5000015106202,2|0|0|0,1:2|0:0|0:0|0:0,0:0:0:0:
370,323,58868,2,0,L|363:257,1,49.5000015106202,0|0,0:0|0:0,0:0:0:0:
346,101,59036,2,0,B|352:127|352:127|350:165,3,49.5000015106202,2|0|0|0,1:2|0:0|0:0|0:0,0:0:0:0:
268,137,59373,2,0,L|261:203,1,49.5000015106202,0|0,0:0|0:0,0:0:0:0:
183,240,59542,2,0,P|154:235|116:231,1,53.9999983520508,2|0,1:2|0:0,0:0:0:0:
70,161,59711,2,0,P|72:136|80:92,1,53.9999983520508,8|0,0:0|0:0,0:0:0:0:
8,60,59879,6,0,B|108:48|76:96|184:85,1,180,6|8,1:2|0:0,0:0:0:0:
257,28,60390,1,8,0:0:0:0:
422,236,60560,5,8,0:0:0:0:
248,143,60731,1,8,0:0:0:0:
71,285,60901,1,8,0:0:0:0:
301,217,61072,5,8,0:0:0:0:
193,356,61242,1,8,0:0:0:0:
149,229,61413,1,8,0:0:0:0:
232,271,61583,1,8,0:0:0:0:
46,363,61751,2,0,P|35:279|19:164,1,180,8|0,0:0|0:0,0:0:0:0:
282,32,62257,5,12,0:1:0:0:
282,32,62583,5,4,1:1:0:0:
230,224,62751,1,0,1:0:0:0:
386,157,62920,2,0,P|342:146|299:131,1,90,8|0,0:0|0:0,0:0:0:0:
202,119,63173,1,2,0:0:0:0:
212,105,63257,2,0,B|114:86|138:149|35:134,1,180,2|8,1:2|0:0,0:0:0:0:
176,286,63763,1,0,0:0:0:0:
261,297,63932,6,0,P|274:340|283:384,1,90,2|0,1:2|1:0,0:0:0:0:
386,157,64269,2,0,P|416:124|450:94,1,90,8|0,0:0|0:0,0:0:0:0:
232,80,64607,1,2,1:2:0:0:
329,222,64775,1,0,1:0:0:0:
181,143,64944,2,0,P|137:132|94:118,1,90,8|0,0:0|0:0,0:0:0:0:
46,328,65281,6,0,P|87:251|182:229,1,180,4|8,1:0|0:0,0:0:0:0:
345,31,65787,2,0,B|358:76|358:76|343:132,1,90,2|0,0:0|1:0,0:0:0:0:
325,281,66125,1,0,1:2:0:0:
261,81,66293,1,8,0:0:0:0:
300,192,66462,2,0,L|389:204,1,90,2|0,0:0|1:0,0:0:0:0:
459,148,66800,5,0,1:0:0:0:
232,284,66968,1,8,0:0:0:0:
370,370,67137,2,0,P|364:325|349:283,1,90,2|0,0:0|1:0,0:0:0:0:
179,104,67474,1,2,1:2:0:0:
82,234,67643,2,0,P|87:189|102:147,1,90,8|0,0:0|0:0,0:0:0:0:
243,41,67980,6,0,P|283:59|329:75,1,90,4|0,1:1|1:0,0:0:0:0:
404,280,68318,1,8,0:0:0:0:
441,194,68486,1,0,0:0:0:0:
441,194,68571,1,2,0:0:0:0:
441,194,68655,2,0,B|371:203|371:203|333:229|333:229|263:241,1,180,2|8,1:2|0:0,0:0:0:0:
167,341,69161,1,0,0:0:0:0:
205,120,69330,6,0,L|305:153,1,90,2|0,1:2|1:0,0:0:0:0:
94,299,69667,2,0,L|3:325,1,90,8|0,0:0|0:0,0:0:0:0:
146,368,70004,1,2,1:2:0:0:
247,220,70173,1,0,1:2:0:0:
71,146,70342,2,0,P|55:103|51:59,1,90,8|0,0:0|0:0,0:0:0:0:
460,59,70679,6,0,P|456:103|441:146,1,90,2|0,1:2|1:0,0:0:0:0:
317,276,71017,1,8,0:0:0:0:
503,313,71185,2,0,P|455:238|359:217,1,180,2|0,0:0|1:2,0:0:0:0:
224,124,71691,2,0,L|136:138,1,90,8|0,0:0|0:0,0:0:0:0:
33,198,72029,5,2,1:2:0:0:
143,372,72197,1,0,1:0:0:0:
221,299,72366,1,8,0:0:0:0:
221,299,72535,1,2,0:0:0:0:
125,281,72703,5,8,1:2:0:0:
370,371,72872,1,0,1:2:0:0:
404,177,73041,1,8,0:0:0:0:
387,135,73125,1,8,0:0:0:0:
353,108,73209,1,8,0:0:0:0:
309,101,73294,1,8,0:0:0:0:
267,116,73378,6,0,P|259:156|243:215,1,90,4|0,1:1|1:0,0:0:0:0:
254,375,73715,1,8,0:0:0:0:
39,224,73884,1,2,0:0:0:0:
39,224,73968,1,8,0:0:0:0:
40,223,74053,2,0,B|103:236|103:236|137:271|137:271|231:292,1,180,0|8,1:0|0:0,0:0:0:0:
341,249,74559,1,0,0:0:0:0:
87,113,74728,5,2,1:2:0:0:
161,50,74896,2,0,L|177:142,1,90,0|8,1:0|0:0,0:0:0:0:
390,169,75234,2,0,L|405:114,2,45,2|0|0,0:0|0:0|1:0,0:0:0:0:
289,305,75571,5,0,1:2:0:0:
351,369,75739,1,8,0:0:0:0:
438,344,75908,1,0,0:0:0:0:
378,274,76077,5,8,0:2:0:0:
126,365,76246,1,0,1:0:0:0:
30,161,76414,5,8,0:0:0:0:
286,286,76583,1,0,1:2:0:0:
381,80,76752,5,8,1:2:0:0:
98,219,76920,1,0,1:2:0:0:
395,71,77089,1,8,0:0:0:0:
114,19,77258,6,0,L|140:133,1,90,0|12,0:0|1:2,0:0:0:0:
129,127,77511,1,0,1:0:0:0:
155,128,77595,1,4,0:3:0:0:
181,136,77679,1,0,1:0:0:0:
208,138,77764,2,0,L|197:202,1,45,8|0,0:3|1:2,0:0:0:0:
242,262,77933,2,0,L|253:326,1,45,8|0,0:3|1:2,0:0:0:0:
146,367,78101,5,8,0:0:0:0:
146,367,78183,1,0,0:0:0:0:
146,367,78266,2,0,P|153:340|159:307,1,53.9999983520508,8|0,0:2|0:0,0:0:0:0:
295,174,78432,1,8,0:0:0:0:
332,174,78514,1,8,0:0:0:0:
368,186,78598,1,8,0:0:0:0:
402,203,78681,1,8,0:0:0:0:
439,210,78763,5,4,1:1:0:0:
320,36,78931,1,0,1:0:0:0:
321,259,79100,1,8,0:0:0:0:
472,80,79269,1,0,0:0:0:0:
472,80,79353,1,2,0:0:0:0:
472,80,79437,2,0,L|359:103,1,90,2|0,1:2|1:2,0:0:0:0:
202,196,79775,1,8,0:0:0:0:
108,154,79943,1,0,0:0:0:0:
166,25,80112,6,0,P|178:67|185:124,1,90,2|0,1:2|1:0,0:0:0:0:
108,357,80449,2,0,P|138:325|184:291,1,90,8|0,0:0|0:0,0:0:0:0:
266,109,80787,1,2,1:2:0:0:
256,325,80955,1,0,1:2:0:0:
417,254,81124,2,0,P|374:243|321:220,1,90,8|0,0:0|0:0,0:0:0:0:
70,146,81461,6,0,L|247:115,1,180,2|8,1:2|0:0,0:0:0:0:
396,73,81967,2,0,B|411:117|411:117|402:159,1,90,2|0,0:0|1:0,0:0:0:0:
243,226,82305,1,0,1:2:0:0:
394,300,82473,1,8,0:0:0:0:
175,359,82642,2,0,B|160:315|160:315|168:272,1,90,2|0,0:0|1:0,0:0:0:0:
306,161,82980,5,0,1:0:0:0:
254,312,83148,1,8,0:0:0:0:
161,189,83317,2,0,L|58:167,1,90,0|0,0:0|1:0,0:0:0:0:
219,21,83654,1,0,1:2:0:0:
295,69,83823,2,0,L|398:47,1,90,8|0,0:0|0:0,0:0:0:0:
467,238,84160,6,0,P|430:177|318:151,1,180,4|8,1:1|0:0,0:0:0:0:
109,270,84666,1,0,0:0:0:0:
109,270,84751,1,2,0:0:0:0:
109,270,84835,2,0,P|105:321|115:361,1,90,2|0,1:2|1:2,0:0:0:0:
200,380,85172,1,8,0:0:0:0:
333,249,85341,1,0,0:0:0:0:
254,208,85510,6,0,L|239:119,1,90,2|0,1:2|1:0,0:0:0:0:
468,13,85847,2,0,L|453:101,1,90,8|0,0:0|0:0,0:0:0:0:
330,147,86184,1,2,1:2:0:0:
194,49,86353,1,0,1:2:0:0:
112,200,86522,2,0,P|69:215|21:225,1,90,8|0,0:0|0:0,0:0:0:0:
399,200,86859,6,0,P|441:215|490:225,1,90,4|0,1:1|1:0,0:0:0:0:
293,70,87197,1,8,0:0:0:0:
228,130,87365,2,0,P|213:168|205:216,1,90,6|0,0:0|1:0,0:0:0:0:
392,336,87703,5,0,1:2:0:0:
329,196,87871,1,8,0:0:0:0:
399,354,88040,1,0,1:2:0:0:
421,246,88209,1,0,1:0:0:0:
80,364,88377,5,8,1:2:0:0:
80,364,88546,1,8,0:2:0:0:
111,182,88715,5,0,0:0:0:0:
190,230,88883,1,8,1:2:0:0:
190,230,88968,1,8,0:0:0:0:
190,230,89052,2,0,P|197:254|205:283,1,45,8|0,0:0|0:0,0:0:0:0:
286,321,89221,1,8,0:0:0:0:
286,321,89306,1,8,0:0:0:0:
286,321,89389,2,0,P|293:296|301:268,1,45,8|8,0:0|0:0,0:0:0:0:
292,196,89558,6,0,B|396:177|365:243|465:231,1,180,4|8,1:1|0:0,0:0:0:0:
334,85,90064,1,0,0:0:0:0:
334,85,90148,1,2,0:0:0:0:
334,85,90233,2,0,P|287:97|229:112,1,90,2|0,1:2|1:2,0:0:0:0:
180,35,90570,2,0,P|226:22|285:8,1,90,8|0,0:0|0:0,0:0:0:0:
89,231,90908,6,0,P|35:159|40:66,1,180,2|8,1:2|0:0,0:0:0:0:
218,208,91408,1,0,0:0:0:0:
218,208,91492,1,2,0:0:0:0:
218,208,91575,2,0,P|211:253|199:310,1,90,2|0,1:2|1:2,0:0:0:0:
361,355,91909,1,8,0:0:0:0:
283,145,92076,1,0,1:2:0:0:
512,187,92243,5,10,1:2:0:0:
512,187,92413,1,0,1:0:0:0:
387,276,92583,2,0,L|287:255,1,90,8|0,0:0|0:0,0:0:0:0:
15,110,92924,5,10,1:2:0:0:
15,110,93094,1,0,1:2:0:0:
120,201,93265,2,0,L|226:175,1,90,8|0,0:0|0:0,0:0:0:0:
488,13,93606,5,10,1:2:0:0:
372,135,93773,1,8,1:2:0:0:
354,131,93856,1,0,1:0:0:0:
336,127,93940,1,8,0:0:0:0:
115,26,94107,5,10,0:0:0:0:
115,26,94190,1,2,0:0:0:0:
114,25,94274,2,0,P|131:66|140:110,1,90,8|8,1:2|0:0,0:0:0:0:
101,223,94525,1,8,0:0:0:0:
84,245,94608,5,8,0:0:0:0:
119,243,94692,1,8,0:0:0:0:
153,256,94775,1,8,0:0:0:0:
186,270,94859,1,8,0:0:0:0:
221,274,94943,1,4,1:1:0:0:
225,42,95112,1,0,1:0:0:0:
390,195,95281,1,8,0:0:0:0:
349,109,95451,2,0,P|283:105|205:191,1,180,2|0,1:2|1:2,0:0:0:0:
181,298,95959,1,8,0:0:0:0:
142,97,96129,6,0,L|180:282,1,180,2|0,1:2|1:0,0:0:0:0:
113,353,96637,1,8,0:0:0:0:
272,275,96807,1,0,1:2:0:0:
40,276,96976,6,0,L|53:202,1,67.5000025749208,8|0,0:3|0:0,0:0:0:0:
244,156,97315,6,0,L|233:100,1,45,4|0,0:3|0:0,0:0:0:0:
185,36,97654,5,4,1:1:0:0:
154,195,97819,1,0,1:0:0:0:
333,113,97985,2,0,P|381:117|447:151,1,90,8|0,0:0|0:0,0:0:0:0:
221,125,98316,5,2,1:2:0:0:
305,250,98482,1,0,1:2:0:0:
154,223,98648,2,0,P|106:244|67:280,1,90,8|0,0:0|0:0,0:0:0:0:
343,367,98979,5,2,1:2:0:0:
394,253,99148,2,0,L|384:201,2,45,0|8|8,1:0|0:0|0:0,0:0:0:0:
246,347,99488,1,2,0:0:0:0:
228,343,99573,1,8,0:0:0:0:
210,339,99657,2,0,L|220:277,3,45,8|8|8|8,0:3|0:3|0:3|0:3,0:0:0:0:
247,212,99997,1,4,0:3:0:0:
215,211,100081,1,4,0:3:0:0:
184,217,100167,1,4,0:3:0:0:
154,225,100251,1,4,0:3:0:0:
122,226,100336,6,0,P|117:184|118:135,1,76.5000014591217,4|0,1:1|1:0,0:0:0:0:
80,62,100673,1,8,0:0:0:0:
146,4,100841,1,0,0:0:0:0:
224,48,101010,2,0,P|229:89|228:139,1,76.5000014591217,2|0,1:2|1:0,0:0:0:0:
275,258,101347,1,8,0:0:0:0:
353,215,101515,6,0,L|415:230,2,38.2500007295609,0|0|2,0:0|0:0|1:2,0:0:0:0:
208,204,101852,2,0,L|126:223,1,76.5000014591217,0|8,1:0|0:0,0:0:0:0:
43,275,102189,1,0,0:0:0:0:
118,204,102358,1,2,1:2:0:0:
131,301,102527,1,0,1:2:0:0:
33,188,102695,1,8,0:0:0:0:
145,319,102864,1,0,0:0:0:0:
145,319,102948,1,0,0:0:0:0:
145,319,103032,6,0,L|224:331,1,76.5000014591217,2|0,1:2|1:0,0:0:0:0:
367,298,103369,2,0,P|303:291|241:218,1,153.000002918243,8|2,0:0|1:2,0:0:0:0:
248,93,103875,1,0,1:2:0:0:
320,61,104043,1,8,0:0:0:0:
374,179,104212,6,0,L|300:162,1,76.5000014591217,2|0,0:0|1:0,0:0:0:0:
114,49,104549,2,0,L|188:32,2,76.5000014591217,0|8|2,1:0|0:0|0:0,0:0:0:0:
22,35,105055,1,2,1:2:0:0:
139,130,105223,1,0,1:2:0:0:
5,239,105392,2,0,P|10:191|33:152,1,76.5000014591217,8|0,0:0|0:0,0:0:0:0:
161,214,105729,6,0,B|214:228|214:228|239:254|239:254|298:271,1,153.000002918243,2|8,1:2|0:0,0:0:0:0:
441,158,106234,1,2,0:0:0:0:
446,144,106319,1,0,0:0:0:0:
452,129,106403,2,0,P|415:141|378:151,1,76.5000014591217,0|0,1:0|1:2,0:0:0:0:
239,349,106740,1,8,0:0:0:0:
164,311,106909,6,0,P|155:273|144:236,1,76.5000014591217,2|2,0:0|1:2,0:0:0:0:
367,236,107246,2,0,P|356:273|348:311,1,76.5000014591217,2|8,1:2|0:0,0:0:0:0:
97,66,107751,5,2,1:2:0:0:
190,130,107920,1,0,1:2:0:0:
56,187,108088,1,8,0:0:0:0:
166,132,108257,1,0,0:0:0:0:
6,103,108425,5,4,1:1:0:0:
202,229,108594,1,0,1:0:0:0:
366,89,108762,5,8,0:0:0:0:
182,151,108931,1,0,0:0:0:0:
279,287,109100,6,0,P|293:246|293:184,1,76.5000014591217,2|0,1:2|1:2,0:0:0:0:
153,46,109437,1,8,0:0:0:0:
202,229,109605,5,2,1:2:0:0:
87,167,109774,1,0,1:0:0:0:
312,76,109942,1,0,1:0:0:0:
441,217,110111,5,8,0:0:0:0:
244,132,110279,1,10,0:0:0:0:
149,307,110448,5,10,1:2:0:0:
202,229,110616,1,8,0:0:0:0:
294,248,110785,1,8,0:0:0:0:
240,327,110953,6,0,P|188:269|65:253,1,180,6|0,1:2|1:0,0:0:0:0:
41,84,111459,2,0,P|72:59|111:49,1,80.9999975280763,8|2,0:0|0:0,0:0:0:0:
202,59,111712,1,8,0:0:0:0:
214,68,111796,2,0,L|228:160,1,80.9999975280763,0|0,1:0|1:0,0:0:0:0:
80,324,112133,2,0,P|78:284|90:246,1,80.9999975280763,8|0,0:0|0:0,0:0:0:0:
394,99,112470,5,2,1:2:0:0:
394,99,112639,1,0,1:0:0:0:
221,168,112807,2,0,L|357:199,1,121.499996292114,8|8,0:0|0:0,0:0:0:0:
427,217,113144,1,0,1:0:0:0:
427,217,113313,1,0,1:0:0:0:
243,293,113482,2,0,L|107:324,1,121.499996292114,8|0,0:0|0:0,0:0:0:0:
109,332,113819,6,0,P|90:291|87:239,1,80.9999975280763,2|0,1:2|1:0,0:0:0:0:
186,16,114156,2,0,P|212:64|201:147,1,121.499996292114,8|8,0:0|0:0,0:0:0:0:
198,146,114493,6,0,L|85:130,1,80.9999975280763,0|0,1:0|1:0,0:0:0:0:
217,335,114830,2,0,P|260:296|337:293,1,121.499996292114,8|0,0:0|0:0,0:0:0:0:
339,292,115167,6,0,L|432:321,1,80.9999975280763,2|0,1:2|1:0,0:0:0:0:
512,344,115504,1,8,0:0:0:0:
399,40,115841,5,8,1:2:0:0:
286,179,116010,1,0,0:0:0:0:
412,25,116178,1,8,0:0:0:0:
259,76,116347,1,0,0:0:0:0:
464,151,116515,6,0,L|371:121,1,80.9999975280763,4|0,1:1|1:0,0:0:0:0:
238,70,116852,1,8,0:0:0:0:
48,209,117021,2,0,P|139:211|202:134,1,161.999995056153,4|0,1:2|1:2,0:0:0:0:
128,84,117527,1,8,0:0:0:0:
238,274,117695,6,0,B|337:277|292:313|389:324,1,161.999995056153,4|0,1:2|1:0,0:0:0:0:
434,124,118201,1,8,0:0:0:0:
374,237,118369,1,0,0:0:0:0:
472,212,118538,1,8,1:2:0:0:
341,149,118706,1,0,1:2:0:0:
238,274,118875,1,8,0:0:0:0:
238,274,118959,1,8,0:0:0:0:
238,274,119043,1,8,0:0:0:0:
238,274,119128,1,8,0:0:0:0:
237,274,119212,6,0,P|199:287|160:296,1,80.9999975280763,4|0,1:0|1:0,0:0:0:0:
208,101,119549,1,8,0:0:0:0:
133,150,119718,1,2,0:0:0:0:
133,150,119802,1,8,0:0:0:0:
133,150,119886,2,0,P|69:145|-7:55,1,161.999995056153,0|8,1:0|0:0,0:0:0:0:
274,40,120392,6,0,P|294:94|292:140,1,80.9999975280763,0|2,0:0|1:2,0:0:0:0:
97,241,120729,2,0,P|77:295|79:341,1,80.9999975280763,0|8,1:0|0:0,0:0:0:0:
245,365,121066,1,2,0:0:0:0:
245,365,121150,1,0,0:0:0:0:
245,365,121234,1,0,1:0:0:0:
400,240,121403,5,0,1:2:0:0:
307,296,121571,1,12,0:0:0:0:
423,369,121740,1,0,0:0:0:0:
307,195,121909,5,10,1:2:0:0:
42,343,122077,1,10,1:2:0:0:
42,343,122414,2,0,P|42:291|56:251,1,90,2|0,1:2|1:2,0:0:0:0:
126,159,122920,5,10,1:2:0:0:
377,251,123088,1,8,1:2:0:0:
307,328,123257,1,0,1:0:0:0:
462,262,123425,5,0,1:0:0:0:
472,218,123509,1,8,0:3:0:0:
461,175,123593,1,8,0:3:0:0:
432,141,123677,1,4,0:3:0:0:
391,125,123762,2,0,P|364:131|338:137,1,53.9999983520508,4|0,0:3|0:0,0:0:0:0:
91,79,123931,5,10,1:2:0:0:
307,328,124100,1,8,1:2:0:0:
139,208,124605,5,4,1:1:0:0:
356,157,124774,1,0,1:0:0:0:
212,23,124942,2,0,P|229:81|235:112,1,90,8|0,0:0|0:0,0:0:0:0:
414,295,125279,2,0,P|372:258|245:264,1,180,2|8,1:2|0:0,0:0:0:0:
189,328,125785,1,0,0:0:0:0:
84,232,125953,6,0,L|105:140,1,90,2|0,1:2|1:0,0:0:0:0:
212,23,126291,2,0,L|234:111,1,90,8|0,0:0|0:0,0:0:0:0:
87,37,126628,2,0,P|44:53|-3:60,1,90,0|0,1:2|1:0,0:0:0:0:
203,212,126965,2,0,P|250:224|299:252,1,90,8|0,0:0|0:0,0:0:0:0:
471,37,127302,6,0,P|462:110|351:121,1,180,2|8,1:2|0:0,0:0:0:0:
302,334,127807,2,0,B|347:320|347:320|401:325,1,90,2|0,0:0|1:0,0:0:0:0:
455,254,128144,1,0,1:0:0:0:
247,178,128313,1,8,0:0:0:0:
386,44,128482,2,0,P|373:86|368:139,1,90,2|0,0:0|1:0,0:0:0:0:
146,207,128819,2,0,P|160:153|162:109,1,90,0|8,1:0|0:0,0:0:0:0:
248,77,129156,1,2,0:0:0:0:
308,337,129324,5,0,1:0:0:0:
230,291,129493,1,0,1:0:0:0:
275,214,129661,1,8,0:0:0:0:
353,259,129830,1,0,0:0:0:0:
318,131,129998,6,0,B|280:110|280:110|203:116|173:187,1,180,4|8,1:1|0:0,0:0:0:0:
308,337,130504,1,0,0:0:0:0:
443,185,130673,2,0,P|455:135|467:77,2,90,2|0|8,1:2|1:0|0:0,0:0:0:0:
275,214,131178,1,0,0:0:0:0:
484,290,131347,2,0,P|431:296|383:312,1,90,2|0,1:2|1:0,0:0:0:0:
207,288,131684,2,0,B|180:252|180:252|180:203,1,90,8|0,0:0|0:0,0:0:0:0:
238,26,132021,1,2,1:2:0:0:
376,132,132189,1,0,1:0:0:0:
135,135,132358,2,0,P|183:124|230:113,1,90,8|0,0:0|0:0,0:0:0:0:
477,217,132695,6,0,B|379:193|408:261|297:236,1,180,2|8,1:2|0:0,0:0:0:0:
105,266,133201,2,0,L|126:175,1,90,2|0,0:0|1:0,0:0:0:0:
232,64,133538,1,0,1:0:0:0:
49,142,133706,1,8,0:0:0:0:
200,282,133875,2,0,P|242:291|299:324,1,90,0|2,0:0|1:2,0:0:0:0:
109,338,134212,1,0,1:0:0:0:
320,220,134380,1,8,0:0:0:0:
148,158,134549,1,0,0:0:0:0:
225,376,134718,5,8,1:2:0:0:
27,220,134886,1,0,1:0:0:0:
275,87,135055,1,8,0:0:0:0:
258,128,135139,1,8,0:0:0:0:
243,171,135223,1,8,0:0:0:0:
232,214,135307,1,8,0:0:0:0:
223,258,135392,6,0,P|167:276|121:289,1,90,4|0,1:1|1:0,0:0:0:0:
148,158,135729,1,8,0:0:0:0:
337,205,135897,1,2,0:0:0:0:
337,205,135982,1,8,0:0:0:0:
337,205,136066,2,0,B|440:194|401:262|510:253,1,180,2|8,1:2|0:0,0:0:0:0:
482,160,136571,1,0,0:0:0:0:
353,297,136740,5,2,1:2:0:0:
241,149,136909,2,0,P|254:99|265:54,1,90,0|8,1:0|0:0,0:0:0:0:
113,245,137246,2,0,L|124:299,2,45,2|0|0,0:0|0:0|1:0,0:0:0:0:
230,255,137583,1,0,1:0:0:0:
118,136,137751,1,8,0:0:0:0:
353,171,137920,1,0,1:0:0:0:
369,163,138004,1,0,1:0:0:0:
386,154,138088,5,8,1:2:0:0:
113,245,138257,1,0,1:0:0:0:
428,285,138425,5,8,0:0:0:0:
229,131,138594,1,0,1:0:0:0:
493,175,138762,5,8,1:2:0:0:
224,306,138931,1,0,1:2:0:0:
229,15,139100,1,8,0:0:0:0:
434,275,139268,6,0,L|344:250,1,90,0|12,1:2|1:2,0:0:0:0:
322,241,139521,1,8,0:3:0:0:
323,215,139605,1,8,0:3:0:0:
331,189,139689,1,8,0:3:0:0:
333,162,139774,2,0,L|397:173,1,45,8|8,0:3|0:3,0:0:0:0:
503,121,139942,2,0,L|458:128,1,45,8|8,0:3|0:3,0:0:0:0:
231,27,140111,5,4,0:3:0:0:
231,27,140195,1,0,0:0:0:0:
231,27,140279,2,0,P|238:54|244:87,1,53.9999983520508,4|0,0:3|0:0,0:0:0:0:
178,326,140448,1,8,0:0:0:0:
178,289,140532,1,8,0:0:0:0:
190,253,140616,1,8,0:0:0:0:
207,219,140701,1,8,0:0:0:0:
214,182,140785,5,4,1:1:0:0:
361,364,140953,1,0,1:0:0:0:
86,384,141122,1,0,0:0:0:0:
312,268,141291,1,0,0:0:0:0:
312,268,141375,1,2,0:0:0:0:
312,268,141459,2,0,P|379:257|426:256,1,90,2|0,1:2|1:0,0:0:0:0:
225,359,141796,1,8,0:0:0:0:
288,164,141965,1,0,0:0:0:0:
119,109,142133,6,0,P|98:160|96:224,1,90,2|0,1:2|1:0,0:0:0:0:
399,173,142470,2,0,P|386:128|340:77,1,90,8|0,0:0|0:0,0:0:0:0:
198,231,142807,1,2,1:2:0:0:
317,381,142976,1,0,1:0:0:0:
465,277,143144,2,0,P|483:205|475:166,1,90,8|0,0:0|0:0,0:0:0:0:
458,109,143397,5,8,0:0:0:0:
433,93,143482,2,0,B|336:72|367:133|256:114,1,180,2|8,1:2|0:0,0:0:0:0:
115,238,143987,2,0,B|164:221|164:221|211:232,1,90,2|0,0:0|1:0,0:0:0:0:
270,302,144324,1,0,1:0:0:0:
162,132,144493,1,8,0:0:0:0:
357,221,144661,2,0,P|411:231|472:235,1,90,2|0,0:0|1:0,0:0:0:0:
209,215,144998,1,0,1:0:0:0:
291,122,145167,2,0,L|304:27,1,90,8|0,0:0|0:0,0:0:0:0:
130,163,145504,5,2,1:2:0:0:
167,308,145673,1,0,1:0:0:0:
295,214,145841,1,8,0:0:0:0:
117,184,146010,1,0,0:0:0:0:
304,311,146178,2,0,P|374:314|409:210,1,180,2|8,1:2|0:0,0:0:0:0:
226,116,146684,1,0,0:0:0:0:
145,291,146852,2,0,P|129:344|134:388,1,90,2|0,1:2|1:0,0:0:0:0:
312,227,147189,1,8,0:0:0:0:
129,146,147358,1,0,0:0:0:0:
226,116,147527,6,0,P|293:104|338:106,1,90,2|0,1:2|1:0,0:0:0:0:
434,205,147864,2,0,P|420:273|404:386,1,180,8|2,0:0|1:2,0:0:0:0:
313,209,148369,1,0,1:0:0:0:
424,100,148538,2,0,B|471:102|471:102|516:130,1,90,8|0,0:0|0:0,0:0:0:0:
229,282,148875,5,12,1:2:0:0:
123,160,149043,1,0,1:0:0:0:
107,135,149212,1,0,1:0:0:0:
140,354,149380,5,14,0:0:0:0:
207,131,149549,1,0,1:0:0:0:
220,84,149718,1,0,0:0:0:0:
49,308,149886,5,8,0:0:0:0:
317,184,150055,1,0,0:0:0:0:
35,12,150223,5,2,1:2:0:0:
207,131,150392,1,8,1:2:0:0:
22,223,150560,2,0,P|33:186|46:126,1,90,8|0,0:0|0:0,0:0:0:0:
263,261,150897,5,8,1:3:0:0:
263,261,150982,1,8,0:3:0:0:
263,261,151066,2,0,P|234:255|202:251,1,45,8|8,0:3|0:3,0:0:0:0:
162,122,151234,1,8,0:0:0:0:
162,122,151319,1,8,0:0:0:0:
162,122,151403,2,0,P|191:128|223:132,1,45,8|8,0:0|0:0,0:0:0:0:
376,259,151571,6,0,B|333:195|333:195|363:73,1,180,4|8,1:1|0:0,0:0:0:0:
512,152,152077,1,0,0:0:0:0:
512,152,152161,1,2,0:0:0:0:
512,152,152246,2,0,P|459:162|420:173,1,90,2|0,1:2|1:0,0:0:0:0:
230,263,152583,1,8,0:0:0:0:
433,348,152751,1,0,0:0:0:0:
156,325,152920,2,0,P|138:276|144:229,1,90,2|0,1:2|1:0,0:0:0:0:
307,204,153257,2,0,P|325:253|319:300,1,90,8|0,0:0|0:0,0:0:0:0:
126,142,153594,5,2,1:2:0:0:
228,69,153762,1,0,1:0:0:0:
119,38,153931,1,8,0:0:0:0:
237,170,154100,1,0,0:0:0:0:
32,217,154268,5,2,1:2:0:0:
32,217,154437,1,0,1:0:0:0:
154,300,154605,2,0,L|249:275,1,90,8|0,0:0|0:0,0:0:0:0:
321,26,154942,5,2,1:2:0:0:
321,26,155111,1,0,1:0:0:0:
400,149,155279,2,0,L|495:174,1,90,8|0,0:0|0:0,0:0:0:0:
136,194,155616,5,10,1:2:0:0:
347,265,155785,1,0,1:2:0:0:
343,247,155869,1,0,1:2:0:0:
339,229,155953,1,8,0:0:0:0:
467,84,156122,5,0,1:2:0:0:
239,23,156291,2,0,P|222:64|215:113,1,90,8|8,1:2|0:0,0:0:0:0:
224,214,156543,1,8,0:0:0:0:
210,236,156628,5,8,0:3:0:0:
245,234,156712,1,8,0:3:0:0:
279,247,156796,1,4,0:3:0:0:
312,261,156880,1,4,0:3:0:0:
347,265,156965,1,12,1:2:0:0:
509,169,157133,1,0,1:0:0:0:
329,82,157302,1,8,0:0:0:0:
445,295,157470,2,0,P|430:234|417:187,1,90,10|0,1:2|1:0,0:0:0:0:
285,163,157807,1,0,1:0:0:0:
356,354,157976,1,8,0:0:0:0:
172,341,158144,6,0,P|184:298|319:277,1,180,6|8,1:2|0:0,0:0:0:0:
474,244,158650,2,0,L|454:177,1,45,8|0,0:0|0:0,0:0:0:0:
350,127,158819,2,0,L|370:194,1,45,4|0,0:3|0:0,0:0:0:0:
405,324,158987,1,8,0:3:0:0:
405,324,159071,1,8,0:3:0:0:
405,324,159156,1,8,0:3:0:0:
405,324,159240,1,8,0:3:0:0:
405,324,159324,2,0,P|445:335|471:346,1,45,4|4,0:3|0:3,0:0:0:0:
303,248,159493,5,0,1:0:0:0:
303,248,159577,1,2,0:0:0:0:
303,248,159661,1,12,1:2:0:0:
97,311,159830,1,0,1:0:0:0:
139,103,159998,1,8,0:0:0:0:
222,333,160167,2,0,P|282:350|329:362,1,90,10|0,1:2|1:0,0:0:0:0:
336,140,160504,1,0,1:0:0:0:
160,223,160673,1,8,0:0:0:0:
271,21,160841,6,0,P|251:81|239:167,1,135,4|0,1:0|0:0,0:0:0:0:
239,151,161178,2,0,P|190:140|150:134,1,90,0|8,1:0|0:3,0:0:0:0:
198,293,161515,2,0,L|258:282,1,45,8|8,0:2|0:3,0:0:0:0:
384,218,161684,1,8,0:0:0:0:
384,218,161768,1,0,0:0:0:0:
384,218,161852,1,8,0:0:0:0:
384,218,161937,1,0,0:0:0:0:
384,218,162021,2,0,L|371:158,1,45,8|0,0:0|0:0,0:0:0:0:
314,63,162189,5,0,1:0:0:0:
314,63,162274,1,2,0:0:0:0:
314,63,162358,1,12,1:2:0:0:
297,283,162527,1,0,1:0:0:0:
502,176,162695,1,8,0:0:0:0:
258,164,162864,2,0,L|168:152,1,90,10|0,1:2|1:0,0:0:0:0:
185,313,163201,1,0,1:0:0:0:
56,187,163369,1,8,0:0:0:0:
320,94,163538,6,0,B|361:145|361:145|331:257,1,161.999995056153,8|0,1:2|0:0,0:0:0:0:
388,345,163875,1,8,0:0:0:0:
360,333,163959,1,8,0:0:0:0:
329,332,164043,1,8,0:0:0:0:
299,340,164128,1,0,0:0:0:0:
274,357,164212,1,0,0:0:0:0:
246,370,164296,1,0,0:0:0:0:
223,369,164380,5,8,0:3:0:0:
223,369,164465,1,8,0:3:0:0:
223,369,164549,2,0,P|216:345|208:316,1,45,8|0,0:3|0:0,0:0:0:0:
109,262,164718,1,4,0:3:0:0:
109,262,164803,1,4,0:3:0:0:
109,262,164886,2,0,P|116:237|124:209,1,45,8|8,0:0|0:0,0:0:0:0:
160,53,165055,5,4,1:1:0:0:
340,130,165223,1,0,1:0:0:0:
83,143,165392,5,8,0:0:0:0:
284,46,165560,1,0,1:0:0:0:
37,47,165729,5,8,1:2:0:0:
233,147,165897,1,0,1:0:0:0:
48,255,166066,1,8,0:0:0:0:
107,129,166234,1,0,1:0:0:0:
314,232,166403,5,12,1:2:0:0:
245,47,166571,1,0,1:0:0:0:
204,312,166740,5,8,0:0:0:0:
346,100,166909,1,0,0:0:0:0:
392,351,167077,5,8,0:3:0:0:
91,181,167330,5,8,0:3:0:0:
389,14,167583,5,4,1:2:0:0:
256,192,167751,12,0,170448,0:0:0:0:
350,244,178549,6,0,P|419:246|453:165,1,144,2|0,0:0|1:0,0:0:0:0:
282,159,179054,1,0,0:0:0:0:
221,248,179223,2,0,P|209:295|206:342,1,72,8|0,0:0|0:0,0:0:0:0:
282,159,179560,1,0,0:0:0:0:
212,88,179728,2,0,P|147:66|58:92,1,144,2|0,1:2|0:0,0:0:0:0:
137,169,180234,1,0,1:2:0:0:
302,148,180402,2,0,P|312:98|317:71,2,72,2|8|0,1:2|0:0|0:0,0:0:0:0:
423,232,180908,2,0,P|409:188|398:150,1,72,0|0,0:0|0:0,0:0:0:0:
322,310,181245,6,0,B|397:291|375:359|490:326,1,144,2|0,0:0|1:2,0:0:0:0:
251,236,181751,1,2,0:0:0:0:
251,236,181835,1,0,0:0:0:0:
251,236,181919,2,0,B|176:217|197:281|79:245,1,144,8|0,0:0|0:0,0:0:0:0:
379,186,182425,2,0,L|354:28,1,144,2|0,1:2|0:0,0:0:0:0:
268,122,182931,1,2,1:2:0:0:
268,122,183099,1,0,1:2:0:0:
251,236,183268,2,0,P|280:243|338:261,1,72,8|0,0:0|0:0,0:0:0:0:
175,165,183605,2,0,P|146:158|88:140,1,72,2|0,0:0|0:0,0:0:0:0:
64,378,183942,6,0,P|90:366|102:245,1,144,2|0,0:0|1:2,0:0:0:0:
22,233,184447,1,0,0:0:0:0:
161,342,184616,2,0,P|204:353|257:362,1,72,8|0,0:0|0:0,0:0:0:0:
326,286,184953,1,0,0:0:0:0:
301,160,185122,2,0,P|270:205|178:195,1,144,2|0,1:2|0:0,0:0:0:0:
378,76,185627,1,0,1:2:0:0:
441,158,185796,2,0,B|481:165|481:165|530:201,1,72,2|8,1:2|0:0,0:0:0:0:
378,76,186133,1,0,0:0:0:0:
370,223,186301,2,0,P|378:278|381:322,1,72,0|0,0:0|0:0,0:0:0:0:
144,213,186638,6,0,P|202:192|307:209,1,144,2|0,0:0|1:2,0:0:0:0:
119,117,187144,2,0,P|53:143|-26:122,1,144,2|0,0:0|0:0,0:0:0:0:
220,279,187650,1,0,0:0:0:0:
227,147,187818,2,0,P|219:91|211:59,2,72,2|0|8,1:2|0:0|0:0,0:0:0:0:
140,201,188324,1,0,0:0:0:0:
140,201,188492,1,0,1:2:0:0:
328,204,188661,6,0,P|376:215|428:232,1,90,10|0,1:2|0:0,0:0:0:0:
492,258,188914,1,8,0:0:0:0:
492,258,188998,1,8,0:0:0:0:
232,349,189166,1,8,0:0:0:0:
231,191,189335,6,0,B|247:130|247:130|279:113|279:113|301:23,2,180,4|8|2,1:1|0:0|1:2,0:0:0:0:
208,275,190178,1,0,0:0:0:0:
135,150,190346,1,8,0:0:0:0:
324,183,190515,2,0,P|378:192|419:203,1,90,0|2,0:0|1:2,0:0:0:0:
117,242,190852,2,0,P|54:258|5:274,1,90,0|8,0:0|0:0,0:0:0:0:
208,275,191189,1,0,0:0:0:0:
178,74,191357,5,0,1:2:0:0:
260,163,191526,1,0,0:0:0:0:
97,138,191695,2,0,P|89:97|102:34,1,90,8|0,0:0|0:0,0:0:0:0:
392,119,192032,2,0,P|371:177|369:227,1,90,2|0,1:2|0:0,0:0:0:0:
342,284,192284,1,2,0:0:0:0:
351,303,192369,2,0,B|452:295|412:360|531:351,1,180,8|0,0:0|1:0,0:0:0:0:
256,207,192874,1,0,0:0:0:0:
476,148,193043,1,8,0:0:0:0:
339,23,193211,6,0,P|354:78|365:132,1,90,2|0,0:0|1:0,0:0:0:0:
399,254,193549,1,0,0:0:0:0:
243,113,193717,1,8,0:0:0:0:
468,99,193886,1,2,0:0:0:0:
468,99,193970,1,8,0:0:0:0:
468,99,194054,1,8,1:2:0:0:
297,210,194223,1,8,0:0:0:0:
475,315,194391,2,0,P|459:262|451:217,1,90,8|8,0:0|0:0,0:0:0:0:
376,61,194728,5,2,1:2:0:0:
376,61,194897,1,0,1:0:0:0:
376,61,195065,1,0,0:0:0:0:
376,61,195234,1,0,1:2:0:0:
297,136,195402,5,8,0:2:0:0:
297,136,195571,1,0,1:2:0:0:
297,136,195739,1,2,1:2:0:0:
297,136,195908,1,0,1:2:0:0:
182,119,196077,5,2,1:2:0:0:
182,119,196246,1,0,1:2:0:0:
182,119,196414,1,2,1:2:0:0:
182,119,196583,1,0,1:2:0:0:
116,0,196751,5,8,0:0:0:0:
116,0,196920,1,0,1:2:0:0:
116,0,197088,1,2,1:2:0:0:
116,0,197257,1,0,1:2:0:0:
68,154,197425,5,2,1:2:0:0:
166,111,197593,1,0,1:0:0:0:
42,122,197762,5,0,1:2:0:0:
186,198,197931,1,0,1:2:0:0:
68,264,198099,5,8,0:0:0:0:
265,149,198268,2,0,P|315:135|364:128,1,90,0|0,1:2|1:2,0:0:0:0:
97,31,198605,1,2,1:2:0:0:
217,288,198773,5,0,1:0:0:0:
217,288,198942,1,0,1:2:0:0:
217,288,199110,1,2,1:2:0:0:
217,288,199279,1,0,1:2:0:0:
340,210,199447,5,8,0:0:0:0:
142,157,199616,1,8,0:0:0:0:
96,336,199784,1,8,0:0:0:0:
279,383,199953,1,12,0:0:0:0:
254,164,200122,2,0,L|240:108,1,53.9999983520508,0|0,0:0|0:0,0:0:0:0:
240,111,201133,5,12,0:1:0:0:
240,111,201470,5,4,1:1:0:0:
101,245,201638,1,0,1:0:0:0:
111,57,201807,2,0,P|131:113|126:180,1,90,8|0,0:0|0:0,0:0:0:0:
215,217,202060,1,0,0:0:0:0:
207,239,202144,2,0,P|259:290|375:280,1,180,2|8,1:2|0:0,0:0:0:0:
436,231,202650,1,0,0:0:0:0:
389,64,202818,6,0,L|371:152,1,90,2|0,1:2|1:0,0:0:0:0:
203,108,203155,2,0,L|220:196,1,90,8|0,0:0|0:0,0:0:0:0:
141,247,203492,1,2,1:2:0:0:
272,43,203661,1,0,1:0:0:0:
55,71,203829,2,0,L|37:159,1,90,8|0,0:0|0:0,0:0:0:0:
118,339,204166,6,0,B|188:326|188:326|219:299|219:299|291:286,1,180,2|8,1:2|0:0,0:0:0:0:
456,165,204672,2,0,P|407:156|363:123,1,90,2|0,0:0|1:0,0:0:0:0:
256,169,205009,1,0,1:0:0:0:
440,75,205178,1,8,0:0:0:0:
393,245,205346,2,0,L|376:344,1,90,2|0,0:0|1:0,0:0:0:0:
267,356,205683,5,0,1:0:0:0:
140,198,205852,1,8,0:0:0:0:
24,296,206020,2,0,P|68:292|111:278,1,90,2|0,0:0|1:0,0:0:0:0:
254,63,206357,1,0,1:0:0:0:
382,157,206526,2,0,P|337:153|294:139,1,90,8|0,0:0|0:0,0:0:0:0:
154,57,206863,6,0,L|183:251,1,180,4|8,1:1|0:0,0:0:0:0:
399,362,207369,1,0,0:0:0:0:
399,362,207453,1,2,0:0:0:0:
399,362,207537,2,0,B|414:314|414:314|401:271,1,90,2|0,1:2|1:0,0:0:0:0:
261,176,207874,1,8,0:0:0:0:
138,314,208043,1,0,0:0:0:0:
322,317,208211,6,0,L|228:297,1,90,2|0,1:2|1:0,0:0:0:0:
58,136,208548,2,0,L|152:116,1,90,8|0,0:0|0:0,0:0:0:0:
353,123,208886,1,2,1:2:0:0:
204,56,209054,1,0,1:0:0:0:
114,212,209223,2,0,P|113:272|132:322,1,90,8|0,0:0|0:0,0:0:0:0:
390,300,209560,6,0,P|401:256|398:212,1,90,2|0,1:2|1:0,0:0:0:0:
321,38,209897,1,8,0:0:0:0:
462,99,210065,2,0,B|364:79|392:141|288:125,1,180,2|0,0:0|1:0,0:0:0:0:
201,206,210571,2,0,L|98:184,1,90,8|0,0:0|0:0,0:0:0:0:
119,82,210908,5,2,1:2:0:0:
22,266,211077,1,0,1:0:0:0:
201,206,211245,1,8,0:0:0:0:
201,206,211414,1,0,0:0:0:0:
30,107,211582,5,10,1:2:0:0:
159,292,211751,1,2,0:0:0:0:
181,296,211835,1,8,0:0:0:0:
203,300,211919,1,8,0:0:0:0:
355,132,212088,1,8,0:0:0:0:
333,136,212172,1,8,0:0:0:0:
311,140,212256,5,4,1:1:0:0:
421,248,212425,1,0,1:0:0:0:
205,105,212593,2,0,L|228:206,1,90,8|0,0:0|0:0,0:0:0:0:
303,294,212846,1,8,0:0:0:0:
288,311,212931,2,0,B|221:324|221:324|189:359|189:359|116:372,1,180,0|8,1:0|0:0,0:0:0:0:
141,275,213436,1,0,0:0:0:0:
375,378,213605,5,2,1:2:0:0:
385,149,213773,2,0,P|338:137|286:117,1,90,0|8,1:0|0:0,0:0:0:0:
141,275,214110,2,0,P|106:286|76:300,2,45,2|0|0,0:0|0:0|1:0,0:0:0:0:
478,347,214447,5,0,1:0:0:0:
426,279,214616,1,8,0:0:0:0:
347,307,214784,1,2,0:0:0:0:
341,324,214869,1,8,0:0:0:0:
336,341,214953,5,8,1:2:0:0:
133,163,215122,1,0,1:0:0:0:
66,262,215290,5,8,0:0:0:0:
347,126,215459,1,2,0:0:0:0:
356,141,215543,1,8,0:0:0:0:
365,155,215627,5,8,1:2:0:0:
93,35,215796,1,0,1:0:0:0:
11,133,215964,5,8,0:0:0:0:
287,59,216133,1,8,0:0:0:0:
308,52,216217,1,8,0:0:0:0:
329,45,216301,1,8,1:2:0:0:
395,260,216470,5,8,1:2:0:0:
395,260,216554,1,0,1:0:0:0:
395,260,216638,2,0,L|323:245,1,53.9999983520508,8|0,3:0|0:0,0:0:0:0:
47,208,216807,1,8,0:3:0:0:
47,208,216891,1,8,0:3:0:0:
47,207,216975,2,0,P|41:233|42:260,1,53.9999983520508,4|0,3:3|0:0,0:0:0:0:
246,270,217144,2,0,P|251:243|250:216,1,53.9999983520508,4|0,0:3|0:0,0:0:0:0:
154,215,217313,5,0,1:2:0:0:
128,223,217397,1,0,1:2:0:0:
129,250,217481,1,0,1:2:0:0:
155,257,217565,1,0,1:2:0:0:
171,235,217650,1,12,1:2:0:0:
170,121,217818,5,0,1:0:0:0:
124,346,217987,1,8,0:0:0:0:
388,250,218240,5,8,0:0:0:0:
395,271,218324,1,8,1:2:0:0:
279,192,218492,1,0,1:0:0:0:
481,277,218661,1,8,0:0:0:0:
325,336,218829,1,0,1:0:0:0:
420,170,218998,6,0,L|512:141,1,90,8|0,1:2|1:0,0:0:0:0:
420,354,219335,1,8,0:0:0:0:
101,169,219588,5,8,0:0:0:0:
94,190,219672,1,8,1:2:0:0:
55,87,219841,1,0,1:0:0:0:
129,275,220009,2,0,L|105:363,1,90,8|0,0:0|1:0,0:0:0:0:
8,233,220346,5,8,1:2:0:0:
193,168,220515,1,0,1:0:0:0:
8,233,220683,1,8,0:0:0:0:
376,119,220936,5,8,0:0:0:0:
369,98,221020,1,8,1:2:0:0:
454,5,221189,1,0,1:0:0:0:
317,177,221357,1,8,0:0:0:0:
208,21,221526,6,0,P|244:34|303:48,1,90,0|8,1:0|1:2,0:0:0:0:
382,269,221863,1,0,1:0:0:0:
512,167,222032,2,0,P|468:177|426:192,1,90,8|2,0:0|0:0,0:0:0:0:
282,265,222284,1,8,0:0:0:0:
273,286,222369,2,0,P|283:322|292:379,1,90,8|0,1:2|1:0,0:0:0:0:
226,156,222706,5,8,0:0:0:0:
394,289,222874,1,0,1:0:0:0:
201,348,223043,6,0,B|145:340|145:340|87:370|87:370|29:363,1,180,12|8,1:2|0:0,0:0:0:0:
281,64,223633,1,8,0:0:0:0:
295,81,223717,2,0,P|312:122|316:169,1,90,8|0,1:2|1:0,0:0:0:0:
154,266,224054,1,8,0:0:0:0:
193,119,224223,1,0,1:0:0:0:
29,180,224391,6,0,P|73:173|127:162,1,90,8|0,1:2|1:0,0:0:0:0:
262,54,224728,1,8,0:0:0:0:
437,320,224981,1,8,0:0:0:0:
418,333,225065,6,0,P|373:326|320:315,1,90,8|0,1:2|1:0,0:0:0:0:
210,232,225402,1,8,0:0:0:0:
165,362,225571,1,0,1:0:0:0:
389,237,225740,6,0,P|424:194|404:54,1,180,12|8,1:2|0:0,0:0:0:0:
107,112,226245,2,0,P|117:154|129:212,1,90,6|0,0:0|0:0,0:0:0:0:
217,251,226582,1,0,1:0:0:0:
204,145,226751,5,8,0:0:0:0:
82,285,226919,1,0,1:0:0:0:
312,253,227088,5,12,1:2:0:0:
41,165,227256,1,0,1:0:0:0:
312,253,227425,1,8,0:0:0:0:
214,271,227593,5,0,1:0:0:0:
376,175,227762,1,8,1:2:0:0:
466,315,227931,5,8,0:0:0:0:
466,315,228015,1,8,0:0:0:0:
466,315,228099,2,0,L|400:298,1,45,8|8,0:0|0:0,0:0:0:0:
316,279,228268,1,8,0:0:0:0:
118,370,228436,6,0,P|73:307|95:182,1,180,12|8,1:2|0:0,0:0:0:0:
290,108,228942,1,0,1:0:0:0:
200,180,229110,5,8,1:2:0:0:
304,92,229279,1,2,1:2:0:0:
294,191,229447,1,8,0:0:0:0:
204,82,229616,1,0,1:2:0:0:
394,14,229784,6,0,P|439:77|417:202,1,180,8|8,1:2|0:0,0:0:0:0:
189,257,230290,1,0,1:0:0:0:
276,198,230459,5,8,1:2:0:0:
170,267,230627,1,0,1:0:0:0:
290,296,230796,1,8,0:0:0:0:
142,176,230964,1,0,1:0:0:0:
266,99,231133,6,0,P|315:87|372:72,1,90,8|0,1:2|1:0,0:0:0:0:
99,315,231470,1,8,0:0:0:0:
99,315,231638,1,0,0:0:0:0:
290,296,231807,6,0,P|339:307|396:323,1,90,8|0,1:2|1:0,0:0:0:0:
136,91,232144,1,8,0:0:0:0:
136,91,232313,1,0,0:0:0:0:
269,206,232481,5,10,1:2:0:0:
23,359,232650,1,0,1:0:0:0:
33,185,232818,5,8,0:0:0:0:
200,297,232987,1,8,0:0:0:0:
188,28,233155,6,0,L|164:129,1,90,8|8,1:2|0:0,0:0:0:0:
280,230,233492,6,0,L|295:294,1,62.9999980773926,8|8,0:0|0:0,0:0:0:0:
297,359,235178,6,0,P|257:339|208:326,1,90,12|0,1:2|1:0,0:0:0:0:
143,147,235515,1,8,0:0:0:0:
45,282,235683,2,0,P|132:277|191:212,1,180,10|0,1:2|1:2,0:0:0:0:
87,74,236189,1,8,0:0:0:0:
451,96,236357,6,0,B|384:102|384:102|339:128|339:128|272:137,1,180,12|4,1:2|0:3,0:0:0:0:
191,176,236771,1,4,0:3:0:0:
191,176,236854,2,0,L|179:126,1,45,8|0,0:3|0:0,0:0:0:0:
328,217,237020,2,0,L|317:260,1,45,4|0,0:3|0:0,0:0:0:0:
145,290,237186,2,0,L|134:246,1,45,8|0,0:3|0:0,0:0:0:0:
75,347,237352,5,0,1:0:0:0:
101,349,237435,1,0,1:0:0:0:
128,345,237517,1,8,0:3:0:0:
152,333,237600,1,8,0:3:0:0:
176,321,237684,1,8,0:3:0:0:
203,317,237767,1,8,0:3:0:0:
230,320,237850,1,12,1:2:0:0:
417,145,238016,6,0,P|373:135|331:119,1,90,0|0,1:2|0:0,0:0:0:0:
237,65,238348,1,12,1:2:0:0:
291,210,238517,1,0,1:0:0:0:
230,47,238687,1,0,0:0:0:0:
401,56,238857,1,8,0:0:0:0:
209,155,239027,6,0,L|112:172,1,90,8|0,1:2|1:0,0:0:0:0:
102,174,239283,1,8,0:3:0:0:
84,177,239369,2,0,L|107:235,3,45,8|8|8|8,0:3|0:3|0:3|0:3,0:0:0:0:
77,359,239715,5,4,0:3:0:0:
92,321,239802,1,0,1:0:0:0:
122,294,239888,1,0,1:0:0:0:
160,283,239975,1,0,1:0:0:0:
199,289,240061,2,0,P|222:301|251:311,1,53.9999983520508,8|8,0:3|0:3,0:0:0:0:
440,203,240234,6,0,P|417:215|374:229,1,62.9999980773926,8|8,0:3|0:3,0:0:0:0:
189,116,240402,2,0,P|211:128|255:142,1,62.9999980773926,12|12,0:3|0:3,0:0:0:0:
393,58,240571,6,0,P|388:102|369:149,1,90,12|0,1:2|1:0,0:0:0:0:
249,310,240908,1,8,0:0:0:0:
12,270,241076,2,0,P|66:202|154:197,1,180,8|0,1:2|1:0,0:0:0:0:
249,310,241582,1,8,0:0:0:0:
512,291,241750,6,0,B|448:276|448:276|413:244|413:244|345:230,1,180,8|0,1:2|1:2,0:0:0:0:
366,94,242256,1,8,0:0:0:0:
369,111,242340,1,8,0:0:0:0:
372,128,242424,1,8,0:0:0:0:
415,25,242593,1,8,0:0:0:0:
95,115,242846,5,8,0:0:0:0:
91,132,242930,1,8,0:0:0:0:
167,209,243099,1,8,0:0:0:0:
38,244,243267,5,4,1:1:0:0:
203,136,243436,1,0,1:0:0:0:
350,270,243604,2,0,P|357:328|348:368,1,90,8|0,0:0|1:0,0:0:0:0:
180,300,243941,2,0,L|283:318,1,90,0|0,1:0|1:0,0:0:0:0:
435,197,244278,5,8,0:0:0:0:
359,133,244447,1,0,0:0:0:0:
341,136,244531,1,8,0:0:0:0:
323,139,244615,1,4,1:0:0:0:
180,300,244784,1,0,1:0:0:0:
60,107,244953,5,8,0:0:0:0:
246,229,245121,1,0,1:0:0:0:
102,351,245290,2,0,B|85:309|85:309|99:254,1,90,8|12,1:2|0:3,0:0:0:0:
111,181,245542,1,12,0:3:0:0:
133,178,245627,2,0,L|187:170,1,45,12|8,0:3|0:3,0:0:0:0:
339,282,245795,1,12,0:3:0:0:
216,99,245964,5,12,1:2:0:0:
386,95,246132,2,0,P|367:146|334:177,1,90,0|8,1:0|0:0,0:0:0:0:
403,351,246469,2,0,B|295:336|348:296|236:290,1,180,10|0,1:2|1:0,0:0:0:0:
218,142,246975,1,8,0:0:0:0:
1,297,247144,6,0,P|57:229|144:232,1,180,0|8,1:2|0:3,0:0:0:0:
238,291,247565,1,8,0:3:0:0:
253,298,247649,2,0,P|258:319|262:341,1,45,8|0,0:3|0:0,0:0:0:0:
388,373,247818,2,0,P|393:351|397:329,1,45,4|0,0:3|0:0,0:0:0:0:
478,250,247986,5,8,1:2:0:0:
438,255,248071,1,0,1:2:0:0:
399,244,248155,1,0,1:2:0:0:
367,219,248239,1,0,1:2:0:0:
348,184,248323,1,8,0:3:0:0:
417,30,248492,1,4,0:3:0:0:
488,128,248660,6,0,P|443:120|399:109,1,90,12|0,1:2|1:0,0:0:0:0:
267,33,248997,1,8,0:0:0:0:
43,197,249166,2,0,B|108:184|108:184|149:155|149:155|212:147,1,180,10|8,1:2|0:0,0:0:0:0:
253,139,249587,1,8,0:0:0:0:
291,160,249671,1,8,0:0:0:0:
309,200,249755,1,8,0:0:0:0:
299,243,249840,2,0,P|237:261|192:288,1,90,4|0,1:2|0:0,0:0:0:0:
467,322,250177,1,0,1:2:0:0:
465,82,250346,2,0,P|481:152|492:200,1,90,8|0,0:0|1:2,0:0:0:0:
373,342,250683,6,0,B|374:323|371:297|371:297|403:249,1,90,0|0,1:2|0:2,0:2:0:0:
414,231,250936,1,0,1:0:0:0:
414,231,251020,2,0,P|378:221|349:220,1,45,8|8,0:0|0:0,0:0:0:0:
303,136,251188,2,0,P|276:162|260:186,1,45,8|8,0:0|0:0,0:0:0:0:
198,348,251357,5,12,1:2:0:0:
8,229,251526,1,0,1:0:0:0:
209,97,251694,1,8,0:0:0:0:
92,355,251863,2,0,P|112:306|143:261,1,90,10|0,1:2|1:0,0:0:0:0:
254,220,252200,1,0,1:0:0:0:
254,220,252284,1,0,1:0:0:0:
254,220,252368,1,8,0:0:0:0:
38,96,252537,2,0,B|104:124|104:124|215:95,1,180,2|0,1:2|1:0,0:0:0:0:
300,45,252958,1,0,1:2:0:0:
300,45,253042,2,0,L|293:105,1,45,8|0,0:3|0:0,0:0:0:0:
254,220,253211,2,0,L|247:160,1,45,4|0,0:3|0:0,0:0:0:0:
383,119,253379,5,4,1:2:0:0:
420,123,253463,1,0,1:2:0:0:
448,149,253547,1,0,1:2:0:0:
455,186,253631,1,0,1:2:0:0:
438,220,253717,5,4,0:3:0:0:
400,222,253801,1,4,0:3:0:0:
369,244,253885,1,4,0:3:0:0:
354,279,253969,1,4,0:3:0:0:
360,316,254054,5,4,1:0:0:0:
499,355,254222,1,0,1:0:0:0:
280,363,254391,5,8,0:0:0:0:
461,271,254559,1,0,1:0:0:0:
251,271,254728,5,2,1:2:0:0:
406,342,254896,1,0,1:0:0:0:
169,340,255065,5,8,0:0:0:0:
372,241,255233,1,0,1:0:0:0:
134,236,255402,5,2,1:2:0:0:
280,363,255571,1,0,1:0:0:0:
319,106,255739,2,0,P|306:160|294:217,1,90,8|8,0:0|0:0,0:0:0:0:
110,326,256076,5,8,1:2:0:0:
144,316,256160,1,8,0:3:0:0:
178,310,256244,1,8,0:3:0:0:
214,307,256328,1,8,0:3:0:0:
242,271,256413,5,12,0:3:0:0:
275,280,256497,1,8,0:3:0:0:
308,286,256581,1,8,0:3:0:0:
342,289,256665,1,8,0:3:0:0:
374,321,256750,5,12,1:3:0:0:
345,83,256919,2,0,P|327:137|325:191,1,90,0|8,1:0|0:0,0:0:0:0:
276,377,257256,1,0,1:0:0:0:
428,257,257424,1,2,1:2:0:0:
222,235,257593,2,0,L|129:212,2,90,0|8|0,1:0|0:0|1:0,0:0:0:0:
357,118,258099,5,4,1:0:0:0:
357,118,258267,1,0,1:2:0:0:
357,118,258436,1,8,1:2:0:0:
357,118,258604,1,0,1:2:0:0:
326,272,258773,5,2,1:2:0:0:
326,272,258941,1,0,1:2:0:0:
326,272,259110,1,8,1:2:0:0:
326,272,259278,1,0,1:2:0:0:
244,161,259447,5,4,1:0:0:0:
441,35,259615,2,0,B|459:77|459:77|445:118,1,90,0|8,1:0|0:0,0:0:0:0:
390,342,259953,1,2,1:2:0:0:
245,189,260121,1,0,1:0:0:0:
502,192,260290,2,0,P|441:212|404:227,1,90,0|8,1:2|0:0,0:0:0:0:
393,240,260542,1,0,1:0:0:0:
393,240,260627,1,0,1:2:0:0:
196,357,260795,5,4,1:0:0:0:
196,357,260964,1,0,1:0:0:0:
196,357,261132,1,8,0:0:0:0:
196,357,261301,1,0,1:0:0:0:
245,156,261469,5,8,1:2:0:0:
93,251,261638,1,8,0:0:0:0:
296,269,261806,5,8,0:0:0:0:
135,151,261975,1,8,0:0:0:0:
350,107,262144,5,4,1:0:0:0:
192,231,262312,1,0,1:0:0:0:
378,306,262481,1,8,1:2:0:0:
321,115,262649,5,2,0:0:0:0:
218,252,262818,1,0,1:0:0:0:
388,272,262986,1,0,1:0:0:0:
308,213,263155,1,8,0:0:0:0:
319,369,263323,6,0,P|362:360|443:360,1,90,2|0,1:2|1:0,0:0:0:0:
490,265,263650,1,4,0:3:0:0:
490,265,263733,1,4,0:3:0:0:
490,265,263816,2,0,P|485:234|484:207,3,45,4|4|4|0,0:3|0:3|0:3|1:0,0:0:0:0:
411,112,264150,2,0,P|406:143|405:170,3,45,4|4|4|0,0:3|0:3|0:3|1:0,0:0:0:0:
284,248,264482,1,8,0:3:0:0:
252,252,264567,1,8,0:3:0:0:
223,238,264650,1,8,0:3:0:0:
194,225,264733,1,8,0:3:0:0:
165,229,264841,5,4,1:0:0:0:
103,96,265007,1,0,1:0:0:0:
241,134,265174,5,8,0:0:0:0:
224,2,265341,1,0,1:0:0:0:
337,187,265507,5,8,1:2:0:0:
388,39,265674,1,0,1:0:0:0:
380,274,265841,5,8,0:0:0:0:
499,192,266007,1,0,1:0:0:0:
446,364,266174,5,12,1:2:0:0:
400,144,266342,1,0,1:0:0:0:
258,273,266511,5,8,0:0:0:0:
344,70,266679,1,0,1:0:0:0:
192,128,266848,5,10,1:2:0:0:
398,230,267016,1,8,0:0:0:0:
422,17,267185,1,8,0:0:0:0:
149,218,267353,1,8,0:0:0:0:
256,192,267438,12,0,272915,0:0:0:0:
