osu file format v14

[General]
AudioFilename: audio.mp3
AudioLeadIn: 0
PreviewTime: 51739
Countdown: 0
SampleSet: Soft
StackLeniency: 0.7
Mode: 0
LetterboxInBreaks: 0
WidescreenStoryboard: 1

[Editor]
DistanceSpacing: 1
BeatDivisor: 4
GridSize: 4
TimelineZoom: 2.3

[Metadata]
Title:Hi FiVE!
TitleUnicode:Hi FiVE!
Artist:LiSA
ArtistUnicode:LiSA
Creator:HabiHolic
Version:Normal
Source:
Tags:LUCKY Hi FiVE! alacat Dailycare Cellina
BeatmapID:982845
BeatmapSetID:452505

[Difficulty]
HPDrainRate:3
CircleSize:3
OverallDifficulty:3
ApproachRate:4
SliderMultiplier:1.2
SliderTickRate:1

[Events]
//Background and Video events
0,0,"BG.jpg",0,0
//Break Periods
//Storyboard Layer 0 (Background)
//Storyboard Layer 1 (Fail)
//Storyboard Layer 2 (Pass)
//Storyboard Layer 3 (Foreground)
//Storyboard Sound Samples

[TimingPoints]
504,337.078651685393,4,2,1,50,1,0
5897,-100,4,2,1,75,0,0
11290,-100,4,2,1,50,0,0
13987,-100,4,2,0,50,0,0
24268,-100,4,2,1,75,0,0
51402,-100,4,2,2,75,0,0
51739,-100,4,2,1,75,0,0
105672,340.909090909091,4,2,0,50,1,0
111041,-100,4,2,0,10,0,0

[HitObjects]
28,40,3200,6,0,P|12:97|26:154,1,120,2|2,0:0|0:0,0:0:0:0:
84,260,3874,2,0,B|136:232|136:232|200:240,1,120,2|2,0:0|0:0,0:0:0:0:
316,240,4548,2,0,B|376:232|376:232|428:260,1,120,2|2,0:0|0:0,0:0:0:0:
485,154,5223,2,0,P|499:97|484:40,1,120,2|8,0:0|1:0,0:0:0:0:
380,96,5897,6,0,L|248:84,1,120,4|8,0:0|0:0,0:0:0:0:
220,44,6402,2,0,P|236:100|218:157,1,120,2|2,0:0|0:0,0:0:0:0:
184,192,6908,2,0,L|120:184,1,60,8|2,0:0|0:0,0:0:0:0:
64,288,7414,2,0,L|0:280,2,60,2|8|0,0:0|0:0|0:0,0:0:0:0:
108,336,7919,2,0,L|236:328,1,120,8|8,0:0|0:0,0:0:0:0:
348,348,8593,6,0,P|368:288|348:228,1,120,4|8,0:0|0:0,0:0:0:0:
316,188,9099,1,0,0:0:0:0:
316,188,9268,2,0,L|440:200,1,120,2|8,0:0|0:0,0:0:0:0:
380,92,9942,2,0,L|260:80,1,120,2|8,0:0|0:0,0:0:0:0:
208,44,10447,2,0,P|224:104|208:164,1,120,2|2,0:0|0:0,0:0:0:0:
164,196,10953,1,8,0:0:0:0:
176,316,11290,6,0,P|120:316|72:272,2,120,6|2|2,0:0|0:0|0:0,0:0:0:0:
256,228,12301,1,2,0:0:0:0:
336,316,12638,2,0,P|394:314|438:275,2,120,2|2|2,0:0|0:0|0:0,0:0:0:0:
256,228,13650,1,2,0:0:0:0:
188,128,13987,6,0,L|68:136,1,120,4|0,0:0|0:0,0:0:0:0:
28,100,14492,1,0,0:0:0:0:
28,100,14661,2,0,P|40:160|24:220,1,120,0|2,0:0|0:0,0:0:0:0:
84,320,15335,6,0,P|140:296|200:312,1,120,0|2,0:0|0:0,0:0:0:0:
236,352,15841,1,0,0:0:0:0:
236,352,16009,2,0,L|248:228,1,120,0|2,0:0|0:0,0:0:0:0:
184,132,16683,5,0,0:0:0:0:
264,44,17020,1,2,0:0:0:0:
352,128,17357,2,0,P|412:136|464:104,1,120,0|2,0:0|0:0,0:0:0:0:
496,60,17863,2,0,L|484:184,1,120,0|0,0:0|0:0,0:0:0:0:
448,228,18369,1,2,0:0:0:0:
367,320,18706,2,0,P|312:340|258:318,1,120,0|2,0:0|0:0,0:0:0:0:
184,224,19380,6,0,P|129:202|74:222,1,120,0|2,0:0|0:0,0:0:0:0:
32,264,19886,1,0,0:0:0:0:
32,264,20054,2,0,L|16:80,2,180,0|0|2,0:0|0:0|0:0,0:0:0:0:
112,356,21402,2,0,P|176:364|224:332,1,120,0|2,0:0|0:0,0:0:0:0:
296,240,22077,6,0,L|420:252,1,120,0|2,0:0|0:0,0:0:0:0:
464,288,22582,1,0,0:0:0:0:
464,288,22751,2,0,P|448:224|460:172,1,120,0|2,0:0|0:0,0:0:0:0:
488,124,23256,1,2,0:0:0:0:
68,152,24436,5,8,0:0:0:0:
36,268,24773,6,0,P|96:276|144:244,1,120,4|8,0:0|0:0,0:0:0:0:
184,200,25279,1,2,0:0:0:0:
184,200,25447,2,0,L|172:324,2,120,2|8|2,0:0|0:0|0:0,0:0:0:0:
132,92,26459,1,8,0:0:0:0:
240,40,26796,2,0,L|308:48,1,60,2|2,0:0|0:0,0:0:0:0:
336,96,27133,2,0,L|395:88,1,60,8|0,0:0|0:0,0:0:0:0:
436,44,27470,6,0,P|428:104|440:164,1,120,2|8,0:0|0:0,0:0:0:0:
488,276,28144,2,0,L|356:264,1,120,2|8,0:0|0:0,0:0:0:0:
316,296,28650,2,0,P|264:300|208:260,1,120,0|2,0:0|0:0,0:0:0:0:
180,212,29155,1,8,0:0:0:0:
208,96,29492,2,0,L|220:36,2,60,2|2|8,0:0|0:0|0:0,0:0:0:0:
95,136,30166,6,0,P|67:188|72:247,1,120,4|8,0:0|0:0,0:0:0:0:
100,300,30672,1,0,0:0:0:0:
100,300,30841,2,0,L|288:288,2,180,2|2|8,0:0|0:0|0:0,0:0:0:0:
20,208,32189,2,0,B|36:148|36:148|20:92,1,120,2|8,0:0|0:0,0:0:0:0:
136,44,32863,6,0,P|184:72|256:64,1,120,4|8,0:0|0:0,0:0:0:0:
292,28,33369,1,0,0:0:0:0:
292,28,33537,2,0,L|280:152,1,120,2|8,0:0|0:0,0:0:0:0:
212,244,34211,6,0,P|156:256|100:224,1,120,8|8,0:0|0:0,0:0:0:0:
68,176,34717,1,2,0:0:0:0:
68,176,34886,2,0,L|56:312,2,120,8|8|0,3:0|0:0|0:0,0:0:0:0:
20,64,35897,1,12,0:0:0:0:
140,84,36234,6,0,L|268:104,1,120,2|8,0:0|0:0,0:0:0:0:
360,168,36908,2,0,P|376:112|364:48,2,120,2|8|2,0:0|0:0|0:0,0:0:0:0:
252,220,37919,1,8,0:0:0:0:
160,144,38256,6,0,P|100:128|44:144,2,120,2|8|2,0:0|0:0|0:0,0:0:0:0:
252,220,39268,1,8,0:0:0:0:
364,176,39605,6,0,P|376:116|364:60,1,120,2|8,0:0|0:0,0:0:0:0:
320,20,40110,1,0,0:0:0:0:
320,20,40279,2,0,L|188:28,1,120,8|2,0:0|0:0,0:0:0:0:
80,36,40953,6,0,P|96:92|80:152,1,120,4|8,0:0|0:0,0:0:0:0:
44,196,41459,2,0,L|176:184,1,120,4|2,0:0|0:0,0:0:0:0:
212,152,41964,2,0,L|208:216,1,60,8|4,0:0|0:0,0:0:0:0:
332,344,42638,1,8,0:0:0:0:
420,263,42975,2,0,P|432:205|419:147,1,120,8|8,0:0|0:0,0:0:0:0:
328,72,43650,6,0,L|204:80,1,120,4|8,0:0|0:0,0:0:0:0:
164,36,44155,1,2,0:0:0:0:
164,36,44324,2,0,P|180:92|160:156,1,120,2|8,0:0|0:0,0:0:0:0:
120,260,44998,2,0,L|0:244,2,120,2|8|2,0:0|0:0|0:0,0:0:0:0:
208,340,46009,2,0,L|280:328,1,60,8|0,0:0|0:0,0:0:0:0:
328,320,46346,6,0,P|352:228|328:144,2,180,2|2|2,0:0|0:0|0:0,0:0:0:0:
208,340,47695,2,0,L|80:328,1,120,2|2,0:0|0:0,0:0:0:0:
20,232,48369,2,0,P|8:164|20:108,1,120,2|2,0:0|0:0,0:0:0:0:
112,44,49043,6,0,L|240:56,1,120,2|2,0:0|0:0,0:0:0:0:
284,28,49548,1,2,0:0:0:0:
284,28,49717,2,0,P|272:88|296:148,1,120,8|2,0:0|0:0,0:0:0:0:
376,224,50391,2,0,L|440:216,2,60,8|2|8,0:0|0:0|0:0,0:0:0:0:
339,272,50897,2,0,P|283:288|231:262,1,120,2|0,0:0|0:0,0:0:0:0:
196,216,51402,1,8,0:0:0:0:
88,160,51739,6,0,L|76:284,1,120,4|8,0:0|0:0,0:0:0:0:
40,328,52245,1,0,0:0:0:0:
40,327,52414,2,0,P|93:304|150:319,1,120,2|8,0:0|0:0,0:0:0:0:
264,356,53088,6,0,L|280:232,1,120,2|8,0:0|0:0,0:0:0:0:
200,148,53762,1,2,0:0:0:0:
260,44,54099,1,8,0:0:0:0:
356,116,54436,6,0,P|416:128|472:100,1,120,2|8,0:0|0:0,0:0:0:0:
496,52,54942,2,0,L|484:176,1,120,0|2,0:0|0:0,0:0:0:0:
500,228,55447,1,8,0:0:0:0:
419,316,55784,6,0,P|362:332|305:316,1,120,2|8,0:0|0:0,0:0:0:0:
216,236,56459,2,0,L|200:104,1,120,2|8,0:0|0:0,0:0:0:0:
236,68,56964,1,0,0:0:0:0:
235,68,57133,6,0,P|182:92|123:82,1,120,4|8,0:0|0:0,0:0:0:0:
12,40,57807,2,0,L|24:164,1,120,2|8,0:0|0:0,0:0:0:0:
4,276,58481,1,2,0:0:0:0:
100,352,58818,1,8,0:0:0:0:
196,280,59155,2,0,P|256:264|312:280,1,120,2|8,0:0|0:0,0:0:0:0:
412,344,59829,6,0,L|428:220,1,120,2|8,0:0|0:0,0:0:0:0:
471,176,60335,2,0,P|414:187|360:164,1,120,2|2,0:0|0:0,0:0:0:0:
320,108,60841,2,0,L|327:48,1,60,8|0,0:0|0:0,0:0:0:0:
148,20,61515,2,0,L|132:140,1,120,8|2,0:0|0:0,0:0:0:0:
176,252,62189,1,8,0:0:0:0:
256,163,62526,6,0,P|313:151|364:180,1,120,4|8,0:0|0:0,0:0:0:0:
404,224,63032,1,0,0:0:0:0:
404,224,63200,2,0,L|422:105,2,120,2|8|2,0:0|0:0|0:0,0:0:0:0:
328,316,64211,1,8,0:0:0:0:
231,235,64548,2,0,P|176:216|119:232,1,120,0|8,0:0|0:0,0:0:0:0:
16,296,65223,6,0,L|4:172,1,120,8|8,0:0|0:0,0:0:0:0:
68,76,65897,1,2,0:0:0:0:
148,164,66234,1,8,0:0:0:0:
228,76,66571,2,0,P|288:60|344:80,1,120,8|8,0:0|0:0,0:0:0:0:
452,128,67245,2,0,L|524:120,2,60,8|2|8,0:0|0:0|0:0,0:0:0:0:
364,208,67919,6,0,P|352:272|372:328,1,120,4|8,0:0|0:0,0:0:0:0:
412,364,68425,1,0,0:0:0:0:
412,364,68593,2,0,L|288:356,1,120,2|8,0:0|0:0,0:0:0:0:
199,279,69268,6,0,P|143:263|86:281,1,120,2|8,0:0|0:0,0:0:0:0:
4,196,69942,2,0,L|20:72,1,120,2|8,0:0|0:0,0:0:0:0:
132,35,70616,2,0,P|189:23|240:52,1,120,2|8,0:0|0:0,0:0:0:0:
280,96,71121,2,0,P|335:116|389:94,1,120,0|2,0:0|0:0,0:0:0:0:
428,48,71627,1,8,0:0:0:0:
492,152,71964,6,0,L|480:280,1,120,2|8,0:0|0:0,0:0:0:0:
476,332,72470,2,0,P|416:344|368:312,1,120,0|2,0:0|0:0,0:0:0:0:
340,260,72975,1,8,0:0:0:0:
276,156,73312,6,0,P|216:156|172:192,1,120,4|8,0:0|0:0,0:0:0:0:
132,240,73818,1,0,0:0:0:0:
132,240,73987,2,0,L|120:120,2,120,2|8|2,0:0|0:0|0:0,0:0:0:0:
208,332,74998,1,8,0:0:0:0:
268,227,75335,2,0,P|327:219|384:235,1,120,2|8,0:0|0:0,0:0:0:0:
476,316,76009,6,0,L|492:128,2,180,8|8|8,0:0|0:0|0:0,0:0:0:0:
351,352,77357,2,0,P|292:354|239:327,1,120,2|8,0:0|0:0,0:0:0:0:
144,256,78032,2,0,L|84:264,2,60,8|2|8,0:0|0:0|0:0,0:0:0:0:
248,196,78706,6,0,P|260:136|248:76,1,120,4|8,0:0|0:0,0:0:0:0:
212,32,79211,1,0,0:0:0:0:
212,32,79380,2,0,L|336:40,1,120,2|8,0:0|0:0,0:0:0:0:
460,44,80054,2,0,P|476:104|460:164,1,120,2|8,0:0|0:0,0:0:0:0:
352,220,80728,2,0,L|232:208,1,120,2|8,0:0|0:0,0:0:0:0:
112,200,81402,6,0,P|104:260|116:320,2,120,8|8|8,0:0|0:0|0:0,0:0:0:0:
184,104,82414,1,8,0:0:0:0:
280,176,82751,2,0,B|324:172|324:172|356:156|356:156|404:152,1,120,8|8,0:0|0:0,0:0:0:0:
440,116,83256,1,2,0:0:0:0:
439,116,83425,2,0,P|427:173|449:228,1,120,8|8,0:0|0:0,0:0:0:0:
408,344,84099,6,0,L|228:326,1,180,4|4,0:0|0:0,0:0:0:0:
152,224,84942,2,0,L|92:232,1,60,2|8,0:0|0:0,0:0:0:0:
40,235,85279,6,0,P|47:176|38:117,1,120,2|2,0:0|0:0,0:0:0:0:
4,68,85784,2,0,L|128:80,1,120,8|8,0:0|0:0,0:0:0:0:
232,28,86459,1,8,0:0:0:0:
332,96,86796,6,0,P|348:152|336:216,1,120,12|2,0:0|0:0,0:0:0:0:
300,256,87301,2,0,L|428:240,2,120,12|2|4,0:0|0:0|0:0,0:0:0:0:
216,172,88312,2,0,L|156:180,2,60,2|8|0,0:0|0:0|0:0,0:0:0:0:
276,168,88818,2,0,P|284:108|272:44,1,120,2|8,0:0|0:0,0:0:0:0:
156,32,89492,6,0,B|100:28|60:72|60:72|16:56|20:12,2,180,12|12|8,0:0|0:0|0:0,0:0:0:0:
208,60,90672,2,0,L|192:260,1,180,2|8,0:0|0:0,0:0:0:0:
288,328,91515,2,0,P|348:344|408:324,1,120,2|8,0:0|0:0,0:0:0:0:
484,240,92189,6,0,B|500:176|500:176|484:124,1,120,4|8,0:0|0:0,0:0:0:0:
388,48,92863,2,0,L|264:56,1,120,2|8,0:0|0:0,0:0:0:0:
184,144,93537,2,0,P|128:156|68:124,1,120,2|8,0:0|0:0,0:0:0:0:
36,80,94043,1,0,0:0:0:0:
36,80,94211,2,0,L|16:208,1,120,8|8,0:0|0:0,0:0:0:0:
52,312,94886,6,0,P|108:327|164:307,1,120,4|8,0:0|0:0,0:0:0:0:
200,260,95391,2,0,L|320:276,1,120,2|2,0:0|0:0,0:0:0:0:
364,316,95897,1,8,0:0:0:0:
460,244,96234,6,0,P|476:184|460:128,1,120,0|8,0:0|0:0,0:0:0:0:
372,48,96908,2,0,L|244:56,1,120,2|8,0:0|0:0,0:0:0:0:
156,124,97582,2,0,B|100:124|64:72|64:72|24:96|36:128,2,180,2|2|8,0:0|0:0|0:0,0:0:0:0:
240,212,98930,2,0,P|256:268|240:328,1,120,2|8,0:0|0:0,0:0:0:0:
120,328,99605,2,0,P|104:268|120:208,1,120,8|8,0:0|0:0,0:0:0:0:
184,116,100279,6,0,L|312:124,1,120,4|2,0:0|0:0,0:0:0:0:
347,76,100784,2,0,P|327:162|365:241,1,180,12|8,0:0|0:0,0:0:0:0:
288,332,101627,6,0,L|164:320,1,120,0|8,0:0|0:0,0:0:0:0:
68,256,102301,2,0,P|80:196|68:136,1,120,8|8,0:0|0:0,0:0:0:0:
136,40,102975,6,0,L|196:72,1,60,8|2,0:0|0:0,0:0:0:0:
244,96,103312,2,0,L|376:84,2,120,8|8|8,0:0|0:0|0:0,0:0:0:0:
152,176,104324,2,0,L|20:164,2,120,8|8|2,0:0|0:0|0:0,0:0:0:0:
196,216,105166,2,0,L|260:208,2,60,8|8|12,3:0|0:0|0:0,0:0:0:0:
172,268,105672,6,0,L|-8:236,2,180,2|0|2,0:0|0:0|0:0,0:0:0:0:
268,340,107035,2,0,P|325:353|376:324,1,120,0|0,0:0|0:0,0:0:0:0:
408,272,107547,1,0,0:0:0:0:
408,272,107717,2,0,L|392:148,1,120,0|0,0:0|0:0,0:0:0:0:
428,104,108228,1,2,0:0:0:0:
256,192,108399,12,0,111041,0:0:0:0:
