osu file format v14

[General]
AudioFilename: audio.mp3
AudioLeadIn: 0
PreviewTime: 51739
Countdown: 0
SampleSet: Soft
StackLeniency: 0.7
Mode: 0
LetterboxInBreaks: 0
WidescreenStoryboard: 1

[Editor]
DistanceSpacing: 1
BeatDivisor: 4
GridSize: 4
TimelineZoom: 2.3

[Metadata]
Title:Hi FiVE! (Cut Ver.)
TitleUnicode:Hi FiVE! (Cut Ver.)
Artist:LiSA
ArtistUnicode:LiSA
Creator:Cellina
Version:alacat's Easy
Source:
Tags:pop 織部里沙 LUCKY Hi FiVE! alacat Dailycare HabiHolic No Dap reana moeka momoka shioi no_dap japanese
BeatmapID:1165233
BeatmapSetID:550137

[Difficulty]
HPDrainRate:2
CircleSize:3
OverallDifficulty:2
ApproachRate:3
SliderMultiplier:0.9
SliderTickRate:1

[Events]
//Background and Video events
0,0,"BG.jpg",0,0
//Break Periods
2,11480,12537
//Storyboard Layer 0 (Background)
//Storyboard Layer 1 (Fail)
//Storyboard Layer 2 (Pass)
//Storyboard Layer 3 (Foreground)
//Storyboard Layer 4 (Overlay)
//Storyboard Sound Samples

[TimingPoints]
494,337.078651685393,4,2,1,50,1,0
5887,-100,4,2,1,70,0,0
11280,-100,4,2,1,60,0,0
24763,-100,4,2,2,70,0,0
32853,-100,4,2,1,70,0,0
51392,-100,4,2,3,70,0,0
51729,-100,4,2,1,80,0,1
78696,-100,4,2,1,70,0,0
105662,340.909090909091,4,2,5,50,1,0
111116,-100,4,2,5,5,0,0

[Colours]
Combo1 : 255,241,53
Combo2 : 147,206,255
Combo3 : 182,255,161
Combo4 : 255,167,167

[HitObjects]
36,128,494,6,0,L|44:264,1,135,0|2,0:0|0:0,0:0:0:0:
184,376,1673,2,0,L|191:241,1,135,2|0,0:0|0:0,0:0:0:0:
264,188,2516,2,0,L|256:96,1,90,2|0,0:0|0:0,0:0:0:0:
186,41,3190,6,0,P|96:31|27:84,2,180
270,199,5213,1,4,2:2:0:0:
249,286,5550,1,4,2:2:0:0:
167,325,5887,6,0,L|27:333,2,135,4|0|8,3:2|3:3|2:2,0:0:0:0:
140,240,7235,2,0,P|132:196|136:152,1,90,0|8,2:2|3:2,0:0:0:0:
184,76,7909,1,8,2:2:0:0:
272,92,8246,1,8,2:2:0:0:
292,180,8583,6,0,L|280:364,1,180,4|0,3:2|3:3,0:0:0:0:
424,252,9932,2,0,L|412:72,2,180,8|8|4,2:2|2:2|3:2,0:0:0:0:
156,328,13977,6,0,P|72:336|44:256,1,180,4|2,2:2|2:2,0:0:0:0:
80,176,14988,1,0,2:2:0:0:
164,212,15325,2,0,B|252:244|252:180|340:208,1,180,2|2,0:0|2:2,0:0:0:0:
408,264,16336,1,0,2:2:0:0:
472,204,16673,6,0,L|440:24,2,180,2|2|2,2:2|2:2|2:2,0:0:0:0:
408,264,18359,2,0,L|400:360,2,90,0|2|0,2:2|2:2|2:2,0:0:0:0:
352,192,19370,6,0,P|264:192|212:260,1,180,2|2,2:2|2:2,0:0:0:0:
232,348,20381,1,0,2:2:0:0:
144,324,20718,2,0,B|52:340|52:340|16:316|20:260,1,180,2|2,0:0|2:2,0:0:0:0:
60,184,21729,1,0,2:2:0:0:
148,212,22067,6,0,L|328:188,1,180,2|2,2:2|2:2,0:0:0:0:
404,236,23078,1,0,2:2:0:0:
476,180,23415,2,0,B|484:72|380:12|380:12|360:76,1,270,0|8,2:2|2:2,0:0:0:0:
292,132,24763,6,0,B|204:164|204:100|116:128,1,180,4|0,2:2|3:3,0:0:0:0:
76,208,25774,1,8,2:2:0:0:
108,292,26111,2,0,P|180:343|268:347,1,180,0|0,3:3|3:3,0:0:0:0:
344,300,27123,1,8,2:2:0:0:
296,224,27460,6,0,B|264:136|328:136|300:48,2,180,0|0|0,3:3|3:3|3:3,0:0:0:0:
344,300,29145,1,8,2:2:0:0:
420,348,29482,2,0,L|512:336,1,90,0|8,3:3|2:2,0:0:0:0:
472,252,30156,6,0,P|444:164|484:88,1,180,0|0,3:3|3:3,0:0:0:0:
416,28,31168,1,8,2:2:0:0:
332,64,31505,2,0,L|152:44,1,180,0|0,3:3|3:3,0:0:0:0:
80,96,32516,1,12,2:2:0:0:
16,32,32853,6,0,P|44:140|40:212,1,180,12|8,2:2|2:2,0:0:0:0:
4,288,33864,1,8,2:2:0:0:
60,360,34201,2,0,L|152:352,1,90,8|8,2:2|2:2,0:0:0:0:
204,280,34876,1,8,2:2:0:0:
304,372,35381,6,0,B|332:336|332:336|320:248,1,135,4|8,2:2|2:2,0:0:0:0:
256,184,36224,2,0,L|264:92,1,90,0|8,3:3|2:2,0:0:0:0:
328,32,36898,2,0,P|412:40|480:108,1,180,0|0,3:3|3:3,0:0:0:0:
508,188,37909,1,8,2:2:0:0:
420,180,38246,6,0,P|380:260|408:344,2,180,0|0|0,3:3|3:3|3:3,0:0:0:0:
380,100,39932,1,8,2:2:0:0:
300,144,40269,2,0,L|208:152,1,90,0|8,3:3|2:2,0:0:0:0:
128,120,40943,6,0,B|104:204|104:204|116:256,1,135,4|4,2:2|3:2,0:0:0:0:
176,316,41786,2,0,L|172:360,2,45,0|8|4,3:3|2:2|2:2,0:0:0:0:
260,280,42460,2,0,B|308:268|308:268|396:296,1,135,0|8,3:3|2:2,0:0:0:0:
476,324,43302,1,8,2:3:0:0:
504,240,43640,6,0,L|488:60,1,180,4|0,2:2|2:2,0:0:0:0:
408,20,44651,1,8,2:2:0:0:
352,92,44988,2,0,P|268:124|180:112,1,180,0|0,3:3|3:3,0:0:0:0:
120,48,45999,1,8,2:2:0:0:
44,96,46336,6,0,L|20:276,1,180,12|8,3:2|3:2,0:0:0:0:
60,356,47347,1,8,3:2:0:0:
140,312,47685,2,0,P|236:312|312:360,1,180,8|8,3:2|3:2,0:0:0:0:
396,348,48696,1,8,3:2:0:0:
444,272,49033,6,0,P|396:196|316:156,1,180,4|8,2:2|2:2,0:0:0:0:
244,212,50044,1,8,2:2:0:0:
164,168,50381,2,0,L|180:32,2,135,12|12|8,2:2|2:2|2:2,0:0:0:0:
104,236,51729,6,0,B|116:328|116:328|148:356|196:360,1,180,6|2,2:2|2:2,0:0:0:0:
272,312,52741,1,8,2:2:0:0:
316,236,53078,2,0,P|364:240|408:252,2,90,2|10|2,2:2|2:2|2:2,0:0:0:0:
252,172,54089,1,10,2:2:0:0:
180,228,54426,6,0,P|100:228|28:164,1,180,2|0,2:2|2:2,0:0:0:0:
8,76,55437,1,10,2:2:0:0:
80,24,55774,2,0,L|176:36,1,90,0|8,2:2|2:2,0:0:0:0:
236,100,56449,2,0,L|332:88,1,90,0|10,2:2|2:2,0:0:0:0:
396,32,57123,6,0,P|476:76|496:160,1,180,6|2,2:2|2:2,0:0:0:0:
440,228,58134,1,8,2:2:0:0:
356,196,58471,2,0,P|312:208|272:232,1,90,2|10,2:2|2:2,0:0:0:0:
220,304,59145,2,0,P|176:292|136:268,1,90,2|10,2:2|2:2,0:0:0:0:
76,204,59819,6,0,P|88:116|164:72,2,180,6|0|0,2:2|2:2|3:3,0:0:0:0:
138,269,61505,1,8,2:2:0:0:
220,232,61842,2,0,L|212:136,1,90,8|8,2:2|2:3,0:0:0:0:
260,64,62516,6,0,P|348:80|432:48,1,180,4|2,2:2|2:2,0:0:0:0:
508,96,63527,1,10,2:2:0:0:
432,144,63864,2,0,L|460:324,1,180,2|0,2:2|2:2,0:0:0:0:
380,364,64876,1,10,2:2:0:0:
304,320,65213,6,0,P|256:320|212:328,2,90,12|8|8,2:2|2:2|2:2,0:0:0:0:
348,240,66224,1,8,2:2:0:0:
272,192,66561,2,0,P|180:200|96:224,1,180,8|8,3:3|2:3,0:0:0:0:
76,312,67572,1,10,2:3:0:0:
12,252,67909,6,0,B|-4:196|-4:196|24:76,1,180,6|2,2:2|2:2,0:0:0:0:
100,32,68920,1,8,2:2:0:0:
184,64,69258,2,0,L|276:52,2,90,2|10|2,2:2|2:2|2:2,0:0:0:0:
112,120,70269,1,10,2:2:0:0:
156,196,70606,6,0,P|244:220|328:192,1,180,6|0,2:2|2:2,0:0:0:0:
368,112,71617,1,10,2:2:0:0:
456,132,71954,2,0,L|480:224,1,90,0|8,2:2|2:2,0:0:0:0:
396,252,72628,2,0,L|372:344,1,90,0|10,2:2|2:2,0:0:0:0:
288,308,73302,6,0,P|192:316|116:356,1,180,6|2,2:2|2:2,0:0:0:0:
36,320,74314,1,8,2:2:0:0:
32,232,74651,2,0,P|40:188|60:144,1,90,6|10,2:2|2:2,0:0:0:0:
20,64,75325,2,0,P|62:48|110:44,1,90,2|10,2:2|2:2,0:0:0:0:
192,69,75999,6,0,L|331:60,2,135,14|10|10,2:2|2:2|2:2,0:0:0:0:
106,43,77347,2,0,P|94:100|118:142,1,90,6|8,2:2|2:2,0:0:0:0:
107,217,78022,2,0,P|115:273|119:316,1,90,0|8,3:3|3:3,0:0:0:0:
208,316,78696,6,0,P|300:304|384:332,1,180,6|0,2:2|2:2,0:0:0:0:
464,372,79707,1,8,2:2:0:0:
512,296,80044,2,0,L|488:116,1,180,6|0,2:2|2:2,0:0:0:0:
428,48,81055,1,8,2:2:0:0:
352,96,81392,6,0,P|308:104|260:104,1,90,12|8,2:2|2:2,0:0:0:0:
200,36,82067,2,0,P|156:28|108:28,1,90,12|8,2:2|2:2,0:0:0:0:
44,88,82741,2,0,L|64:272,1,180,12|0,3:2|3:3,0:0:0:0:
128,328,83752,1,8,3:3:0:0:
208,284,84089,6,0,P|276:288|340:316,2,135,4|8|8,2:2|2:2|2:2,0:0:0:0:
128,240,85437,2,0,P|88:168|108:76,1,180,0|0,3:3|3:3,0:0:0:0:
184,24,86449,1,8,3:3:0:0:
252,80,86786,6,0,L|244:220,2,135,4|8|0,2:2|2:2|3:3,0:0:0:0:
336,48,88134,2,0,P|424:64|480:136,1,180,0|0,0:0|3:3,0:0:0:0:
504,216,89145,1,8,2:3:0:0:
480,304,89482,6,0,L|344:312,2,135,4|8|8,2:2|2:2|2:2,0:0:0:0:
504,216,90831,2,0,L|320:228,1,180,0|0,3:3|3:3,0:0:0:0:
256,172,91842,1,8,2:3:0:0:
172,204,92179,6,0,P|124:284|140:372,2,180,4|2|2,2:2|2:2|2:2,0:0:0:0:
256,172,93864,1,8,2:2:0:0:
188,116,94201,2,0,L|96:128,1,90,0|8,3:3|2:3,0:0:0:0:
64,44,94876,6,0,L|244:20,1,180,4|0,2:2|3:3,0:0:0:0:
328,48,95887,1,8,2:2:0:0:
384,120,96224,2,0,B|416:208|360:208|388:296,1,180,0|0,2:2|2:2,0:0:0:0:
340,372,97235,1,8,2:2:0:0:
256,336,97572,6,0,L|76:360,2,180,4|0|0,2:2|2:2|2:2,0:0:0:0:
296,256,99258,1,8,2:2:0:0:
232,196,99595,2,0,P|228:148|236:108,1,90,8|8,2:2|2:2,0:0:0:0:
192,28,100269,6,0,L|52:40,1,135,14|6,2:2|2:2,0:0:0:0:
12,116,101111,2,0,L|4:168,2,45,2|8|6,2:2|2:2|2:2,0:0:0:0:
100,124,101786,2,0,L|240:136,1,135,0|0,3:3|3:3,0:0:0:0:
276,216,102628,1,8,2:3:0:0:
360,184,102965,6,0,L|348:92,1,90,12|8,2:2|2:2,0:0:0:0:
432,60,103640,2,0,L|443:149,1,90,8|8,2:2|2:2,0:0:0:0:
504,216,104314,1,8,2:2:0:0:
464,296,104651,1,8,2:2:0:0:
376,272,104988,2,0,B|286:275|286:275|244:296,1,135,8|2,2:2|2:2,0:0:0:0:
256,192,105662,12,0,111116,0:0:0:0:
