osu file format v14

[General]
AudioFilename: audio.mp3
AudioLeadIn: 0
PreviewTime: 51739
Countdown: 0
SampleSet: Soft
StackLeniency: 0.5
Mode: 0
LetterboxInBreaks: 0
WidescreenStoryboard: 1

[Editor]
DistanceSpacing: 0.8
BeatDivisor: 4
GridSize: 4
TimelineZoom: 2.2

[Metadata]
Title:Hi FiVE! (Cut Ver.)
TitleUnicode:Hi FiVE! (Cut Ver.)
Artist:LiSA
ArtistUnicode:LiSA
Creator:Cellina
Version:No Dap's Extra
Source:
Tags:pop 織部里沙 LUCKY Hi FiVE! alacat Dailycare HabiHolic No Dap reana moeka momoka shioi no_dap japanese
BeatmapID:3206797
BeatmapSetID:550137

[Difficulty]
HPDrainRate:6
CircleSize:4
OverallDifficulty:8.5
ApproachRate:9.3
SliderMultiplier:2
SliderTickRate:1

[Events]
//Background and Video events
0,0,"BG.jpg",0,0
//Break Periods
//Storyboard Layer 0 (Background)
//Storyboard Layer 1 (Fail)
//Storyboard Layer 2 (Pass)
//Storyboard Layer 3 (Foreground)
//Storyboard Layer 4 (Overlay)
//Storyboard Sound Samples

[TimingPoints]
494,337.078651685393,4,2,1,50,1,0
3190,-133.333333333333,4,2,1,50,0,0
5213,-66.6666666666667,4,2,1,70,0,0
5465,-66.6666666666667,4,2,1,5,0,0
5550,-66.6666666666667,4,2,1,70,0,0
5802,-66.6666666666667,4,2,1,5,0,0
5887,-100,4,2,1,70,0,0
11280,-100,4,2,1,40,0,0
11954,-100,4,2,1,50,0,0
12628,-100,4,2,1,60,0,0
13302,-100,4,2,1,70,0,0
13808,-133.333333333333,4,2,1,70,0,0
24426,-80,4,2,1,90,0,0
24679,-66.6666666666667,4,2,1,70,0,0
24763,-100,4,2,2,70,0,0
25100,-100,4,2,1,70,0,0
30324,-100,4,2,2,70,0,0
30493,-100,4,2,1,70,0,0
32516,-80,4,2,1,70,0,0
32769,-80,4,2,1,5,0,0
32853,-100,4,2,1,70,0,0
35718,-100,4,2,2,70,0,0
35887,-100,4,2,1,70,0,0
37066,-100,4,2,2,70,0,0
37235,-100,4,2,1,70,0,0
38414,-100,4,2,2,70,0,0
38583,-100,4,2,1,70,0,0
39763,-100,4,2,2,70,0,0
39932,-100,4,2,1,70,0,0
40943,-100,4,2,2,70,0,0
41111,-100,4,2,1,70,0,0
42123,-100,4,2,2,70,0,0
42460,-100,4,2,1,70,0,0
43640,-100,4,2,2,70,0,0
43977,-100,4,2,1,70,0,0
44314,-100,4,2,2,70,0,0
44482,-100,4,2,1,70,0,0
45156,-100,4,2,2,70,0,0
45325,-100,4,2,1,70,0,0
46336,-100,4,2,1,70,0,0
47010,-100,4,2,1,70,0,0
47685,-100,4,2,1,70,0,0
48359,-100,4,2,1,70,0,0
49033,-100,4,2,1,70,0,0
49286,-100,4,2,1,5,0,0
49370,-100,4,2,1,70,0,0
51392,-80,4,2,3,70,0,0
51645,-80,4,2,3,5,0,0
51729,-100,4,2,4,75,0,0
51898,-100,4,2,2,75,0,0
52066,-100,4,2,5,75,0,0
52404,-100,4,2,4,75,0,0
52741,-100,4,2,5,75,0,0
53078,-100,4,2,4,75,0,0
53415,-100,4,2,5,75,0,0
53583,-100,4,2,4,75,0,0
54089,-100,4,2,5,75,0,0
54426,-100,4,2,4,75,0,0
54595,-100,4,2,2,75,0,0
54763,-100,4,2,5,75,0,0
55100,-100,4,2,4,75,0,0
55437,-100,4,2,5,75,0,0
55774,-100,4,2,4,75,0,0
56111,-100,4,2,5,75,0,0
56280,-100,4,2,4,75,0,0
56364,-100,4,2,1,75,0,0
56449,-100,4,2,4,75,0,0
56786,-100,4,2,5,75,0,0
57123,-100,4,2,4,75,0,0
57292,-100,4,2,2,75,0,0
57460,-100,4,2,5,75,0,0
57797,-100,4,2,4,75,0,0
58134,-100,4,2,5,75,0,0
58471,-100,4,2,4,75,0,0
58808,-100,4,2,5,75,0,0
58976,-100,4,2,4,75,0,0
59482,-100,4,2,5,75,0,0
59819,-100,4,2,4,75,0,0
59988,-100,4,2,2,75,0,0
60156,-100,4,2,5,75,0,0
60493,-100,4,2,4,75,0,0
60831,-100,4,2,5,75,0,0
61168,-100,4,2,2,75,0,0
61336,-100,4,2,4,75,0,0
61505,-100,4,2,1,75,0,0
61842,-100,4,2,2,75,0,0
62010,-100,4,2,1,75,0,0
62516,-100,4,2,2,75,0,0
62853,-100,4,2,5,75,0,0
63190,-100,4,2,4,75,0,0
63360,-100,4,2,2,75,0,0
63527,-100,4,2,5,75,0,0
63864,-100,4,2,4,75,0,0
64201,-100,4,2,5,75,0,0
64370,-100,4,2,4,75,0,0
64876,-100,4,2,5,75,0,0
65213,-100,4,2,1,75,0,0
66561,-100,4,2,1,75,0,0
67909,-100,4,2,2,75,0,0
68078,-100,4,2,1,75,0,0
68246,-100,4,2,5,75,0,0
68583,-100,4,2,4,75,0,0
68920,-100,4,2,5,75,0,0
69258,-100,4,2,4,75,0,0
69595,-100,4,2,5,75,0,0
69763,-100,4,2,4,75,0,0
70269,-100,4,2,5,75,0,0
70606,-100,4,2,4,75,0,0
70775,-100,4,2,2,75,0,0
70943,-100,4,2,5,75,0,0
71280,-100,4,2,4,75,0,0
71617,-100,4,2,5,75,0,0
71954,-100,4,2,4,75,0,0
72291,-100,4,2,5,75,0,0
72460,-100,4,2,4,75,0,0
72965,-100,4,2,5,75,0,0
73302,-100,4,2,4,75,0,0
73471,-100,4,2,2,75,0,0
73639,-100,4,2,5,75,0,0
73977,-100,4,2,4,75,0,0
74314,-100,4,2,5,75,0,0
74651,-100,4,2,4,75,0,0
74988,-100,4,2,5,75,0,0
75156,-100,4,2,4,75,0,0
75662,-100,4,2,5,75,0,0
76168,-100,4,2,4,75,0,0
76505,-100,4,2,5,75,0,0
76673,-100,4,2,4,75,0,0
77010,-100,4,2,5,75,0,0
77178,-100,4,2,4,75,0,0
77347,-100,4,2,5,75,0,0
77685,-100,4,2,4,75,0,0
77853,-100,4,2,1,75,0,0
78022,-100,4,2,1,75,0,0
78696,-100,4,2,2,75,0,0
79033,-100,4,2,5,75,0,0
79370,-100,4,2,4,75,0,0
79707,-100,4,2,5,75,0,0
80044,-100,4,2,4,75,0,0
80381,-100,4,2,5,75,0,0
80550,-100,4,2,4,75,0,0
80634,-100,4,2,1,75,0,0
80718,-100,4,2,4,75,0,0
81055,-100,4,2,5,75,0,0
81392,-100,4,2,1,75,0,0
84089,-100,4,2,1,75,0,0
84426,-100,4,2,5,75,0,0
85437,-100,4,2,1,75,0,0
86786,-100,4,2,1,75,0,0
87123,-100,4,2,5,75,0,0
87628,-100,4,2,1,75,0,0
87965,-100,4,2,1,75,0,0
88471,-100,4,2,5,75,0,0
88808,-100,4,2,1,75,0,0
89482,-100,4,2,1,75,0,0
89819,-100,4,2,5,75,0,0
90831,-100,4,2,1,75,0,0
92179,-100,4,2,1,75,0,0
92516,-100,4,2,5,75,0,0
94033,-100,4,2,1,75,0,0
94876,-100,4,2,2,75,0,0
95213,-100,4,2,5,75,0,0
95549,-100,4,2,2,75,0,0
95718,-100,4,2,4,75,0,0
95802,-100,4,2,5,75,0,0
96224,-100,4,2,4,75,0,0
96392,-100,4,2,5,75,0,0
96729,-100,4,2,4,75,0,0
97235,-100,4,2,5,75,0,0
97572,-100,4,2,4,75,0,0
97909,-100,4,2,5,75,0,0
98246,-100,4,2,4,75,0,0
98499,-100,4,2,5,75,0,0
98920,-100,4,2,4,75,0,0
99088,-100,4,2,5,75,0,0
99426,-100,4,2,4,75,0,0
99932,-100,4,2,1,75,0,0
100269,-100,4,2,5,75,0,0
101701,-100,4,2,5,5,0,0
101786,-100,4,2,1,75,0,0
102965,-100,4,2,5,75,0,0
103133,-100,4,2,2,75,0,0
103302,-100,4,2,5,75,0,0
103471,-100,4,2,2,75,0,0
103640,-100,4,2,5,75,0,0
103808,-100,4,2,2,75,0,0
103977,-100,4,2,5,75,0,0
104145,-100,4,2,2,75,0,0
104314,-100,4,2,5,75,0,0
104482,-100,4,2,2,75,0,0
104651,-100,4,2,5,75,0,0
104820,-100,4,2,2,75,0,0
104988,-100,4,2,5,75,0,0
105662,340.909090909091,4,2,5,50,1,0
105662,-200,4,2,5,50,0,0
111116,-100,4,2,5,40,0,0

[Colours]
Combo1 : 255,241,53
Combo2 : 147,206,255
Combo3 : 182,255,161
Combo4 : 255,167,167

[HitObjects]
138,331,3190,6,0,L|145:256,1,75.0000028610231,0|0,3:3|2:2,0:0:0:0:
251,188,3527,2,0,L|244:262,1,75.0000028610231,0|0,3:3|2:2,0:0:0:0:
140,139,3864,2,0,P|103:134|68:123,1,75.0000028610231,0|0,3:3|2:2,0:0:0:0:
229,81,4201,2,0,P|265:73|302:74,1,75.0000028610231,0|0,3:3|2:2,0:0:0:0:
404,121,4538,2,0,P|411:85|412:47,1,75.0000028610231,0|0,3:3|2:2,0:0:0:0:
352,212,4876,2,0,P|389:217|425:226,1,75.0000028610231,0|0,3:3|2:2,0:0:0:0:
202,231,5213,6,0,B|241:228|263:254|263:254|240:185|299:167|246:82,1,225.000008583069,4|0,2:2|2:2,0:0:0:0:
292,34,5550,2,0,B|224:12|188:68|188:68|176:49|176:49|131:69|94:51,1,225.000008583069,4|0,2:2|2:2,0:0:0:0:
41,112,5887,6,0,L|47:220,1,100,4|0,3:2|2:2,0:0:0:0:
162,170,6224,1,8,2:2:0:0:
122,280,6392,2,0,P|243:317|301:268,1,200,0|0,3:3|3:3,0:0:0:0:
399,217,6898,1,8,2:2:0:0:
305,92,7067,6,0,P|298:141|308:190,1,100,0|0,3:3|2:2,0:0:0:0:
406,20,7404,1,0,3:3:0:0:
305,92,7572,2,0,P|255:83|209:64,1,100,8|0,3:2|2:2,0:0:0:0:
77,176,7909,1,8,2:2:0:0:
229,343,8078,1,0,3:3:0:0:
199,173,8246,1,8,2:2:0:0:
64,326,8415,1,0,3:3:0:0:
336,246,8583,6,0,B|272:242|272:242|215:271|215:271|143:264,2,200,4|8|0,3:2|2:2|3:3,0:0:0:0:
299,341,9426,1,0,3:3:0:0:
199,173,9595,2,0,P|208:123|227:77,1,100,8|0,2:2|2:2,0:0:0:0:
109,163,9932,6,0,P|62:182|13:191,1,100,8|0,2:2|3:3,0:0:0:0:
295,204,10269,2,0,P|341:184|390:175,1,100,8|0,2:2|3:3,0:0:0:0:
226,77,10606,1,8,2:2:0:0:
180,232,10774,1,0,3:3:0:0:
51,120,10943,1,8,2:2:0:0:
160,348,11111,1,0,3:3:0:0:
304,119,11280,5,4,3:2:0:0:
318,111,11617,1,0,3:3:0:0:
333,104,11954,1,0,3:3:0:0:
348,96,12291,1,0,3:3:0:0:
240,193,12628,5,0,3:3:0:0:
236,209,12965,1,0,3:3:0:0:
233,225,13302,1,0,3:3:0:0:
230,242,13639,1,0,3:3:0:0:
143,155,13808,5,2,2:2:0:0:
261,342,13977,2,0,P|318:297|330:224,1,150.000005722046,4|0,2:2|2:2,0:0:0:0:
262,141,14482,1,2,2:2:0:0:
262,141,14567,1,0,2:2:0:0:
262,141,14651,2,0,P|307:135|345:127,1,75.0000028610231,2|0,2:2|2:2,0:0:0:0:
410,182,14988,1,2,2:2:0:0:
466,46,15156,6,0,P|405:62|319:31,1,150.000005722046,2|2,2:2|2:2,0:0:0:0:
224,63,15662,1,0,2:2:0:0:
121,31,15831,1,2,2:2:0:0:
111,47,15915,1,0,2:2:0:0:
104,64,15999,1,2,2:2:0:0:
99,82,16083,1,0,2:2:0:0:
98,101,16168,1,2,2:2:0:0:
198,201,16336,2,0,P|189:161|177:129,1,75.0000028610231,2|0,2:2|2:2,0:0:0:0:
281,191,16673,6,0,P|315:207|357:215,1,75.0000028610231,2|0,2:2|2:2,0:0:0:0:
271,314,17010,1,2,2:2:0:0:
400,282,17179,1,2,2:2:0:0:
397,300,17263,1,0,2:2:0:0:
395,319,17347,1,2,2:2:0:0:
393,337,17431,1,0,2:2:0:0:
391,356,17516,1,2,2:2:0:0:
271,314,17685,2,0,P|234:322|200:337,1,75.0000028610231,2|0,2:2|2:2,0:0:0:0:
131,365,17937,1,0,2:2:0:0:
131,365,18022,6,0,L|119:262,1,75.0000028610231,2|0,2:2|2:2,0:0:0:0:
39,241,18359,1,2,2:2:0:0:
173,155,18527,1,2,2:2:0:0:
154,158,18611,1,0,2:2:0:0:
136,161,18695,1,2,2:2:0:0:
117,164,18779,1,0,2:2:0:0:
99,167,18864,1,2,2:2:0:0:
26,84,19033,2,0,L|101:71,1,75.0000028610231,2|0,2:2|2:2,0:0:0:0:
237,23,19370,6,0,L|228:107,1,75.0000028610231,2|0,2:2|2:2,0:0:0:0:
137,241,19707,2,0,L|144:166,1,75.0000028610231,2|2,2:2|2:2,0:0:0:0:
142,157,19960,1,0,2:2:0:0:
139,148,20044,1,2,2:2:0:0:
136,139,20128,1,0,2:2:0:0:
133,130,20213,1,2,2:2:0:0:
238,227,20381,1,2,2:2:0:0:
173,321,20550,6,0,P|97:333|29:368,1,150.000005722046,2|0,2:2|2:2,0:0:0:0:
256,365,21055,1,2,2:2:0:0:
316,230,21224,1,2,2:2:0:0:
317,248,21308,1,0,2:2:0:0:
319,267,21392,1,2,2:2:0:0:
321,285,21476,1,0,2:2:0:0:
323,304,21561,1,2,2:2:0:0:
181,179,21729,2,0,L|253:159,1,75.0000028610231,2|0,2:2|2:2,0:0:0:0:
129,26,22067,6,0,P|80:99|105:163,1,150.000005722046,2|2,2:2|2:2,0:0:0:0:
213,218,22572,1,2,2:2:0:0:
209,236,22656,1,0,2:2:0:0:
206,254,22740,1,2,2:2:0:0:
202,273,22824,1,0,2:2:0:0:
199,291,22909,1,2,2:2:0:0:
186,103,23078,2,0,P|222:110|259:115,1,75.0000028610231,2|2,2:2|2:2,0:0:0:0:
437,146,23415,5,0,2:2:0:0:
451,38,23583,1,0,2:2:0:0:
343,26,23752,1,0,2:2:0:0:
331,134,23920,1,0,2:2:0:0:
436,146,24089,6,0,P|403:154|353:142,1,75.0000028610231,0|0,2:2|2:2,0:0:0:0:
331,134,24342,1,0,2:2:0:0:
331,134,24426,2,0,B|307:107|277:109|277:109|246:147|192:155|151:129,1,187.5,8|0,2:2|2:2,0:0:0:0:
84,123,24763,6,0,P|80:73|70:25,1,100,4|0,2:2|2:2,0:0:0:0:
261,235,25100,2,0,P|250:283|246:333,1,100,8|0,2:2|3:3,0:0:0:0:
247,334,25353,1,0,3:3:0:0:
247,334,25437,1,0,3:3:0:0:
402,318,25606,1,0,3:3:0:0:
341,196,25774,2,0,P|390:196|440:186,1,100,8|0,2:2|2:2,0:0:0:0:
315,89,26111,5,0,3:3:0:0:
256,235,26280,1,0,3:3:0:0:
101,138,26449,1,8,2:2:0:0:
226,25,26617,1,0,3:3:0:0:
226,25,26701,1,0,3:3:0:0:
226,25,26786,2,0,L|211:141,1,100,0|0,3:3|3:3,0:0:0:0:
81,286,27123,1,8,2:2:0:0:
163,194,27291,1,0,2:2:0:0:
14,97,27460,6,0,P|110:104|182:37,1,200,0|8,3:3|2:2,0:0:0:0:
331,160,27965,1,0,3:3:0:0:
331,160,28050,1,0,3:3:0:0:
331,159,28134,2,0,P|276:157|223:149,1,100,0|0,3:3|3:3,0:0:0:0:
396,85,28471,1,8,2:2:0:0:
430,258,28640,1,0,2:2:0:0:
278,246,28808,6,0,L|293:344,1,100,0|0,3:3|3:3,0:0:0:0:
83,330,29145,1,8,2:2:0:0:
180,235,29314,1,0,3:3:0:0:
180,235,29399,1,0,3:3:0:0:
180,235,29482,1,0,3:3:0:0:
21,154,29651,1,0,3:3:0:0:
82,329,29819,2,0,P|69:282|80:233,1,100,8|0,2:2|2:2,0:0:0:0:
158,35,30156,6,0,P|171:82|160:131,1,100,0|0,3:3|2:2,0:0:0:0:
77,86,30493,1,8,2:2:0:0:
268,32,30662,1,0,3:3:0:0:
268,32,30746,1,0,3:3:0:0:
268,32,30831,1,0,3:3:0:0:
201,213,30999,1,0,3:3:0:0:
347,126,31168,1,8,2:2:0:0:
201,213,31336,1,0,2:2:0:0:
303,336,31505,6,0,L|290:236,1,100,0|0,3:3|3:3,0:0:0:0:
76,338,31842,2,0,P|125:330|172:307,1,100,8|0,2:2|3:3,0:0:0:0:
169,308,32095,1,0,3:3:0:0:
169,308,32179,1,0,3:3:0:0:
56,219,32347,1,0,3:3:0:0:
236,41,32516,2,0,B|231:78|211:108|211:108|234:139|234:139|211:179|215:220,1,187.5,12|0,2:2|2:2,0:0:0:0:
282,299,32853,6,0,P|332:296|379:279,1,100,12|0,2:2|3:3,0:0:0:0:
416,72,33190,2,0,B|387:58|362:66|362:66|356:152|332:213,1,200,8|8,2:2|2:2,0:0:0:0:
416,72,33696,1,0,3:3:0:0:
194,26,33864,2,0,P|199:75|211:144,1,100,8|0,2:2|3:3,0:0:0:0:
334,207,34201,5,8,2:2:0:0:
111,321,34370,1,0,3:3:0:0:
208,126,34538,1,8,2:2:0:0:
292,367,34707,1,8,2:2:0:0:
292,367,34791,1,8,2:2:0:0:
292,367,34876,1,8,2:2:0:0:
355,93,35044,1,0,3:3:0:0:
101,181,35213,1,0,3:3:0:0:
388,344,35381,6,0,P|462:285|430:163,1,200,4|0,2:2|2:2,0:0:0:0:
284,271,35887,2,0,P|335:254|381:249,1,100,8|0,2:2|3:3,0:0:0:0:
381,250,36140,1,0,3:3:0:0:
381,250,36224,1,0,3:3:0:0:
214,343,36392,1,0,3:3:0:0:
308,180,36561,2,0,P|302:130|292:81,1,100,8|0,2:2|2:2,0:0:0:0:
56,233,36898,6,0,P|61:282|71:331,1,100,0|0,3:3|2:2,0:0:0:0:
194,252,37235,1,8,2:2:0:0:
82,131,37404,1,0,3:3:0:0:
82,131,37488,1,0,3:3:0:0:
82,131,37572,2,0,P|131:129|179:115,1,100,0|0,3:3|3:3,0:0:0:0:
286,19,37909,1,8,2:2:0:0:
342,158,38078,1,0,2:2:0:0:
286,19,38246,6,0,P|236:20|188:34,1,100,0|0,3:3|2:2,0:0:0:0:
235,272,38583,2,0,P|248:224|250:174,1,100,8|0,2:2|3:3,0:0:0:0:
250,174,38836,1,0,3:3:0:0:
250,174,38920,1,0,3:3:0:0:
362,246,39089,1,0,3:3:0:0:
159,208,39258,1,8,2:2:0:0:
335,111,39426,1,0,2:2:0:0:
318,322,39595,6,0,P|265:313|206:306,1,100,0|0,3:3|2:2,0:0:0:0:
464,298,39932,1,8,2:2:0:0:
427,159,40100,1,0,3:3:0:0:
261,279,40269,1,0,3:3:0:0:
427,158,40437,2,0,P|435:110|423:58,1,100,0|8,3:3|2:2,0:0:0:0:
222,171,40774,1,0,2:2:0:0:
369,282,40943,5,4,2:2:0:0:
228,87,41111,1,0,3:3:0:0:
427,159,41280,1,8,2:2:0:0:
221,340,41449,2,0,P|201:294|208:241,1,100,4|0,3:2|2:2,0:0:0:0:
320,186,41786,1,0,3:3:0:0:
137,81,41954,1,8,2:2:0:0:
56,324,42123,6,0,P|154:305|253:297,1,200,4|0,2:2|3:3,0:0:0:0:
47,208,42628,1,8,2:2:0:0:
186,375,42797,1,0,3:3:0:0:
265,69,42965,1,8,2:2:0:0:
132,272,43134,1,0,3:3:0:0:
403,206,43302,1,8,2:3:0:0:
365,201,43386,1,8,2:3:0:0:
328,197,43470,1,8,2:3:0:0:
291,192,43554,1,8,2:3:0:0:
254,188,43640,6,0,L|270:312,1,100,4|0,2:2|2:2,0:0:0:0:
124,160,43977,2,0,L|111:60,1,100,8|0,2:2|3:3,0:0:0:0:
111,60,44229,1,0,3:3:0:0:
111,60,44314,1,0,2:2:0:0:
254,188,44482,1,0,3:3:0:0:
194,338,44651,1,8,2:2:0:0:
19,259,44819,1,0,2:2:0:0:
194,338,44988,6,0,P|241:321|290:310,1,100,0|0,3:3|2:2,0:0:0:0:
455,217,45325,2,0,P|406:206|358:189,1,100,8|0,2:2|3:3,0:0:0:0:
360,190,45578,1,0,3:3:0:0:
360,190,45662,1,0,3:3:0:0:
164,154,45831,1,0,3:3:0:0:
279,325,45999,2,0,L|266:206,1,100,8|0,2:2|2:2,0:0:0:0:
310,30,46336,5,12,3:2:0:0:
299,52,46420,1,0,3:3:0:0:
283,71,46505,1,0,3:3:0:0:
263,85,46588,1,0,3:3:0:0:
240,95,46673,1,8,3:2:0:0:
215,98,46757,1,0,3:3:0:0:
190,95,46841,1,0,3:3:0:0:
167,86,46925,1,0,3:3:0:0:
146,72,47010,2,0,L|167:17,3,50,8|0|0|0,3:2|3:3|3:3|3:3,0:0:0:0:
55,169,47347,2,0,L|34:114,3,50,8|0|0|0,3:2|3:3|3:3|3:3,0:0:0:0:
37,293,47685,5,8,3:2:0:0:
73,276,47769,1,0,3:3:0:0:
109,271,47853,1,0,3:3:0:0:
148,276,47937,1,0,3:3:0:0:
182,297,48022,1,8,3:2:0:0:
204,330,48106,1,0,3:3:0:0:
225,363,48190,1,0,3:3:0:0:
262,376,48274,1,0,3:3:0:0:
302,373,48359,1,8,3:2:0:0:
331,346,48443,1,0,3:3:0:0:
350,311,48527,1,0,3:3:0:0:
353,271,48611,1,0,3:3:0:0:
330,237,48696,1,8,3:2:0:0:
295,217,48780,1,0,3:3:0:0:
255,215,48864,1,0,3:3:0:0:
218,232,48949,1,0,3:3:0:0:
199,267,49033,6,0,B|185:231|197:193|197:193|187:189|187:189|192:154|183:115,1,150,4|0,2:2|2:2,0:0:0:0:
196,46,49370,5,8,2:2:0:0:
74,175,49538,1,8,2:2:0:0:
301,83,49707,1,8,2:2:0:0:
62,275,49876,1,8,2:2:0:0:
374,148,50044,1,8,2:2:0:0:
52,371,50213,1,8,2:2:0:0:
196,46,50381,5,12,2:2:0:0:
342,352,50550,1,8,2:2:0:0:
34,179,50718,1,8,2:2:0:0:
399,96,50887,1,12,2:2:0:0:
399,96,51392,6,0,B|366:108|346:137|346:137|298:104|231:118,1,187.5,8|0,2:2|2:2,0:0:0:0:
179,194,51729,6,0,B|129:158|143:93|143:93|97:73|60:96,1,200,6|8,2:2|2:2,0:0:0:0:
56,298,52235,1,2,2:2:0:0:
56,298,52319,1,0,2:2:0:0:
56,298,52404,2,0,P|49:234|47:193,1,100,2|0,2:2|2:2,0:0:0:0:
198,326,52741,1,8,2:2:0:0:
275,239,52909,1,2,2:2:0:0:
201,111,53078,6,0,P|188:159|193:208,1,100,2|0,2:2|2:2,0:0:0:0:
120,77,53415,2,0,P|77:50|30:36,1,100,10|0,2:2|2:2,0:0:0:0:
280,161,53752,2,0,P|327:146|369:120,1,100,2|0,2:2|2:2,0:0:0:0:
389,240,54089,1,10,2:2:0:0:
241,60,54258,1,0,2:2:0:0:
241,60,54342,1,0,2:2:0:0:
241,60,54426,6,0,P|184:120|198:229,1,200,2|8,2:2|2:2,0:0:0:0:
30,66,54932,2,0,P|79:61|125:42,1,100,2|0,2:2|2:2,0:0:0:0:
115,248,55269,1,2,2:2:0:0:
261,106,55437,2,0,P|211:111|165:130,1,100,10|2,2:2|2:2,0:0:0:0:
285,343,55774,6,0,P|294:292|288:243,1,100,0|0,2:2|2:2,0:0:0:0:
363,176,56111,1,8,2:2:0:0:
201,293,56280,1,2,2:2:0:0:
201,293,56364,1,0,2:2:0:0:
201,293,56449,2,0,P|152:279|100:273,1,100,0|2,2:2|2:2,0:0:0:0:
71,79,56786,1,10,2:2:0:0:
210,163,56954,1,2,2:2:0:0:
88,361,57123,6,0,P|17:296|40:203,1,200,6|8,2:2|2:2,0:0:0:0:
210,163,57628,1,2,2:2:0:0:
210,163,57713,1,0,2:2:0:0:
210,163,57797,1,2,2:2:0:0:
103,273,57965,1,0,2:2:0:0:
56,111,58134,1,8,2:2:0:0:
190,259,58302,1,2,2:2:0:0:
307,141,58471,6,0,P|353:157|403:162,1,100,2|0,2:2|2:2,0:0:0:0:
164,18,58808,2,0,P|180:64|185:114,1,100,10|0,2:2|2:2,0:0:0:0:
48,331,59145,2,0,P|31:284|26:234,1,100,2|0,2:2|2:2,0:0:0:0:
208,334,59482,1,10,2:2:0:0:
418,176,59651,1,0,2:2:0:0:
418,176,59735,1,0,2:2:0:0:
418,176,59819,6,0,P|308:199|254:123,1,200,6|10,2:2|2:2,0:0:0:0:
314,8,60325,2,0,P|337:52|342:101,1,100,2|0,2:2|2:2,0:0:0:0:
227,320,60662,1,2,2:2:0:0:
356,222,60831,1,10,2:2:0:0:
132,81,60999,6,0,P|60:144|82:237,1,200,6|0,2:2|2:2,0:0:0:0:
205,174,61505,1,8,2:2:0:0:
88,338,61673,1,0,3:3:0:0:
132,81,61842,1,8,2:2:0:0:
303,300,62010,1,0,3:3:0:0:
450,126,62179,1,8,2:3:0:0:
412,140,62263,1,8,2:3:0:0:
372,141,62347,1,8,2:3:0:0:
334,125,62432,1,8,2:3:0:0:
309,93,62516,6,0,L|329:-4,1,100,4|2,2:2|2:2,0:0:0:0:
144,204,62853,2,0,L|123:301,1,100,8|2,2:2|2:2,0:0:0:0:
303,300,63190,2,0,P|324:225|232:157,1,200,2|10,2:2|2:2,0:0:0:0:
220,352,63696,1,2,2:2:0:0:
415,195,63864,5,2,2:2:0:0:
230,240,64033,1,2,2:2:0:0:
429,318,64201,1,8,2:2:0:0:
230,239,64370,2,0,P|183:259|132:269,1,100,2|0,2:2|2:2,0:0:0:0:
338,96,64707,1,0,2:2:0:0:
230,240,64876,1,10,2:2:0:0:
412,212,65044,1,2,2:2:0:0:
189,106,65213,5,12,2:2:0:0:
358,353,65381,1,2,3:2:0:0:
338,96,65550,1,8,2:2:0:0:
159,315,65718,1,2,3:2:0:0:
37,143,65887,5,8,2:2:0:0:
271,212,66055,1,2,3:2:0:0:
201,22,66224,1,8,2:2:0:0:
73,282,66392,1,2,3:2:0:0:
254,109,66561,5,0,3:3:0:0:
281,109,66645,1,0,3:3:0:0:
306,115,66729,1,0,3:3:0:0:
328,127,66813,1,0,3:3:0:0:
346,144,66898,1,0,3:3:0:0:
361,164,66982,1,0,3:3:0:0:
370,187,67066,1,0,3:3:0:0:
373,212,67150,1,0,3:3:0:0:
366,252,67235,5,8,2:3:0:0:
327,241,67319,1,8,2:3:0:0:
287,231,67404,1,8,2:3:0:0:
247,233,67488,1,8,2:3:0:0:
211,251,67572,1,10,2:3:0:0:
171,250,67656,1,10,2:3:0:0:
139,224,67741,1,10,2:3:0:0:
140,184,67825,1,10,2:3:0:0:
171,159,67909,6,0,P|243:220|213:319,1,200,6|8,2:2|2:2,0:0:0:0:
47,350,68415,1,2,2:2:0:0:
47,350,68499,1,0,2:2:0:0:
47,350,68583,2,0,P|38:300|35:250,1,100,2|0,2:2|2:2,0:0:0:0:
78,56,68920,1,8,2:2:0:0:
162,187,69089,1,2,2:2:0:0:
283,72,69258,6,0,P|332:80|382:79,1,100,2|0,2:2|2:2,0:0:0:0:
162,187,69595,2,0,P|111:178|63:179,1,100,10|0,2:2|2:2,0:0:0:0:
303,281,69932,2,0,P|352:272|402:273,1,100,2|0,2:2|2:2,0:0:0:0:
112,362,70269,2,0,P|103:312|104:262,1,100,10|0,2:2|2:2,0:0:0:0:
204,89,70606,6,0,B|302:128|302:51|397:92,1,200,6|10,2:2|2:2,0:0:0:0:
339,264,71111,1,2,2:2:0:0:
339,264,71196,1,0,2:2:0:0:
339,264,71280,2,0,P|344:207|344:150,1,100,0|2,2:2|2:2,0:0:0:0:
99,235,71617,2,0,P|93:285|94:334,1,100,10|2,2:2|2:2,0:0:0:0:
241,131,71954,5,0,2:2:0:0:
176,325,72123,1,0,2:2:0:0:
339,264,72291,1,8,2:2:0:0:
99,234,72460,2,0,P|148:229|193:208,1,100,2|0,2:2|2:2,0:0:0:0:
175,84,72797,1,2,2:2:0:0:
265,310,72965,1,10,2:2:0:0:
419,157,73134,1,2,2:2:0:0:
419,157,73218,1,0,2:2:0:0:
418,157,73302,6,0,B|347:148|287:182|287:182|265:152|269:117,1,200,6|8,2:2|2:2,0:0:0:0:
32,45,73808,1,2,2:2:0:0:
32,45,73892,1,0,2:2:0:0:
32,45,73977,2,0,P|81:39|126:18,1,100,2|0,2:2|2:2,0:0:0:0:
186,234,74314,1,8,2:2:0:0:
89,116,74482,1,2,2:2:0:0:
26,309,74651,6,0,P|75:315|123:329,1,100,6|0,2:2|2:2,0:0:0:0:
303,339,74988,2,0,P|288:291|282:241,1,100,10|0,2:2|2:2,0:0:0:0:
154,26,75325,2,0,P|168:73|174:123,1,100,2|0,2:2|2:2,0:0:0:0:
98,232,75662,1,10,2:2:0:0:
316,94,75831,1,0,2:2:0:0:
316,94,75915,1,0,2:2:0:0:
316,94,75999,5,14,2:2:0:0:
248,263,76168,1,0,2:2:0:0:
429,227,76336,1,2,2:2:0:0:
225,63,76505,5,10,2:2:0:0:
98,232,76673,1,0,2:2:0:0:
337,296,76842,1,2,2:2:0:0:
97,54,77010,5,10,2:2:0:0:
178,295,77178,1,2,2:2:0:0:
341,155,77347,1,6,2:2:0:0:
50,129,77516,5,8,2:2:0:0:
102,356,77685,1,8,2:2:0:0:
267,214,77853,1,2,2:2:0:0:
50,129,78022,5,0,3:3:0:0:
87,115,78106,1,0,3:3:0:0:
126,119,78190,1,0,3:3:0:0:
161,137,78274,1,0,3:3:0:0:
178,173,78359,1,8,3:3:0:0:
168,211,78443,1,8,3:3:0:0:
143,242,78527,1,8,3:3:0:0:
141,281,78611,1,8,3:3:0:0:
164,314,78696,6,0,P|212:303|262:296,1,100,6|0,2:2|2:2,0:0:0:0:
430,332,79033,1,8,2:2:0:0:
320,155,79201,1,2,2:2:0:0:
320,155,79286,1,0,2:2:0:0:
320,155,79370,2,0,P|334:204|341:253,1,100,0|2,2:2|2:2,0:0:0:0:
428,105,79707,2,0,P|414:56|407:7,1,100,8|2,2:2|2:2,0:0:0:0:
185,203,80044,5,6,2:2:0:0:
244,88,80213,1,0,2:2:0:0:
360,147,80381,1,8,2:2:0:0:
301,263,80550,1,2,2:2:0:0:
301,263,80634,1,0,2:2:0:0:
301,263,80718,2,0,P|305:313|317:362,1,100,0|2,2:2|2:2,0:0:0:0:
106,336,81055,1,8,2:2:0:0:
185,203,81224,1,2,2:2:0:0:
38,27,81392,5,12,2:2:0:0:
103,245,81561,1,2,3:2:0:0:
237,31,81729,1,8,2:2:0:0:
7,200,81898,1,2,3:2:0:0:
312,89,82067,5,12,2:2:0:0:
56,127,82235,1,2,3:2:0:0:
192,367,82404,1,8,2:2:0:0:
172,91,82572,1,2,3:2:0:0:
50,270,82741,5,12,3:2:0:0:
71,258,82825,1,0,3:3:0:0:
93,247,82909,1,8,3:2:0:0:
117,243,82993,1,0,3:3:0:0:
142,244,83078,1,0,3:3:0:0:
165,251,83162,1,0,3:3:0:0:
187,260,83246,1,0,3:3:0:0:
207,275,83331,1,0,3:3:0:0:
224,298,83415,5,0,3:3:0:0:
244,326,83499,1,0,3:3:0:0:
281,340,83583,1,0,3:3:0:0:
320,334,83668,1,0,3:3:0:0:
347,298,83752,1,8,3:3:0:0:
351,253,83836,1,8,3:3:0:0:
338,204,83920,1,8,3:3:0:0:
327,149,84005,1,8,3:3:0:0:
309,101,84089,6,0,P|370:93|411:71,1,100,4|0,2:2|2:2,0:0:0:0:
219,61,84426,1,8,2:2:0:0:
200,284,84595,2,0,P|184:238|182:188,1,100,8|0,2:2|2:2,0:0:0:0:
407,167,84932,1,0,2:2:0:0:
276,116,85100,1,8,2:2:0:0:
401,30,85269,1,0,2:2:0:0:
338,204,85437,5,0,3:3:0:0:
308,211,85522,1,0,3:3:0:0:
278,213,85606,1,0,3:3:0:0:
248,208,85690,1,0,3:3:0:0:
220,196,85774,1,0,3:3:0:0:
196,177,85859,1,0,3:3:0:0:
175,156,85943,1,0,3:3:0:0:
148,142,86027,1,0,3:3:0:0:
118,139,86111,1,0,3:3:0:0:
89,150,86196,1,0,3:3:0:0:
69,173,86280,1,0,3:3:0:0:
64,203,86364,1,0,3:3:0:0:
77,230,86449,1,8,3:3:0:0:
102,247,86533,1,8,3:3:0:0:
131,252,86617,1,8,3:3:0:0:
160,247,86701,1,8,3:3:0:0:
179,224,86786,6,0,P|189:272|206:319,1,100,4|0,2:2|2:2,0:0:0:0:
326,344,87123,1,8,2:2:0:0:
309,158,87291,2,0,P|286:202|271:250,1,100,8|0,2:2|2:2,0:0:0:0:
433,315,87628,1,0,3:3:0:0:
428,290,87712,1,0,3:3:0:0:
424,265,87796,1,0,3:3:0:0:
420,241,87880,1,0,3:3:0:0:
416,216,87965,6,0,B|438:166|438:166|441:89|393:30,1,200,4|0,3:2|2:2,0:0:0:0:
225,97,88471,1,8,2:2:0:0:
335,174,88640,1,0,2:2:0:0:
151,31,88808,5,0,3:3:0:0:
136,68,88892,1,0,3:3:0:0:
128,107,88977,1,0,3:3:0:0:
136,146,89061,1,0,3:3:0:0:
157,175,89145,1,8,2:3:0:0:
190,202,89229,1,8,2:3:0:0:
213,235,89314,1,8,2:3:0:0:
219,274,89398,1,8,2:3:0:0:
204,310,89482,6,0,P|156:299|106:293,1,100,4|0,2:2|2:2,0:0:0:0:
340,356,89819,1,8,2:2:0:0:
382,188,89988,2,0,P|332:193|283:205,1,100,8|0,2:2|2:2,0:0:0:0:
105,292,90325,1,0,2:2:0:0:
204,178,90493,1,8,2:2:0:0:
92,141,90662,1,0,2:2:0:0:
276,273,90831,5,0,3:3:0:0:
295,243,90915,1,0,3:3:0:0:
309,211,90999,1,0,3:3:0:0:
316,176,91083,1,0,3:3:0:0:
308,141,91168,1,0,3:3:0:0:
285,114,91252,1,0,3:3:0:0:
282,79,91336,1,0,3:3:0:0:
300,49,91420,1,0,3:3:0:0:
331,33,91505,1,0,3:3:0:0:
365,35,91589,1,0,3:3:0:0:
391,57,91673,1,0,3:3:0:0:
409,87,91758,1,0,3:3:0:0:
404,121,91842,1,8,2:3:0:0:
413,154,91926,1,8,2:3:0:0:
440,174,92010,1,8,2:3:0:0:
474,166,92095,1,8,2:3:0:0:
497,140,92179,6,0,P|491:202|489:259,1,100,4|0,2:2|2:2,0:0:0:0:
409,344,92516,1,8,2:2:0:0:
293,269,92685,1,2,2:2:0:0:
293,269,92769,1,0,2:2:0:0:
293,268,92853,2,0,P|244:277|194:271,1,100,2|0,2:2|2:2,0:0:0:0:
19,198,93190,6,0,P|9:149|15:99,1,100,8|0,2:2|2:2,0:0:0:0:
119,269,93527,2,0,P|128:317|122:367,1,100,2|0,2:2|2:2,0:0:0:0:
19,318,93864,1,8,2:2:0:0:
163,178,94033,5,0,3:3:0:0:
196,169,94117,1,0,3:3:0:0:
230,174,94201,1,0,3:3:0:0:
259,192,94286,1,0,3:3:0:0:
274,223,94370,1,0,3:3:0:0:
273,257,94454,1,0,3:3:0:0:
285,289,94538,1,8,2:3:0:0:
312,311,94623,1,8,2:3:0:0:
345,319,94707,1,8,2:3:0:0:
378,311,94791,1,8,2:3:0:0:
402,285,94876,6,0,P|411:232|420:172,1,100,4|2,2:2|2:2,0:0:0:0:
232,360,95213,1,8,2:2:0:0:
288,200,95381,2,0,P|240:214|190:215,1,100,2|0,2:2|3:3,0:0:0:0:
96,94,95718,1,2,2:2:0:0:
96,94,95802,1,0,2:2:0:0:
96,94,95887,2,0,P|143:79|193:78,1,100,8|0,2:2|2:2,0:0:0:0:
350,111,96224,6,0,P|329:43|327:5,1,100,0|0,2:2|2:2,0:0:0:0:
455,197,96561,2,0,P|448:246|431:293,1,100,8|0,2:2|2:2,0:0:0:0:
226,315,96898,1,0,2:2:0:0:
351,225,97067,1,0,2:2:0:0:
226,315,97235,2,0,P|178:303|128:295,1,100,8|0,2:2|2:2,0:0:0:0:
32,161,97572,6,0,P|81:153|130:141,1,100,4|2,2:2|2:2,0:0:0:0:
176,51,97909,1,8,2:2:0:0:
288,213,98078,2,0,P|280:163|268:114,1,100,2|0,2:2|2:2,0:0:0:0:
165,275,98415,1,2,2:2:0:0:
165,275,98499,1,0,2:2:0:0:
165,275,98583,2,0,P|172:324|184:373,1,100,8|0,2:2|2:2,0:0:0:0:
57,206,98920,6,0,P|93:171|132:140,1,100,0|0,2:2|2:2,0:0:0:0:
93,314,99258,1,8,2:2:0:0:
28,101,99426,1,0,2:2:0:0:
202,208,99595,1,8,2:2:0:0:
271,62,99763,1,0,2:2:0:0:
249,286,99932,1,8,2:2:0:0:
70,185,100100,1,0,2:2:0:0:
201,9,100269,6,0,P|181:55|171:103,1,100,14|0,2:2|2:2,0:0:0:0:
301,218,100606,1,10,2:2:0:0:
442,79,100774,2,0,P|388:101|341:107,1,100,6|0,2:2|2:2,0:0:0:0:
170,103,101111,1,2,2:2:0:0:
240,300,101280,1,8,2:2:0:0:
84,153,101449,2,0,P|29:202|35:274,1,150,6|0,2:2|2:2,0:0:0:0:
109,335,101786,5,0,3:3:0:0:
139,317,101870,1,0,3:3:0:0:
171,305,101954,1,0,3:3:0:0:
205,300,102038,1,0,3:3:0:0:
240,300,102123,1,0,3:3:0:0:
267,321,102207,1,0,3:3:0:0:
293,343,102291,1,0,3:3:0:0:
326,352,102376,1,0,3:3:0:0:
360,347,102460,1,0,3:3:0:0:
388,326,102544,1,0,3:3:0:0:
405,296,102628,1,8,2:3:0:0:
409,260,102713,1,8,2:3:0:0:
397,226,102797,1,8,2:3:0:0:
370,203,102881,1,8,2:3:0:0:
337,188,102965,6,0,P|350:140|369:94,1,100,12|0,2:2|3:3,0:0:0:0:
184,42,103302,1,8,2:2:0:0:
251,267,103471,1,0,3:3:0:0:
311,50,103640,1,8,2:2:0:0:
107,231,103808,1,0,3:3:0:0:
66,51,103977,1,8,2:2:0:0:
248,179,104145,1,0,3:3:0:0:
184,42,104314,5,8,2:2:0:0:
175,293,104482,1,0,3:3:0:0:
47,145,104651,1,8,2:2:0:0:
334,208,104820,1,0,3:3:0:0:
177,128,104988,5,8,2:2:0:0:
306,337,105156,1,2,2:2:0:0:
439,136,105325,1,8,2:2:0:0:
93,237,105493,1,2,2:2:0:0:
198,333,105662,6,0,L|210:229,1,100,2|0,2:2|2:2,0:0:0:0:
319,173,106173,2,0,L|307:272,1,100,2|0,2:2|2:2,0:0:0:0:
190,352,106684,6,0,L|203:234,1,100,2|0,2:2|2:2,0:0:0:0:
327,170,107196,2,0,L|314:283,1,100,2|0,2:2|2:2,0:0:0:0:
182,366,107707,6,0,L|114:376,1,50,2|0,2:2|2:2,0:0:0:0:
337,154,108048,2,0,L|386:146,1,50,2|0,2:2|2:2,0:0:0:0:
256,192,108304,12,0,111116,2:2:0:0:
