osu file format v14

[General]
AudioFilename: audio.mp3
AudioLeadIn: 0
PreviewTime: 51739
Countdown: 0
SampleSet: Soft
StackLeniency: 0.7
Mode: 0
LetterboxInBreaks: 0
WidescreenStoryboard: 1

[Editor]
Bookmarks: 35560,84099
DistanceSpacing: 0.8
BeatDivisor: 4
GridSize: 8
TimelineZoom: 2.3

[Metadata]
Title:Hi FiVE! (Cut Ver.)
TitleUnicode:Hi FiVE! (Cut Ver.)
Artist:LiSA
ArtistUnicode:LiSA
Creator:Cellina
Version:Insane
Source:
Tags:pop 織部里沙 LUCKY Hi FiVE! alacat Dailycare HabiHolic No Dap reana moeka momoka shioi no_dap japanese
BeatmapID:1165236
BeatmapSetID:550137

[Difficulty]
HPDrainRate:7
CircleSize:4
OverallDifficulty:7
ApproachRate:9
SliderMultiplier:1.65
SliderTickRate:1

[Events]
//Background and Video events
0,0,"BG.jpg",0,0
//Break Periods
//Storyboard Layer 0 (Background)
//Storyboard Layer 1 (Fail)
//Storyboard Layer 2 (Pass)
//Storyboard Layer 3 (Foreground)
//Storyboard Layer 4 (Overlay)
//Storyboard Sound Samples

[TimingPoints]
494,337.078651685393,4,2,1,50,1,0
3190,-125,4,2,1,50,0,0
5213,-125,4,2,1,70,0,0
5465,-125,4,2,1,5,0,0
5550,-76.9230769230769,4,2,1,70,0,0
5802,-76.9230769230769,4,2,1,5,0,0
5887,-100,4,2,1,70,0,0
11280,-125,4,2,1,40,0,0
11954,-125,4,2,1,50,0,0
12628,-125,4,2,1,60,0,0
13302,-125,4,2,1,70,0,0
13977,-125,4,2,1,70,0,0
24426,-100,4,2,1,90,0,0
24679,-100,4,2,1,70,0,0
24763,-100,4,2,2,70,0,0
25100,-100,4,2,1,70,0,0
30324,-100,4,2,2,70,0,0
30493,-100,4,2,1,70,0,0
32769,-100,4,2,1,5,0,0
32853,-100,4,2,1,70,0,0
35718,-100,4,2,2,70,0,0
35887,-100,4,2,1,70,0,0
37066,-100,4,2,2,70,0,0
37235,-100,4,2,1,70,0,0
38414,-100,4,2,2,70,0,0
38583,-100,4,2,1,70,0,0
39763,-100,4,2,2,70,0,0
39932,-100,4,2,1,70,0,0
40943,-100,4,2,2,70,0,0
41111,-100,4,2,1,70,0,0
42123,-100,4,2,2,70,0,0
42460,-100,4,2,1,70,0,0
43640,-100,4,2,2,70,0,0
43977,-100,4,2,1,70,0,0
44314,-100,4,2,2,70,0,0
44482,-100,4,2,1,70,0,0
45156,-100,4,2,2,70,0,0
45325,-100,4,2,1,70,0,0
49286,-100,4,2,1,5,0,0
49370,-100,4,2,1,70,0,0
50887,-125,4,2,1,70,0,0
51392,-76.9230769230769,4,2,3,70,0,0
51645,-76.9230769230769,4,2,3,5,0,0
51729,-100,4,2,4,75,0,0
51898,-100,4,2,2,75,0,0
52066,-100,4,2,5,75,0,0
52404,-100,4,2,4,75,0,0
52741,-100,4,2,5,75,0,0
53078,-100,4,2,4,75,0,0
53415,-100,4,2,5,75,0,0
53583,-100,4,2,4,75,0,0
54089,-100,4,2,5,75,0,0
54426,-100,4,2,4,75,0,0
54595,-100,4,2,2,75,0,0
54763,-100,4,2,5,75,0,0
55100,-100,4,2,4,75,0,0
55437,-100,4,2,5,75,0,0
55774,-100,4,2,4,75,0,0
56111,-100,4,2,5,75,0,0
56280,-100,4,2,4,75,0,0
56364,-100,4,2,1,75,0,0
56449,-100,4,2,4,75,0,0
56786,-100,4,2,5,75,0,0
57123,-100,4,2,4,75,0,0
57292,-100,4,2,2,75,0,0
57460,-100,4,2,5,75,0,0
57797,-100,4,2,4,75,0,0
58134,-100,4,2,5,75,0,0
58471,-100,4,2,4,75,0,0
58808,-100,4,2,5,75,0,0
58976,-100,4,2,4,75,0,0
59482,-100,4,2,5,75,0,0
59819,-100,4,2,4,75,0,0
59988,-100,4,2,2,75,0,0
60156,-100,4,2,5,75,0,0
60493,-100,4,2,4,75,0,0
60831,-100,4,2,5,75,0,0
61168,-100,4,2,2,75,0,0
61336,-100,4,2,4,75,0,0
61505,-100,4,2,1,75,0,0
61842,-100,4,2,2,75,0,0
62010,-100,4,2,1,75,0,0
62516,-100,4,2,2,75,0,0
62853,-100,4,2,5,75,0,0
63190,-100,4,2,4,75,0,0
63360,-100,4,2,2,75,0,0
63527,-100,4,2,5,75,0,0
63864,-100,4,2,4,75,0,0
64201,-100,4,2,5,75,0,0
64370,-100,4,2,4,75,0,0
64876,-100,4,2,5,75,0,0
65213,-100,4,2,1,75,0,0
66561,-100,4,2,1,75,0,0
67909,-100,4,2,2,75,0,0
68078,-100,4,2,1,75,0,0
68246,-100,4,2,5,75,0,0
68583,-100,4,2,4,75,0,0
68920,-100,4,2,5,75,0,0
69258,-100,4,2,4,75,0,0
69595,-100,4,2,5,75,0,0
69763,-100,4,2,4,75,0,0
70269,-100,4,2,5,75,0,0
70606,-100,4,2,4,75,0,0
70775,-100,4,2,2,75,0,0
70943,-100,4,2,5,75,0,0
71280,-100,4,2,4,75,0,0
71617,-100,4,2,5,75,0,0
71954,-100,4,2,4,75,0,0
72291,-100,4,2,5,75,0,0
72460,-100,4,2,4,75,0,0
72965,-100,4,2,5,75,0,0
73302,-100,4,2,4,75,0,0
73471,-100,4,2,2,75,0,0
73639,-100,4,2,5,75,0,0
73977,-100,4,2,4,75,0,0
74314,-100,4,2,5,75,0,0
74651,-100,4,2,4,75,0,0
74988,-100,4,2,5,75,0,0
75156,-100,4,2,4,75,0,0
75662,-100,4,2,5,75,0,0
76168,-100,4,2,4,75,0,0
76505,-100,4,2,5,75,0,0
76673,-100,4,2,4,75,0,0
77010,-100,4,2,5,75,0,0
77178,-100,4,2,4,75,0,0
77347,-100,4,2,5,75,0,0
77685,-100,4,2,4,75,0,0
77853,-100,4,2,1,75,0,0
78022,-100,4,2,1,75,0,0
78696,-100,4,2,2,75,0,0
79033,-100,4,2,5,75,0,0
79370,-100,4,2,4,75,0,0
79707,-100,4,2,5,75,0,0
80044,-100,4,2,4,75,0,0
80381,-100,4,2,5,75,0,0
80550,-100,4,2,4,75,0,0
80634,-100,4,2,1,75,0,0
80718,-100,4,2,4,75,0,0
81055,-100,4,2,5,75,0,0
81392,-100,4,2,1,75,0,0
82909,-100,4,2,1,75,0,0
84089,-100,4,2,1,75,0,0
84426,-100,4,2,5,75,0,0
85437,-100,4,2,1,75,0,0
85606,-100,4,2,1,75,0,0
86786,-100,4,2,1,75,0,0
87123,-100,4,2,5,75,0,0
87628,-100,4,2,1,75,0,0
88134,-100,4,2,1,75,0,0
88471,-100,4,2,5,75,0,0
88808,-100,4,2,1,75,0,0
89482,-100,4,2,1,75,0,0
89819,-100,4,2,5,75,0,0
90831,-100,4,2,1,75,0,0
90999,-100,4,2,1,75,0,0
92179,-100,4,2,1,75,0,0
92516,-100,4,2,5,75,0,0
94033,-100,4,2,1,75,0,0
94201,-100,4,2,1,75,0,0
94876,-100,4,2,2,75,0,0
95213,-100,4,2,5,75,0,0
95549,-100,4,2,2,75,0,0
95718,-100,4,2,4,75,0,0
95802,-100,4,2,5,75,0,0
96224,-100,4,2,4,75,0,0
96392,-100,4,2,5,75,0,0
96729,-100,4,2,4,75,0,0
97235,-100,4,2,5,75,0,0
97572,-100,4,2,4,75,0,0
97909,-100,4,2,5,75,0,0
98246,-100,4,2,4,75,0,0
98499,-100,4,2,5,75,0,0
98920,-100,4,2,4,75,0,0
99088,-100,4,2,5,75,0,0
99426,-100,4,2,4,75,0,0
99932,-100,4,2,1,75,0,0
100269,-100,4,2,5,75,0,0
101701,-100,4,2,5,5,0,0
101786,-100,4,2,1,75,0,0
102965,-100,4,2,5,75,0,0
103133,-100,4,2,2,75,0,0
103302,-100,4,2,5,75,0,0
103471,-100,4,2,2,75,0,0
103640,-100,4,2,5,75,0,0
103808,-100,4,2,2,75,0,0
103977,-100,4,2,5,75,0,0
104145,-100,4,2,2,75,0,0
104314,-100,4,2,5,75,0,0
104482,-100,4,2,2,75,0,0
104651,-100,4,2,5,75,0,0
104820,-100,4,2,2,75,0,0
104988,-100,4,2,5,75,0,0
105662,340.909090909091,4,2,5,50,1,0
105662,-133.333333333333,4,2,5,50,0,0
111116,-133.333333333333,4,2,5,40,0,0

[Colours]
Combo1 : 255,241,53
Combo2 : 147,206,255
Combo3 : 182,255,161
Combo4 : 255,167,167

[HitObjects]
72,232,3190,6,0,L|152:224,1,66,0|0,3:3|2:2,0:0:0:0:
276,176,3527,2,0,L|196:168,1,66,0|0,3:3|2:2,0:0:0:0:
134,70,3864,2,0,L|128:136,1,66,0|0,3:3|2:2,0:0:0:0:
220,252,4201,2,0,L|226:317,1,66,0|0,3:3|2:2,0:0:0:0:
365,354,4538,6,0,P|308:343|276:344,1,66,0|0,3:3|2:2,0:0:0:0:
412,268,4876,2,0,P|448:222|473:203,1,66,0|0,3:3|2:2,0:0:0:0:
321,187,5213,6,0,L|310:89,1,99,4|0,2:2|2:2,0:0:0:0:
349,38,5550,6,0,L|345:199,1,160.874992635727,4|0,2:2|2:2,0:0:0:0:
325,216,5887,6,0,P|277:216|230:228,1,82.5,4|0,3:2|2:2,0:0:0:0:
184,287,6224,1,8,2:2:0:0:
102,159,6392,2,0,P|104:255|97:349,1,165,0|0,3:3|3:3,0:0:0:0:
1,263,6898,1,8,2:2:0:0:
44,93,7067,6,0,P|127:76|187:131,1,165,0|0,3:3|3:3,0:0:0:0:
235,274,7572,1,8,3:2:0:0:
105,230,7741,1,0,2:2:0:0:
268,187,7909,2,0,P|313:182|362:159,1,82.5,8|0,2:2|3:3,0:0:0:0:
441,314,8246,2,0,P|402:302|368:279,1,82.5,8|0,2:2|3:3,0:0:0:0:
431,205,8583,6,0,B|461:101|403:146|429:45,1,165,4|8,3:2|2:2,0:0:0:0:
305,80,9089,1,0,0:0:0:0:
305,80,9173,1,0,0:0:0:0:
305,80,9258,2,0,P|260:80|203:72,1,82.5,0|0,3:3|3:3,0:0:0:0:
78,151,9595,2,0,P|123:151|180:159,1,82.5,8|0,2:2|2:2,0:0:0:0:
237,211,9932,6,0,L|230:313,1,82.5,8|0,2:2|3:3,0:0:0:0:
363,122,10269,2,0,L|369:205,1,82.5,8|0,2:2|3:3,0:0:0:0:
219,305,10606,6,0,L|224:222,1,82.5,8|0,2:2|3:3,0:0:0:0:
382,193,10943,2,0,L|377:111,1,82.5,8|0,2:2|3:3,0:0:0:0:
382,347,11280,5,4,3:2:0:0:
365,344,11617,1,0,3:3:0:0:
348,341,11954,1,0,3:3:0:0:
331,338,12291,1,0,3:3:0:0:
168,314,12628,5,0,3:3:0:0:
185,311,12965,1,0,3:3:0:0:
202,308,13302,1,0,3:3:0:0:
219,305,13639,1,0,3:3:0:0:
264,216,13808,1,2,2:2:0:0:
207,134,13977,6,0,L|54:143,1,132,4|0,2:2|2:2,0:0:0:0:
75,141,14482,1,2,2:2:0:0:
133,242,14651,2,0,P|137:274|137:307,2,66,2|0|2,2:2|2:2|2:2,0:0:0:0:
207,134,15156,6,0,P|270:119|332:166,1,132,2|2,2:2|2:2,0:0:0:0:
346,242,15662,2,0,L|334:338,1,66,0|2,2:2|2:2,0:0:0:0:
416,178,15999,2,0,L|407:112,1,66,2|2,2:2|2:2,0:0:0:0:
474,40,16336,1,2,2:2:0:0:
474,40,16505,1,0,2:2:0:0:
336,62,16673,6,0,P|233:62|179:54,1,132,2|2,2:2|2:2,0:0:0:0:
204,58,17347,1,2,2:2:0:0:
174,153,17516,1,2,2:2:0:0:
283,109,17685,1,2,2:2:0:0:
174,153,17853,6,0,P|186:212|183:305,1,132,0|0,2:2|2:2,0:0:0:0:
116,329,18359,2,0,L|30:325,1,66,2|2,2:2|2:2,0:0:0:0:
190,367,18696,2,0,L|276:363,1,66,2|2,2:2|2:2,0:0:0:0:
319,311,19033,1,2,2:2:0:0:
186,283,19201,6,0,L|46:275,1,132,0|0,2:2|2:2,0:0:0:0:
145,198,19707,2,0,P|145:152|149:113,1,66,2|2,2:2|2:2,0:0:0:0:
238,74,20044,1,2,2:2:0:0:
329,101,20213,1,2,2:2:0:0:
259,167,20381,1,2,2:2:0:0:
341,95,20550,6,0,P|404:74|478:119,1,132,2|0,2:2|2:2,0:0:0:0:
482,194,21055,2,0,L|490:266,1,66,2|2,2:2|2:2,0:0:0:0:
396,352,21392,2,0,L|403:286,1,66,2|2,2:2|2:2,0:0:0:0:
389,169,21729,1,2,2:2:0:0:
312,269,21898,6,0,L|171:273,1,132,0|0,2:2|0:0,0:0:0:0:
240,156,22404,2,0,L|311:161,1,66,2|2,2:2|2:2,0:0:0:0:
163,113,22741,2,0,L|158:184,2,66,2|2|2,2:2|2:2|2:2,0:0:0:0:
50,191,23246,6,0,L|65:344,1,132,2|0,2:2|2:2,0:0:0:0:
192,361,23752,5,0,2:2:0:0:
190,341,23920,1,0,2:2:0:0:
312,269,24089,5,0,2:2:0:0:
312,288,24258,2,0,L|367:285,1,33,0|0,2:2|2:2,0:0:0:0:
456,337,24426,5,8,2:2:0:0:
444,197,24595,1,0,0:0:0:0:
444,197,24679,1,0,2:2:0:0:
444,197,24763,6,0,P|405:194|348:185,1,82.5,4|0,2:2|2:2,0:0:0:0:
222,94,25100,2,0,P|261:97|318:106,1,82.5,8|0,2:2|3:3,0:0:0:0:
335,115,25353,1,0,3:3:0:0:
335,115,25437,2,0,L|330:25,1,82.5,0|0,3:3|3:3,0:0:0:0:
271,190,25774,1,8,2:2:0:0:
173,32,25943,6,0,P|143:112|197:171,1,165,0|0,2:2|3:3,0:0:0:0:
132,257,26449,2,0,P|89:259|29:254,1,82.5,8|0,2:2|3:3,0:0:0:0:
50,257,26701,1,0,3:3:0:0:
50,257,26786,1,0,3:3:0:0:
142,370,26954,1,0,3:3:0:0:
284,301,27123,2,0,P|282:258|287:198,1,82.5,8|0,2:2|2:2,0:0:0:0:
428,360,27460,6,0,B|396:328|356:344|356:344|321:389|260:384,1,165,0|8,3:3|2:2,0:0:0:0:
202,225,27965,1,0,3:3:0:0:
202,225,28050,1,0,3:3:0:0:
202,225,28134,2,0,L|285:218,1,82.5,0|0,3:3|3:3,0:0:0:0:
319,131,28471,1,8,2:2:0:0:
130,172,28640,6,0,P|115:246|212:299,1,165,0|0,2:2|3:3,0:0:0:0:
218,141,29145,2,0,L|211:58,1,82.5,8|0,2:2|3:3,0:0:0:0:
213,35,29398,1,0,3:3:0:0:
213,35,29482,2,0,P|173:44|107:41,1,82.5,0|0,3:3|3:3,0:0:0:0:
45,37,29819,1,8,2:2:0:0:
100,228,29988,6,0,B|144:208|180:224|180:224|220:244|268:220,1,165,0|0,2:2|2:2,0:0:0:0:
345,272,30493,2,0,L|340:360,1,82.5,8|0,2:2|3:3,0:0:0:0:
340,354,30746,1,0,3:3:0:0:
340,354,30831,1,0,3:3:0:0:
461,293,30999,1,0,3:3:0:0:
329,189,31168,1,8,2:2:0:0:
463,200,31336,6,0,P|455:156|454:102,1,82.5,0|0,2:2|3:3,0:0:0:0:
470,22,31673,1,0,3:3:0:0:
319,80,31842,2,0,P|327:124|328:178,1,82.5,8|0,2:2|3:3,0:0:0:0:
329,189,32095,1,0,3:3:0:0:
329,189,32179,1,0,3:3:0:0:
191,143,32347,1,0,3:3:0:0:
232,300,32516,1,12,2:2:0:0:
191,143,32685,6,0,P|111:136|26:123,1,165,0|0,0:0|3:3,0:0:0:0:
232,300,33190,1,8,2:2:0:0:
110,332,33359,1,0,0:0:0:0:
245,212,33527,1,8,2:2:0:0:
67,239,33696,1,0,3:3:0:0:
183,373,33864,1,8,2:2:0:0:
191,143,34033,6,0,P|237:137|284:128,1,82.5,0|8,3:3|2:2,0:0:0:0:
464,235,34370,1,0,3:3:0:0:
273,130,34538,1,8,2:2:0:0:
310,273,34707,1,8,2:2:0:0:
310,273,34791,1,8,2:2:0:0:
310,273,34876,1,8,2:2:0:0:
436,127,35044,1,0,3:3:0:0:
245,212,35213,1,0,3:3:0:0:
415,335,35381,6,0,P|361:341|252:362,1,165,4|0,2:2|2:2,0:0:0:0:
139,236,35887,2,0,P|181:232|236:221,1,82.5,8|0,2:2|3:3,0:0:0:0:
245,212,36140,1,0,3:3:0:0:
245,212,36224,2,0,L|239:126,1,82.5,0|0,3:3|3:3,0:0:0:0:
360,23,36561,2,0,L|354:105,1,82.5,8|0,2:2|2:2,0:0:0:0:
176,68,36898,6,0,P|116:65|76:61,1,82.5,0|0,3:3|2:2,0:0:0:0:
29,221,37235,2,0,P|89:224|129:228,1,82.5,8|0,2:2|3:3,0:0:0:0:
139,236,37488,1,0,3:3:0:0:
139,236,37572,1,0,3:3:0:0:
67,347,37741,1,0,3:3:0:0:
233,267,37909,2,0,P|230:320|231:358,1,82.5,8|0,2:2|2:2,0:0:0:0:
406,242,38246,5,0,3:3:0:0:
312,315,38415,1,0,2:2:0:0:
480,355,38583,2,0,P|479:308|485:262,1,82.5,8|0,2:2|3:3,0:0:0:0:
492,256,38836,1,0,3:3:0:0:
492,256,38920,1,0,3:3:0:0:
423,153,39089,1,0,3:3:0:0:
393,324,39258,2,0,P|343:315|275:318,1,82.5,8|0,2:2|2:2,0:0:0:0:
315,139,39595,6,0,L|326:231,1,82.5,0|0,3:3|2:2,0:0:0:0:
223,348,39932,2,0,L|232:266,1,82.5,8|0,2:2|3:3,0:0:0:0:
240,244,40185,1,0,0:0:0:0:
240,244,40269,1,0,3:3:0:0:
141,289,40437,1,0,3:3:0:0:
311,314,40606,1,8,2:2:0:0:
143,192,40774,1,0,2:2:0:0:
59,239,40943,6,0,P|56:297|58:359,1,82.5,4|0,2:2|3:3,0:0:0:0:
234,216,41280,1,8,2:2:0:0:
234,216,41449,2,0,P|252:139|198:80,1,165,4|0,3:2|3:3,0:0:0:0:
169,275,41954,1,8,2:2:0:0:
311,314,42123,6,0,P|415:305|515:301,1,165,4|0,2:2|3:3,0:0:0:0:
416,384,42628,1,8,2:2:0:0:
322,218,42797,1,0,3:3:0:0:
218,384,42965,2,0,P|213:337|222:277,1,82.5,8|0,2:2|3:3,0:0:0:0:
174,191,43302,1,8,2:3:0:0:
141,196,43386,1,8,2:3:0:0:
113,213,43471,1,8,2:3:0:0:
92,238,43555,1,8,2:3:0:0:
81,269,43640,6,0,L|85:180,1,82.5,4|0,2:2|2:2,0:0:0:0:
197,87,43977,2,0,L|200:169,1,82.5,8|0,2:2|3:3,0:0:0:0:
206,198,44229,1,0,3:3:0:0:
206,198,44314,2,0,P|252:191|308:202,1,82.5,0|0,2:2|3:3,0:0:0:0:
250,362,44651,1,8,2:2:0:0:
365,263,44819,6,0,P|451:261|506:321,1,165,0|0,2:2|2:2,0:0:0:0:
409,361,45325,1,8,2:2:0:0:
465,225,45493,1,0,3:3:0:0:
465,225,45578,1,0,3:3:0:0:
465,225,45662,2,0,P|466:171|474:113,1,82.5,0|0,3:3|3:3,0:0:0:0:
272,115,45999,2,0,P|275:156|275:197,1,82.5,8|0,2:2|2:2,0:0:0:0:
250,284,46336,5,12,3:2:0:0:
107,268,46505,1,0,3:3:0:0:
276,198,46673,1,8,3:2:0:0:
127,111,46842,1,0,3:3:0:0:
127,111,46926,1,0,3:3:0:0:
127,111,47010,5,8,3:2:0:0:
182,244,47179,1,0,3:3:0:0:
192,47,47347,2,0,P|153:27|101:22,1,82.5,8|0,3:2|3:3,0:0:0:0:
40,200,47685,6,0,L|144:184,1,82.5,8|0,3:2|3:3,0:0:0:0:
331,296,48022,2,0,L|227:280,1,82.5,8|0,3:2|3:3,0:0:0:0:
249,283,48274,1,0,3:3:0:0:
249,283,48359,1,8,3:2:0:0:
319,115,48527,1,0,3:3:0:0:
434,296,48696,2,0,P|437:347|454:389,1,82.5,8|0,3:2|3:3,0:0:0:0:
476,223,49033,5,4,2:2:0:0:
286,186,49201,1,0,0:0:0:0:
414,40,49370,1,8,2:2:0:0:
388,189,49538,1,8,2:2:0:0:
263,47,49707,5,8,2:2:0:0:
482,130,49876,1,8,2:2:0:0:
320,272,50045,1,8,2:2:0:0:
339,109,50213,1,8,2:2:0:0:
166,146,50381,6,0,P|92:148|59:153,1,82.5,12|8,2:2|2:2,0:0:0:0:
144,278,50718,1,8,2:2:0:0:
311,228,50887,6,0,L|306:82,1,132,12|0,2:2|0:0,0:0:0:0:
341,57,51308,1,0,0:0:0:0:
341,57,51392,6,0,L|334:222,1,160.874992635727,8|0,2:2|2:2,0:0:0:0:
333,244,51729,6,0,L|241:239,1,82.5,6|0,2:2|0:0,0:0:0:0:
166,146,52067,1,8,2:2:0:0:
227,319,52235,1,2,2:2:0:0:
82,237,52404,2,0,P|39:237|-10:250,1,82.5,2|0,2:2|2:2,0:0:0:0:
70,353,52741,1,8,2:2:0:0:
174,228,52909,1,2,2:2:0:0:
174,228,52993,1,0,0:0:0:0:
174,228,53078,6,0,L|165:136,1,82.5,2|0,2:2|2:2,0:0:0:0:
296,44,53415,2,0,L|287:126,1,82.5,10|0,2:2|2:2,0:0:0:0:
450,227,53752,1,2,2:2:0:0:
372,111,53920,1,0,2:2:0:0:
359,275,54089,2,0,P|365:325|360:377,1,82.5,10|0,2:2|2:2,0:0:0:0:
246,195,54426,5,2,2:2:0:0:
227,319,54595,2,0,P|182:320|133:324,1,82.5,0|8,0:0|2:2,0:0:0:0:
0,235,54932,2,0,P|45:234|94:230,1,82.5,2|0,2:2|2:2,0:0:0:0:
35,56,55269,1,2,2:2:0:0:
168,156,55437,2,0,P|162:197|173:252,1,82.5,10|2,2:2|2:2,0:0:0:0:
407,185,55774,6,0,B|368:203|327:190|327:190|286:177|239:196,1,165,0|8,2:2|2:2,0:0:0:0:
295,359,56280,2,0,L|290:257,1,82.5,2|0,2:2|2:2,0:0:0:0:
361,112,56617,1,2,2:2:0:0:
499,293,56786,2,0,P|419:290|394:294,1,82.5,10|2,2:2|2:2,0:0:0:0:
278,109,57123,6,0,P|358:112|383:108,1,82.5,6|0,2:2|0:0,0:0:0:0:
218,38,57460,1,8,2:2:0:0:
245,193,57628,1,2,2:2:0:0:
111,94,57797,2,0,P|117:131|121:180,1,82.5,2|0,2:2|2:2,0:0:0:0:
47,242,58134,1,8,2:2:0:0:
204,287,58302,1,2,2:2:0:0:
58,323,58471,6,0,P|55:282|47:242,1,82.5,2|0,2:2|2:2,0:0:0:0:
233,111,58808,2,0,P|236:152|244:192,1,82.5,10|0,2:2|2:2,0:0:0:0:
340,328,59145,2,0,P|269:270|188:300,1,165,2|10,2:2|2:2,0:0:0:0:
455,326,59651,1,0,2:2:0:0:
455,326,59735,1,0,2:2:0:0:
455,326,59819,6,0,L|445:206,1,82.5,6|0,2:2|0:0,0:0:0:0:
455,43,60156,1,10,2:2:0:0:
334,163,60325,2,0,B|373:181|414:168|414:168|455:155|495:171,1,165,2|2,2:2|2:2,0:0:0:0:
323,34,60831,1,10,2:2:0:0:
308,259,60999,6,0,B|179:253|179:253|231:284,1,165,6|0,2:2|2:2,0:0:0:0:
212,135,61505,2,0,P|214:88|204:44,1,82.5,8|0,2:2|3:3,0:0:0:0:
49,221,61842,1,8,2:2:0:0:
209,271,62010,1,0,3:3:0:0:
81,312,62179,1,8,2:3:0:0:
103,336,62263,1,8,2:3:0:0:
132,350,62347,1,8,2:3:0:0:
165,355,62432,1,8,2:3:0:0:
197,350,62516,6,0,L|303:356,1,82.5,4|2,2:2|2:2,0:0:0:0:
367,200,62853,1,8,2:2:0:0:
406,369,63022,1,2,2:2:0:0:
209,271,63190,2,0,P|253:265|303:250,1,82.5,2|0,2:2|0:0,0:0:0:0:
466,180,63527,1,10,2:2:0:0:
332,64,63696,1,2,2:2:0:0:
264,151,63864,6,0,L|155:146,1,82.5,2|2,2:2|2:2,0:0:0:0:
138,29,64201,1,8,2:2:0:0:
110,212,64370,2,0,P|112:273|108:324,1,82.5,2|0,2:2|2:2,0:0:0:0:
18,176,64707,1,0,2:2:0:0:
191,235,64876,1,10,2:2:0:0:
6,297,65044,1,2,2:2:0:0:
165,362,65213,5,12,2:2:0:0:
103,198,65381,1,2,3:2:0:0:
236,303,65550,1,8,2:2:0:0:
265,137,65718,1,2,3:2:0:0:
191,235,65887,5,8,2:2:0:0:
382,196,66055,1,2,3:2:0:0:
184,117,66224,2,0,P|234:130|272:138,1,82.5,8|2,2:2|3:2,0:0:0:0:
382,196,66561,6,0,L|388:138,3,41.25,0|0|0|0,3:3|3:3|3:3|3:3,0:0:0:0:
313,309,66898,2,0,L|317:350,3,41.25,0|0|0|0,3:3|3:3|3:3|3:3,0:0:0:0:
223,223,67235,5,8,2:3:0:0:
182,218,67319,1,8,2:3:0:0:
141,225,67404,1,8,2:3:0:0:
109,251,67488,1,8,2:3:0:0:
97,290,67572,5,10,2:3:0:0:
97,257,67656,1,10,2:3:0:0:
98,223,67741,1,10,2:3:0:0:
99,190,67825,1,10,2:3:0:0:
100,157,67909,6,0,P|97:110|90:66,1,82.5,6|0,2:2|0:0,0:0:0:0:
0,175,68246,1,8,2:2:0:0:
183,144,68415,1,2,2:2:0:0:
14,261,68583,2,0,P|57:256|102:257,1,82.5,2|0,2:2|2:2,0:0:0:0:
64,384,68920,1,8,2:2:0:0:
195,266,69089,1,2,2:2:0:0:
195,266,69173,1,0,0:0:0:0:
195,266,69258,6,0,L|188:359,1,82.5,2|0,2:2|2:2,0:0:0:0:
299,234,69595,2,0,L|292:151,1,82.5,10|0,2:2|2:2,0:0:0:0:
452,279,69932,2,0,B|404:255|372:271|372:271|340:319|284:319,1,165,2|10,2:2|2:2,0:0:0:0:
396,167,70437,1,0,2:2:0:0:
396,167,70606,6,0,P|438:168|495:188,1,82.5,6|0,2:2|0:0,0:0:0:0:
343,68,70943,1,10,2:2:0:0:
299,234,71111,1,2,2:2:0:0:
178,113,71280,1,0,2:2:0:0:
221,264,71449,2,0,L|126:261,1,82.5,2|10,2:2|2:2,0:0:0:0:
94,101,71786,6,0,P|141:38|245:61,1,165,2|0,2:2|2:2,0:0:0:0:
284,139,72291,1,8,2:2:0:0:
97,184,72460,1,2,2:2:0:0:
221,264,72628,2,0,P|220:221|215:166,1,82.5,0|2,2:2|2:2,0:0:0:0:
334,295,72965,2,0,P|330:336|329:377,1,82.5,10|2,2:2|2:2,0:0:0:0:
466,227,73302,6,0,L|291:212,1,165,6|8,2:2|2:2,0:0:0:0:
308,50,73808,1,2,2:2:0:0:
216,181,73977,2,0,P|170:186|115:184,1,82.5,2|0,2:2|2:2,0:0:0:0:
171,73,74314,1,8,2:2:0:0:
39,158,74482,1,2,2:2:0:0:
39,158,74567,1,0,0:0:0:0:
39,158,74651,6,0,P|41:205|34:251,1,82.5,6|0,2:2|2:2,0:0:0:0:
179,369,74988,2,0,P|174:328|176:286,1,82.5,10|0,2:2|2:2,0:0:0:0:
369,257,75325,1,2,2:2:0:0:
265,315,75493,1,0,2:2:0:0:
303,132,75662,2,0,P|306:92|307:33,1,82.5,10|0,2:2|2:2,0:0:0:0:
133,185,75999,6,0,B|176:213|176:213|303:209,1,165,14|2,2:2|2:2,0:0:0:0:
157,100,76505,2,0,P|67:125|44:210,1,165,10|2,2:2|2:2,0:0:0:0:
141,354,77010,1,10,2:2:0:0:
133,185,77179,1,2,2:2:0:0:
271,307,77347,6,0,L|367:312,1,82.5,6|8,2:2|2:2,0:0:0:0:
512,238,77685,2,0,L|416:243,1,82.5,8|2,2:2|2:2,0:0:0:0:
459,102,78022,1,0,3:3:0:0:
459,102,78106,1,0,3:3:0:0:
459,102,78190,1,0,3:3:0:0:
262,89,78359,1,8,3:3:0:0:
254,120,78443,1,8,3:3:0:0:
256,153,78527,1,8,3:3:0:0:
268,184,78611,1,8,3:3:0:0:
289,209,78696,6,0,P|246:213|197:211,1,82.5,6|0,2:2|2:2,0:0:0:0:
54,296,79033,2,0,P|97:292|146:294,1,82.5,8|2,2:2|2:2,0:0:0:0:
119,102,79370,1,0,2:2:0:0:
0,230,79538,1,2,2:2:0:0:
37,41,79707,2,0,P|38:107|36:148,1,82.5,8|2,2:2|2:2,0:0:0:0:
54,296,80044,6,0,P|135:293|250:309,1,165,6|8,2:2|2:2,0:0:0:0:
306,141,80550,1,2,2:2:0:0:
147,202,80718,1,0,2:2:0:0:
185,49,80887,1,2,2:2:0:0:
261,225,81055,2,0,P|311:226|359:235,1,82.5,8|2,2:2|2:2,0:0:0:0:
500,78,81392,6,0,P|450:77|402:68,1,82.5,12|2,2:2|3:2,0:0:0:0:
142,130,81729,2,0,P|192:131|240:140,1,82.5,8|2,2:2|3:2,0:0:0:0:
512,70,82067,6,0,P|462:69|414:60,1,82.5,12|2,2:2|3:2,0:0:0:0:
135,134,82404,2,0,P|185:135|233:144,1,82.5,8|2,2:2|3:2,0:0:0:0:
237,384,82741,5,12,3:2:0:0:
171,225,82909,1,8,3:2:0:0:
171,225,82993,1,0,3:3:0:0:
171,225,83078,1,0,3:3:0:0:
320,288,83246,5,0,3:3:0:0:
320,288,83331,1,0,3:3:0:0:
320,288,83415,1,0,3:3:0:0:
95,178,83583,5,0,3:3:0:0:
117,154,83667,1,0,3:3:0:0:
147,140,83751,1,8,3:3:0:0:
179,137,83835,1,8,3:3:0:0:
211,147,83920,1,8,3:3:0:0:
237,167,84005,1,8,3:3:0:0:
253,195,84089,6,0,L|247:94,1,82.5,4|0,2:2|2:2,0:0:0:0:
367,18,84426,1,8,2:2:0:0:
420,110,84595,2,0,P|379:116|338:118,1,82.5,8|0,2:2|2:2,0:0:0:0:
389,194,84932,2,0,P|430:189|472:188,1,82.5,0|8,2:2|2:2,0:0:0:0:
368,369,85269,5,0,2:2:0:0:
407,280,85437,2,0,P|366:285|324:286,1,82.5,0|0,3:3|3:3,0:0:0:0:
286,277,85690,1,0,3:3:0:0:
286,277,85774,2,0,L|289:335,3,41.25,0|0|0|0,3:3|3:3|3:3|3:3,0:0:0:0:
205,340,86111,2,0,L|207:298,3,41.25,0|0|0|0,3:3|3:3|3:3|3:3,0:0:0:0:
169,279,86449,1,8,3:3:0:0:
131,296,86533,1,8,3:3:0:0:
90,291,86617,1,8,3:3:0:0:
61,261,86701,1,8,3:3:0:0:
58,219,86786,6,0,P|57:161|52:119,1,82.5,4|0,2:2|2:2,0:0:0:0:
5,32,87123,1,8,2:2:0:0:
141,113,87291,2,0,L|306:107,1,165,8|0,2:2|3:3,0:0:0:0:
339,106,87713,1,0,3:3:0:0:
335,138,87797,1,0,3:3:0:0:
331,170,87881,1,0,3:3:0:0:
327,202,87965,1,4,3:2:0:0:
456,109,88134,6,0,L|450:21,1,82.5,0|0,0:0|2:2,0:0:0:0:
305,107,88471,1,8,2:2:0:0:
471,197,88640,1,0,2:2:0:0:
322,282,88808,2,0,L|265:276,3,41.25,0|0|0|0,3:3|3:3|3:3|3:3,0:0:0:0:
247,253,89145,1,8,2:3:0:0:
211,232,89229,1,8,2:3:0:0:
169,230,89314,1,8,2:3:0:0:
129,242,89398,1,8,2:3:0:0:
101,272,89482,5,4,2:2:0:0:
207,369,89651,2,0,L|314:362,1,82.5,0|8,2:2|2:2,0:0:0:0:
342,210,89988,2,0,B|326:250|342:290|342:290|390:322|374:378,1,165,8|0,2:2|2:2,0:0:0:0:
453,236,90493,1,8,2:2:0:0:
301,128,90662,6,0,L|210:132,1,82.5,0|0,2:2|3:3,0:0:0:0:
58,222,90999,1,0,3:3:0:0:
91,245,91083,1,0,3:3:0:0:
131,252,91167,1,0,3:3:0:0:
170,240,91251,1,0,3:3:0:0:
200,212,91336,1,0,3:3:0:0:
100,47,91505,2,0,L|109:106,3,41.25,0|0|0|0,3:3|3:3|3:3|3:3,0:0:0:0:
113,120,91842,1,8,2:3:0:0:
115,152,91926,1,8,2:3:0:0:
112,184,92010,1,8,2:3:0:0:
106,216,92095,1,8,2:3:0:0:
91,245,92179,6,0,L|195:239,1,82.5,4|0,2:2|2:2,0:0:0:0:
248,379,92516,1,8,2:2:0:0:
292,193,92685,1,2,2:2:0:0:
401,329,92853,2,0,L|297:323,2,82.5,2|0|8,2:2|2:2|2:2,0:0:0:0:
503,206,93359,1,0,2:2:0:0:
503,206,93443,1,0,0:0:0:0:
503,206,93527,6,0,L|399:212,1,82.5,2|0,2:2|2:2,0:0:0:0:
252,108,93864,2,0,L|356:114,1,82.5,8|0,2:2|3:3,0:0:0:0:
367,115,94117,1,0,3:3:0:0:
367,115,94201,2,0,L|356:166,3,41.25,0|0|0|0,3:3|3:3|3:3|3:3,0:0:0:0:
337,191,94538,1,8,2:3:0:0:
332,231,94622,1,8,2:3:0:0:
348,269,94706,1,8,2:3:0:0:
379,295,94790,1,8,2:3:0:0:
419,303,94876,6,0,L|312:318,1,82.5,4|2,2:2|2:2,0:0:0:0:
175,238,95213,2,0,L|282:253,1,82.5,8|2,2:2|2:2,0:0:0:0:
160,112,95550,1,0,3:3:0:0:
97,286,95718,1,2,2:2:0:0:
243,162,95887,2,0,P|256:120|248:55,1,82.5,8|0,2:2|2:2,0:0:0:0:
405,138,96224,6,0,L|420:319,1,165,0|8,2:2|2:2,0:0:0:0:
497,167,96729,1,0,2:2:0:0:
339,250,96898,2,0,P|287:248|247:250,1,82.5,0|0,2:2|2:2,0:0:0:0:
363,375,97235,1,8,2:2:0:0:
201,323,97404,1,0,2:2:0:0:
201,323,97488,1,0,0:0:0:0:
201,323,97572,6,0,L|111:327,1,82.5,4|2,2:2|2:2,0:0:0:0:
0,204,97909,2,0,L|90:208,1,82.5,8|2,2:2|2:2,0:0:0:0:
129,76,98246,1,0,2:2:0:0:
157,246,98415,1,2,2:2:0:0:
39,113,98583,2,0,P|37:69|48:21,1,82.5,8|0,2:2|2:2,0:0:0:0:
247,84,98920,6,0,L|262:259,1,165,0|8,2:2|2:2,0:0:0:0:
389,279,99426,1,0,2:2:0:0:
347,102,99595,1,8,2:2:0:0:
445,197,99763,1,0,2:2:0:0:
312,320,99932,1,8,2:2:0:0:
280,330,100016,1,0,0:0:0:0:
247,330,100100,1,0,2:2:0:0:
216,319,100184,1,0,0:0:0:0:
190,300,100269,6,0,L|194:382,1,82.5,14|0,2:2|2:2,0:0:0:0:
29,353,100606,1,10,2:2:0:0:
136,224,100774,2,0,B|184:200|224:216|224:216|264:232|304:208,1,165,6|2,2:2|2:2,0:0:0:0:
260,44,101280,1,8,2:2:0:0:
260,44,101364,1,0,0:0:0:0:
260,44,101449,6,0,L|256:137,1,82.5,6|0,2:2|0:0,0:0:0:0:
384,233,101786,1,0,3:3:0:0:
384,233,101870,1,0,3:3:0:0:
384,233,101954,2,0,L|399:298,3,41.25,0|0|0|0,3:3|3:3|3:3|3:3,0:0:0:0:
368,295,102291,1,0,3:3:0:0:
338,309,102376,1,0,3:3:0:0:
305,309,102460,1,0,3:3:0:0:
274,295,102544,1,0,3:3:0:0:
252,269,102628,5,8,2:3:0:0:
254,227,102713,1,8,2:3:0:0:
256,185,102797,1,8,2:3:0:0:
258,143,102881,1,8,2:3:0:0:
261,102,102965,6,0,L|168:110,1,82.5,12|0,2:2|3:3,0:0:0:0:
384,233,103302,1,8,2:2:0:0:
451,58,103471,1,0,3:3:0:0:
247,89,103640,6,0,L|154:97,1,82.5,8|0,2:2|3:3,0:0:0:0:
342,49,103977,1,8,2:2:0:0:
291,224,104145,1,0,3:3:0:0:
268,5,104314,5,8,2:2:0:0:
380,140,104482,1,0,3:3:0:0:
206,262,104651,1,8,2:2:0:0:
251,120,104819,1,0,3:3:0:0:
414,216,104988,5,8,2:2:0:0:
121,140,105156,1,2,2:2:0:0:
342,49,105325,1,8,2:2:0:0:
197,284,105493,1,2,2:2:0:0:
245,146,105662,6,0,L|104:140,1,123.750004720688,2|0,2:2|2:2,0:0:0:0:
240,240,106173,2,0,L|381:234,1,123.750004720688,2|0,2:2|2:2,0:0:0:0:
229,134,106684,6,0,L|88:128,1,123.750004720688,2|0,2:2|2:2,0:0:0:0:
255,257,107196,2,0,L|396:251,1,123.750004720688,2|0,2:2|2:2,0:0:0:0:
446,179,107707,2,0,L|441:112,1,61.875002360344,2|0,2:2|2:2,0:0:0:0:
489,269,108048,2,0,L|484:330,1,61.875002360344,2|0,2:2|2:2,0:0:0:0:
256,192,108389,12,0,111116,2:2:0:0:
