osu file format v14

[General]
AudioFilename: audio.mp3
AudioLeadIn: 0
PreviewTime: 51739
Countdown: 0
SampleSet: Soft
StackLeniency: 0.7
Mode: 0
LetterboxInBreaks: 0
WidescreenStoryboard: 1

[Editor]
DistanceSpacing: 1
BeatDivisor: 4
GridSize: 4
TimelineZoom: 2.1

[Metadata]
Title:Hi FiVE! (Cut Ver.)
TitleUnicode:Hi FiVE! (Cut Ver.)
Artist:LiSA
ArtistUnicode:LiSA
Creator:Cellina
Version:Habi's Normal
Source:
Tags:pop 織部里沙 LUCKY Hi FiVE! alacat Dailycare HabiHolic No Dap reana moeka momoka shioi no_dap japanese
BeatmapID:1165235
BeatmapSetID:550137

[Difficulty]
HPDrainRate:3
CircleSize:3
OverallDifficulty:3
ApproachRate:4
SliderMultiplier:1.2
SliderTickRate:1

[Events]
//Background and Video events
0,0,"BG.jpg",0,0
//Break Periods
//Storyboard Layer 0 (Background)
//Storyboard Layer 1 (Fail)
//Storyboard Layer 2 (Pass)
//Storyboard Layer 3 (Foreground)
//Storyboard Layer 4 (Overlay)
//Storyboard Sound Samples

[TimingPoints]
494,337.078651685393,4,2,1,50,1,0
5213,-100,4,2,1,70,0,0
5465,-100,4,2,1,5,0,0
5550,-100,4,2,1,70,0,0
5802,-100,4,2,1,5,0,0
5887,-100,4,2,1,70,0,0
11280,-100,4,2,1,40,0,0
11954,-100,4,2,1,50,0,0
12628,-100,4,2,1,60,0,0
13302,-100,4,2,1,70,0,0
13977,-100,4,2,1,70,0,0
24258,-100,4,2,1,70,0,0
24426,-100,4,2,1,90,0,0
24679,-100,4,2,1,70,0,0
24763,-100,4,2,2,70,0,0
25100,-100,4,2,1,70,0,0
30324,-100,4,2,2,70,0,0
30493,-100,4,2,1,70,0,0
32769,-100,4,2,1,5,0,0
32853,-100,4,2,1,70,0,0
35718,-100,4,2,2,70,0,0
35887,-100,4,2,1,70,0,0
37066,-100,4,2,2,70,0,0
37235,-100,4,2,1,70,0,0
38414,-100,4,2,2,70,0,0
38583,-100,4,2,1,70,0,0
39763,-100,4,2,2,70,0,0
39932,-100,4,2,1,70,0,0
40943,-100,4,2,2,70,0,0
41111,-100,4,2,1,70,0,0
42123,-100,4,2,2,70,0,0
42460,-100,4,2,1,70,0,0
43640,-100,4,2,2,70,0,0
43977,-100,4,2,1,70,0,0
44314,-100,4,2,2,70,0,0
44482,-100,4,2,1,70,0,0
45156,-100,4,2,2,70,0,0
45325,-100,4,2,1,70,0,0
49286,-100,4,2,1,5,0,0
49370,-100,4,2,1,70,0,0
51392,-100,4,2,3,70,0,0
51645,-100,4,2,3,5,0,0
51729,-100,4,2,4,75,0,0
51898,-100,4,2,2,75,0,0
52066,-100,4,2,5,75,0,0
52404,-100,4,2,4,75,0,0
52741,-100,4,2,5,75,0,0
53078,-100,4,2,4,75,0,0
53415,-100,4,2,5,75,0,0
53583,-100,4,2,4,75,0,0
54089,-100,4,2,5,75,0,0
54426,-100,4,2,4,75,0,0
54595,-100,4,2,2,75,0,0
54763,-100,4,2,5,75,0,0
55100,-100,4,2,4,75,0,0
55437,-100,4,2,5,75,0,0
55774,-100,4,2,4,75,0,0
56111,-100,4,2,5,75,0,0
56280,-100,4,2,4,75,0,0
56364,-100,4,2,1,75,0,0
56449,-100,4,2,4,75,0,0
56786,-100,4,2,5,75,0,0
57123,-100,4,2,4,75,0,0
57292,-100,4,2,2,75,0,0
57460,-100,4,2,5,75,0,0
57797,-100,4,2,4,75,0,0
58134,-100,4,2,5,75,0,0
58471,-100,4,2,4,75,0,0
58808,-100,4,2,5,75,0,0
58976,-100,4,2,4,75,0,0
59482,-100,4,2,5,75,0,0
59819,-100,4,2,4,75,0,0
59988,-100,4,2,2,75,0,0
60156,-100,4,2,5,75,0,0
60493,-100,4,2,4,75,0,0
60831,-100,4,2,5,75,0,0
61168,-100,4,2,2,75,0,0
61336,-100,4,2,4,75,0,0
61505,-100,4,2,1,75,0,0
61842,-100,4,2,2,75,0,0
62010,-100,4,2,1,75,0,0
62516,-100,4,2,2,75,0,0
62853,-100,4,2,5,75,0,0
63190,-100,4,2,4,75,0,0
63360,-100,4,2,2,75,0,0
63527,-100,4,2,5,75,0,0
63864,-100,4,2,4,75,0,0
64201,-100,4,2,5,75,0,0
64370,-100,4,2,4,75,0,0
64876,-100,4,2,5,75,0,0
65213,-100,4,2,1,75,0,0
66561,-100,4,2,1,75,0,0
67909,-100,4,2,2,75,0,0
68078,-100,4,2,1,75,0,0
68246,-100,4,2,5,75,0,0
68583,-100,4,2,4,75,0,0
68920,-100,4,2,5,75,0,0
69258,-100,4,2,4,75,0,0
69595,-100,4,2,5,75,0,0
69763,-100,4,2,4,75,0,0
70269,-100,4,2,5,75,0,0
70606,-100,4,2,4,75,0,0
70775,-100,4,2,2,75,0,0
70943,-100,4,2,5,75,0,0
71280,-100,4,2,4,75,0,0
71617,-100,4,2,5,75,0,0
71954,-100,4,2,4,75,0,0
72291,-100,4,2,5,75,0,0
72460,-100,4,2,4,75,0,0
72965,-100,4,2,5,75,0,0
73302,-100,4,2,4,75,0,0
73471,-100,4,2,2,75,0,0
73639,-100,4,2,5,75,0,0
73977,-100,4,2,4,75,0,0
74314,-100,4,2,5,75,0,0
74651,-100,4,2,4,75,0,0
74988,-100,4,2,5,75,0,0
75156,-100,4,2,4,75,0,0
75662,-100,4,2,5,75,0,0
76168,-100,4,2,4,75,0,0
76505,-100,4,2,5,75,0,0
76673,-100,4,2,4,75,0,0
77010,-100,4,2,5,75,0,0
77178,-100,4,2,4,75,0,0
77347,-100,4,2,5,75,0,0
77685,-100,4,2,4,75,0,0
77853,-100,4,2,1,75,0,0
78022,-100,4,2,1,75,0,0
78696,-100,4,2,2,75,0,0
79033,-100,4,2,5,75,0,0
79370,-100,4,2,4,75,0,0
79707,-100,4,2,5,75,0,0
80044,-100,4,2,4,75,0,0
80381,-100,4,2,5,75,0,0
80550,-100,4,2,4,75,0,0
80634,-100,4,2,1,75,0,0
80718,-100,4,2,4,75,0,0
81055,-100,4,2,5,75,0,0
81392,-100,4,2,1,75,0,0
82909,-100,4,2,1,75,0,0
84426,-100,4,2,5,75,0,0
85437,-100,4,2,1,75,0,0
85605,-100,4,2,1,75,0,0
87123,-100,4,2,5,75,0,0
87628,-100,4,2,1,75,0,0
88471,-100,4,2,5,75,0,0
88808,-100,4,2,1,75,0,0
89819,-100,4,2,5,75,0,0
90831,-100,4,2,1,75,0,0
90999,-100,4,2,1,75,0,0
92516,-100,4,2,5,75,0,0
94033,-100,4,2,1,75,0,0
94201,-100,4,2,1,75,0,0
94876,-100,4,2,2,75,0,0
95213,-100,4,2,5,75,0,0
95549,-100,4,2,2,75,0,0
95718,-100,4,2,4,75,0,0
95802,-100,4,2,5,75,0,0
96224,-100,4,2,4,75,0,0
96392,-100,4,2,5,75,0,0
96729,-100,4,2,4,75,0,0
97235,-100,4,2,5,75,0,0
97572,-100,4,2,4,75,0,0
97909,-100,4,2,5,75,0,0
98246,-100,4,2,4,75,0,0
98499,-100,4,2,5,75,0,0
98920,-100,4,2,4,75,0,0
99088,-100,4,2,5,75,0,0
99426,-100,4,2,4,75,0,0
99932,-100,4,2,1,75,0,0
100269,-100,4,2,5,75,0,0
101701,-100,4,2,5,5,0,0
101786,-100,4,2,1,75,0,0
102965,-100,4,2,5,75,0,0
103133,-100,4,2,2,75,0,0
103302,-100,4,2,5,75,0,0
103471,-100,4,2,2,75,0,0
103640,-100,4,2,5,75,0,0
103808,-100,4,2,2,75,0,0
103977,-100,4,2,5,75,0,0
104145,-100,4,2,2,75,0,0
104314,-100,4,2,5,75,0,0
104482,-100,4,2,2,75,0,0
104651,-100,4,2,5,75,0,0
104820,-100,4,2,2,75,0,0
104988,-100,4,2,5,75,0,0
105662,340.909090909091,4,2,5,50,1,0
111031,-100,4,2,5,50,0,0
111116,-100,4,2,5,40,0,0

[Colours]
Combo1 : 255,241,53
Combo2 : 147,206,255
Combo3 : 182,255,161
Combo4 : 255,167,167

[HitObjects]
37,103,3190,5,0,3:3:0:0:
141,44,3527,1,0,3:3:0:0:
239,111,3864,2,0,P|298:113|350:84,1,120,0|0,3:3|3:3,0:0:0:0:
451,30,4538,5,0,3:3:0:0:
507,141,4876,1,0,3:3:0:0:
457,250,5213,2,0,L|329:223,1,120,4|4,2:2|2:2,0:0:0:0:
259,135,5887,6,0,L|271:76,2,60,4|0|8,3:2|2:2|2:2,0:0:0:0:
244,193,6392,2,0,P|194:161|137:173,1,120,0|0,3:3|3:3,0:0:0:0:
82,198,6898,1,8,2:2:0:0:
82,198,7067,2,0,L|110:317,1,120,0|0,3:3|3:3,0:0:0:0:
126,372,7572,1,8,3:2:0:0:
226,306,7909,1,8,2:2:0:0:
335,355,8246,1,8,2:2:0:0:
440,290,8583,6,0,L|467:169,1,120,4|8,3:2|2:2,0:0:0:0:
416,58,9258,2,0,L|474:44,2,60,0|0|8,3:3|3:3|2:2,0:0:0:0:
335,129,9932,1,8,2:2:0:0:
335,129,10100,2,0,L|204:95,2,120,0|0|0,3:3|3:3|3:3,0:0:0:0:
393,144,10943,1,8,2:2:0:0:
485,63,11280,5,4,3:2:0:0:
443,347,13808,5,2,2:2:0:0:
443,346,13977,2,0,P|456:289|440:232,1,120,4|0,2:2|2:2,0:0:0:0:
341,165,14651,2,0,P|426:176|484:111,2,180,2|2|0,2:2|2:2|2:2,0:0:0:0:
258,83,15999,2,0,P|200:78|154:114,1,120,2|2,2:2|2:2,0:0:0:0:
41,74,16673,5,2,2:2:0:0:
67,190,17010,1,2,2:2:0:0:
97,313,17347,2,0,B|172:296|172:296|231:306|254:351,2,180,2|0|2,2:2|2:2|2:2,0:0:0:0:
19,229,18696,2,0,P|4:172|21:115,1,120,2|2,2:2|2:2,0:0:0:0:
128,44,19370,6,0,B|184:66|184:66|242:46,1,120,0|2,0:0|2:2,0:0:0:0:
330,125,20044,2,0,L|303:306,2,180,2|2|2,2:2|2:2|2:2,0:0:0:0:
420,46,21392,2,0,L|449:164,1,120,2|2,2:2|2:2,0:0:0:0:
486,276,22067,5,0,0:0:0:0:
388,345,22404,1,2,2:2:0:0:
279,270,22741,2,0,P|221:267|175:303,1,120,2|2,2:2|2:2,0:0:0:0:
137,349,23246,1,2,2:2:0:0:
58,184,24258,1,8,0:0:0:0:
58,184,24426,2,0,L|71:248,1,60,8|0,2:2|2:2,0:0:0:0:
104,292,24763,6,0,P|165:293|211:330,1,120,4|8,2:2|2:2,0:0:0:0:
329,316,25437,2,0,L|357:189,1,120,0|8,3:3|2:2,0:0:0:0:
364,139,25943,2,0,P|306:145|259:109,1,120,0|0,2:2|3:3,0:0:0:0:
220,63,26449,1,8,2:2:0:0:
104,100,26786,2,0,L|89:40,2,60,0|0|8,3:3|3:3|2:2,0:0:0:0:
40,204,27460,6,0,P|99:202|149:233,1,120,0|8,3:3|2:2,0:0:0:0:
234,318,28134,2,0,L|260:201,1,120,0|8,3:3|2:2,0:0:0:0:
276,143,28640,2,0,P|324:175|382:166,1,120,0|0,2:2|3:3,0:0:0:0:
430,131,29145,1,8,2:2:0:0:
464,245,29482,2,0,L|524:231,2,60,0|0|8,3:3|3:3|2:2,0:0:0:0:
379,327,30156,6,0,L|255:309,1,120,4|8,0:0|2:2,0:0:0:0:
143,352,30831,2,0,L|118:233,1,120,0|8,3:3|2:2,0:0:0:0:
107,175,31336,2,0,P|165:181|215:151,1,120,0|0,2:2|3:3,0:0:0:0:
256,108,31842,1,8,2:2:0:0:
361,168,32179,2,0,L|341:288,1,120,0|12,3:3|2:2,0:0:0:0:
213,277,32853,6,0,L|201:216,2,60,0|0|8,0:0|3:3|2:2,0:0:0:0:
225,337,33359,1,0,0:0:0:0:
224,336,33527,2,0,P|167:327|116:357,1,120,8|8,2:2|2:2,0:0:0:0:
21,285,34201,1,8,2:2:0:0:
97,192,34538,1,8,2:2:0:0:
58,76,34876,2,0,L|-3:90,2,60,8|0|0,2:2|3:3|3:3,0:0:0:0:
99,32,35381,6,0,L|227:52,1,120,4|0,2:2|2:2,0:0:0:0:
272,25,35887,1,8,2:2:0:0:
369,94,36224,1,0,3:3:0:0:
468,26,36561,1,8,2:2:0:0:
499,145,36898,6,0,L|481:263,1,120,0|8,3:3|2:2,0:0:0:0:
380,328,37572,2,0,L|362:210,1,120,0|8,3:3|2:2,0:0:0:0:
318,104,38246,1,0,3:3:0:0:
230,186,38583,1,8,2:2:0:0:
140,106,38920,2,0,P|81:100|37:137,1,120,0|8,3:3|2:2,0:0:0:0:
122,221,39595,6,0,L|242:205,1,120,0|8,3:3|2:2,0:0:0:0:
288,241,40100,2,0,L|408:225,1,120,0|0,3:3|3:3,0:0:0:0:
457,252,40606,1,8,2:2:0:0:
407,361,40943,6,0,L|472:375,2,60,4|0|8,2:2|3:3|2:2,0:0:0:0:
347,355,41449,2,0,L|222:382,1,120,4|0,3:2|3:3,0:0:0:0:
205,331,41954,1,8,2:2:0:0:
205,331,42123,6,0,P|151:305|92:313,1,120,4|0,2:2|3:3,0:0:0:0:
44,347,42628,1,8,2:2:0:0:
35,227,42965,2,0,L|21:168,2,60,8|0|8,2:2|3:3|2:3,0:0:0:0:
157,222,43640,6,0,P|216:220|268:249,1,120,4|8,2:2|2:2,0:0:0:0:
314,286,44145,1,0,3:3:0:0:
314,286,44314,2,0,L|334:157,1,120,0|8,2:2|2:2,0:0:0:0:
344,111,44819,1,0,2:2:0:0:
355,9,45156,2,0,L|418:23,1,60,0|8,2:2|2:2,0:0:0:0:
473,22,45493,2,0,L|454:140,1,120,0|0,3:3|3:3,0:0:0:0:
490,188,45999,1,8,2:2:0:0:
393,259,46336,6,0,B|326:223|326:223|269:214|225:242,2,180,12|0|8,3:2|3:3|3:2,0:0:0:0:
292,324,47685,2,0,B|359:360|359:360|416:369|474:331,2,180,8|0|8,3:2|3:3|3:2,0:0:0:0:
209,236,49033,1,4,2:2:0:0:
314,176,49370,2,0,L|379:189,1,60,8|8,2:2|2:2,0:0:0:0:
426,160,49707,2,0,P|415:219|405:278,1,120,8|8,2:2|2:2,0:0:0:0:
288,306,50381,6,0,L|300:370,2,60,12|8|8,2:2|2:2|2:2,0:0:0:0:
274,247,50887,2,0,P|224:276|166:265,1,120,12|0,2:2|0:0,0:0:0:0:
122,225,51392,1,8,2:2:0:0:
192,127,51729,6,0,L|313:142,1,120,6|8,2:2|2:2,0:0:0:0:
349,188,52235,1,2,2:2:0:0:
349,188,52404,2,0,L|470:203,1,120,2|8,2:2|2:2,0:0:0:0:
501,83,53078,1,2,2:2:0:0:
401,15,53415,1,10,2:2:0:0:
298,77,53752,1,2,2:2:0:0:
190,23,54089,1,10,2:2:0:0:
85,89,54426,6,0,L|110:207,1,120,2|8,2:2|2:2,0:0:0:0:
127,263,54932,2,0,P|177:234|235:243,1,120,2|2,2:2|2:2,0:0:0:0:
282,281,55437,1,10,2:2:0:0:
348,360,55774,2,0,L|406:346,2,60,0|0|8,2:2|0:0|2:2,0:0:0:0:
287,376,56280,2,0,L|168:359,1,120,2|2,2:2|2:2,0:0:0:0:
111,340,56786,1,10,2:2:0:0:
57,231,57123,6,0,P|46:172|36:113,1,120,6|8,2:2|2:2,0:0:0:0:
29,53,57628,1,2,2:2:0:0:
29,53,57797,2,0,P|81:41|140:77,1,120,2|8,2:2|2:2,0:0:0:0:
252,102,58471,1,2,2:2:0:0:
353,37,58808,1,10,2:2:0:0:
445,113,59145,2,0,L|424:231,1,120,2|10,2:2|2:2,0:0:0:0:
338,314,59819,6,0,P|292:276|233:279,1,120,6|10,2:2|2:2,0:0:0:0:
183,246,60325,2,0,L|60:226,1,120,2|2,2:2|2:2,0:0:0:0:
36,279,60831,1,10,2:2:0:0:
140,338,61168,2,0,L|258:355,1,120,0|8,0:0|2:2,0:0:0:0:
318,249,61842,2,0,L|383:257,2,60,8|0|8,2:2|3:3|2:3,0:0:0:0:
307,195,62347,1,8,2:3:0:0:
307,195,62516,6,0,L|285:75,1,120,4|8,2:2|2:2,0:0:0:0:
275,17,63022,1,2,2:2:0:0:
275,17,63190,1,2,2:2:0:0:
181,91,63527,1,10,2:2:0:0:
65,58,63864,2,0,L|83:-5,2,60,2|2|8,2:2|2:2|2:2,0:0:0:0:
16,93,64370,2,0,L|40:214,1,120,2|0,2:2|2:2,0:0:0:0:
57,267,64876,1,10,2:2:0:0:
156,200,65213,5,12,2:2:0:0:
258,263,65550,1,8,2:2:0:0:
358,197,65887,2,0,L|423:212,2,60,8|2|8,2:2|3:2|2:2,0:0:0:0:
305,169,66392,2,0,P|330:116|325:57,1,120,2|0,3:2|3:3,0:0:0:0:
291,5,66898,1,0,3:3:0:0:
194,76,67235,1,8,2:3:0:0:
93,10,67572,1,10,2:3:0:0:
27,110,67909,6,0,L|48:231,1,120,6|8,2:2|2:2,0:0:0:0:
59,283,68415,1,2,2:2:0:0:
59,283,68583,2,0,P|111:257|168:270,1,120,2|8,2:2|2:2,0:0:0:0:
263,344,69258,1,2,2:2:0:0:
365,282,69595,1,10,2:2:0:0:
461,352,69932,2,0,L|489:232,1,120,2|10,2:2|2:2,0:0:0:0:
431,125,70606,6,0,P|373:123|328:161,1,120,6|10,2:2|2:2,0:0:0:0:
289,195,71111,2,0,L|167:166,1,120,2|2,2:2|2:2,0:0:0:0:
115,146,71617,1,10,2:2:0:0:
0,182,71954,6,0,B|-16:126|-16:126|4:68,1,120,0|8,0:0|2:2,0:0:0:0:
44,31,72460,2,0,L|166:56,1,120,2|2,2:2|2:2,0:0:0:0:
215,29,72965,1,10,2:2:0:0:
333,45,73302,6,0,P|352:100|331:155,1,120,6|8,2:2|2:2,0:0:0:0:
274,161,73808,1,2,2:2:0:0:
274,161,73977,2,0,L|150:188,1,120,2|8,2:2|2:2,0:0:0:0:
65,112,74651,1,6,2:2:0:0:
8,217,74988,1,10,2:2:0:0:
72,318,75325,2,0,L|197:294,1,120,2|10,2:2|2:2,0:0:0:0:
304,333,75999,6,0,P|316:275|298:219,1,120,14|2,2:2|2:2,0:0:0:0:
260,172,76505,2,0,L|381:198,1,120,10|2,2:2|2:2,0:0:0:0:
436,208,77010,1,10,2:2:0:0:
485,98,77347,2,0,L|498:30,2,60,6|8|8,2:2|2:2|2:2,0:0:0:0:
367,71,78022,2,0,L|380:3,2,60,0|0|8,3:3|3:3|3:3,0:0:0:0:
355,129,78527,1,8,3:3:0:0:
354,128,78696,6,0,P|306:95|248:103,1,120,6|8,2:2|2:2,0:0:0:0:
134,64,79370,2,0,L|161:189,1,120,0|8,2:2|2:2,0:0:0:0:
174,239,79876,1,2,2:2:0:0:
174,238,80044,2,0,P|224:209|281:220,1,120,6|8,2:2|2:2,0:0:0:0:
392,270,80718,2,0,L|411:150,1,120,0|8,2:2|2:2,0:0:0:0:
419,97,81224,1,2,2:2:0:0:
419,97,81392,5,12,2:2:0:0:
324,171,81729,1,8,2:2:0:0:
392,270,82067,1,12,2:2:0:0:
300,347,82404,1,8,2:2:0:0:
189,301,82741,6,0,L|63:284,1,120,12|0,3:2|3:3,0:0:0:0:
40,239,83246,1,0,3:3:0:0:
40,239,83415,1,0,3:3:0:0:
144,179,83752,1,8,3:3:0:0:
262,196,84089,6,0,L|273:264,2,60,4|0|8,2:2|2:2|2:2,0:0:0:0:
313,164,84595,2,0,L|290:35,1,120,8|0,2:2|2:2,0:0:0:0:
175,18,85269,2,0,P|111:18|68:54,1,120,0|0,2:2|3:3,0:0:0:0:
72,111,85774,1,0,3:3:0:0:
19,217,86111,2,0,L|-2:159,2,60,0|0|8,3:3|3:3|3:3,0:0:0:0:
127,269,86786,6,0,L|106:325,2,60,4|0|8,2:2|2:2|2:2,0:0:0:0:
135,212,87291,2,0,P|181:247|245:242,1,120,8|0,2:2|3:3,0:0:0:0:
356,196,87965,2,0,L|386:67,1,120,4|0,3:2|2:2,0:0:0:0:
397,26,88471,1,8,2:2:0:0:
277,39,88808,2,0,L|290:98,2,60,0|0|8,3:3|3:3|2:3,0:0:0:0:
161,73,89482,6,0,L|148:14,2,60,4|0|8,2:2|2:2|2:2,0:0:0:0:
173,131,89988,2,0,P|115:122|71:160,1,120,8|0,2:2|2:2,0:0:0:0:
109,274,90662,2,0,P|166:282|210:244,1,120,0|0,2:2|3:3,0:0:0:0:
244,197,91168,1,0,3:3:0:0:
348,264,91505,1,0,3:3:0:0:
449,193,91842,1,8,2:3:0:0:
406,80,92179,6,0,P|350:96|290:114,1,120,4|8,2:2|2:2,0:0:0:0:
247,71,92685,1,2,2:2:0:0:
247,71,92853,2,0,P|191:87|131:105,1,120,2|8,2:2|2:2,0:0:0:0:
43,185,93527,6,0,P|99:201|159:219,1,120,2|8,2:2|2:2,0:0:0:0:
188,267,94033,1,0,3:3:0:0:
188,267,94201,2,0,P|247:253|305:239,1,120,0|8,3:3|2:3,0:0:0:0:
391,154,94876,6,0,L|460:168,2,60,4|2|8,2:2|2:2|2:2,0:0:0:0:
365,99,95381,2,0,P|306:112|248:126,1,120,2|2,2:2|2:2,0:0:0:0:
194,89,95887,1,8,2:2:0:0:
81,131,96224,2,0,P|67:188|90:242,1,120,0|8,2:2|2:2,0:0:0:0:
173,329,96898,1,0,2:2:0:0:
262,249,97235,1,8,2:2:0:0:
366,307,97572,6,0,L|354:370,2,60,4|2|8,2:2|2:2|2:2,0:0:0:0:
418,278,98078,2,0,L|398:154,1,120,2|2,2:2|2:2,0:0:0:0:
386,100,98583,1,8,2:2:0:0:
278,32,98920,6,0,P|219:32|171:66,1,120,0|8,2:2|2:2,0:0:0:0:
51,59,99595,2,0,L|80:180,1,120,8|8,2:2|2:2,0:0:0:0:
38,288,100269,2,0,P|94:275|157:261,1,120,14|10,2:2|2:2,0:0:0:0:
205,293,100774,2,0,P|261:280|324:266,1,120,6|2,2:2|2:2,0:0:0:0:
375,293,101280,1,8,2:2:0:0:
375,293,101449,1,6,2:2:0:0:
469,218,101786,2,0,L|482:153,1,60,0|0,3:3|3:3,0:0:0:0:
422,54,102291,1,0,3:3:0:0:
328,128,102628,1,8,2:3:0:0:
235,43,102965,6,0,P|176:42|128:75,1,120,12|8,2:2|2:2,0:0:0:0:
8,67,103640,2,0,L|37:191,1,120,8|8,2:2|2:2,0:0:0:0:
79,295,104314,1,8,2:2:0:0:
182,235,104651,1,8,2:2:0:0:
283,299,104988,2,0,L|345:279,2,60,8|2|8,2:2|2:2|2:2,0:0:0:0:
226,318,105493,1,2,2:2:0:0:
256,192,105662,12,0,111116,2:2:0:0:
