osu file format v14

[General]
AudioFilename: audio.mp3
AudioLeadIn: 0
PreviewTime: 51739
Countdown: 0
SampleSet: Soft
StackLeniency: 0.7
Mode: 0
LetterboxInBreaks: 0
WidescreenStoryboard: 0

[Editor]
Bookmarks: 35560,84099
DistanceSpacing: 1.3
BeatDivisor: 4
GridSize: 4
TimelineZoom: 2.3

[Metadata]
Title:Hi FiVE! (Cut Ver.)
TitleUnicode:Hi FiVE! (Cut Ver.)
Artist:LiSA
ArtistUnicode:LiSA
Creator:Cellina
Version:Dailycare's Hard
Source:
Tags:pop 織部里沙 LUCKY Hi FiVE! alacat Dailycare HabiHolic No Dap reana moeka momoka shioi no_dap japanese
BeatmapID:1165234
BeatmapSetID:550137

[Difficulty]
HPDrainRate:5.5
CircleSize:3.8
OverallDifficulty:6
ApproachRate:8
SliderMultiplier:1.5
SliderTickRate:1

[Events]
//Background and Video events
0,0,"BG.jpg",0,0
//Break Periods
//Storyboard Layer 0 (Background)
//Storyboard Layer 1 (Fail)
//Storyboard Layer 2 (Pass)
//Storyboard Layer 3 (Foreground)
//Storyboard Layer 4 (Overlay)
//Storyboard Sound Samples

[TimingPoints]
494,337.078651685393,4,2,1,50,1,0
3190,-125,4,2,1,50,0,0
5213,-100,4,2,1,70,0,0
5465,-100,4,2,1,5,0,0
5550,-100,4,2,1,70,0,0
5802,-100,4,2,1,5,0,0
5887,-100,4,2,1,70,0,0
11280,-125,4,2,1,40,0,0
11954,-125,4,2,1,50,0,0
12628,-125,4,2,1,60,0,0
13302,-125,4,2,1,70,0,0
13977,-125,4,2,1,70,0,0
24258,-100,4,2,1,70,0,0
24426,-100,4,2,1,90,0,0
24679,-100,4,2,1,70,0,0
24763,-100,4,2,2,70,0,0
25100,-100,4,2,1,70,0,0
30324,-100,4,2,2,70,0,0
30493,-100,4,2,1,70,0,0
32769,-100,4,2,1,5,0,0
32853,-100,4,2,1,70,0,0
35718,-100,4,2,2,70,0,0
35887,-100,4,2,1,70,0,0
37066,-100,4,2,2,70,0,0
37235,-100,4,2,1,70,0,0
38414,-100,4,2,2,70,0,0
38583,-100,4,2,1,70,0,0
39763,-100,4,2,2,70,0,0
39932,-100,4,2,1,70,0,0
40943,-100,4,2,2,70,0,0
41111,-100,4,2,1,70,0,0
42123,-100,4,2,2,70,0,0
42460,-100,4,2,1,70,0,0
43640,-100,4,2,2,70,0,0
43977,-100,4,2,1,70,0,0
44314,-100,4,2,2,70,0,0
44482,-100,4,2,1,70,0,0
45156,-100,4,2,2,70,0,0
45325,-100,4,2,1,70,0,0
49286,-100,4,2,1,5,0,0
49370,-100,4,2,1,70,0,0
51392,-100,4,2,3,70,0,0
51645,-100,4,2,3,5,0,0
51729,-100,4,2,4,75,0,0
51898,-100,4,2,2,75,0,0
52066,-100,4,2,5,75,0,0
52404,-100,4,2,4,75,0,0
52741,-100,4,2,5,75,0,0
53078,-100,4,2,4,75,0,0
53415,-100,4,2,5,75,0,0
53583,-100,4,2,4,75,0,0
54089,-100,4,2,5,75,0,0
54426,-100,4,2,4,75,0,0
54595,-100,4,2,2,75,0,0
54763,-100,4,2,5,75,0,0
55100,-100,4,2,4,75,0,0
55437,-100,4,2,5,75,0,0
55774,-100,4,2,4,75,0,0
56111,-100,4,2,5,75,0,0
56280,-100,4,2,4,75,0,0
56364,-100,4,2,1,75,0,0
56449,-100,4,2,4,75,0,0
56786,-100,4,2,5,75,0,0
57123,-100,4,2,4,75,0,0
57292,-100,4,2,2,75,0,0
57460,-100,4,2,5,75,0,0
57797,-100,4,2,4,75,0,0
58134,-100,4,2,5,75,0,0
58471,-100,4,2,4,75,0,0
58808,-100,4,2,5,75,0,0
58976,-100,4,2,4,75,0,0
59482,-100,4,2,5,75,0,0
59819,-100,4,2,4,75,0,0
59988,-100,4,2,2,75,0,0
60156,-100,4,2,5,75,0,0
60493,-100,4,2,4,75,0,0
60831,-100,4,2,5,75,0,0
61168,-100,4,2,2,75,0,0
61336,-100,4,2,4,75,0,0
61505,-100,4,2,1,75,0,0
61842,-100,4,2,2,75,0,0
62010,-100,4,2,1,75,0,0
62516,-100,4,2,2,75,0,0
62853,-100,4,2,5,75,0,0
63190,-100,4,2,4,75,0,0
63360,-100,4,2,2,75,0,0
63527,-100,4,2,5,75,0,0
63864,-100,4,2,4,75,0,0
64201,-100,4,2,5,75,0,0
64370,-100,4,2,4,75,0,0
64876,-100,4,2,5,75,0,0
65213,-100,4,2,1,75,0,0
66561,-100,4,2,1,75,0,0
67909,-100,4,2,2,75,0,0
68078,-100,4,2,1,75,0,0
68246,-100,4,2,5,75,0,0
68583,-100,4,2,4,75,0,0
68920,-100,4,2,5,75,0,0
69258,-100,4,2,4,75,0,0
69595,-100,4,2,5,75,0,0
69763,-100,4,2,4,75,0,0
70269,-100,4,2,5,75,0,0
70606,-100,4,2,4,75,0,0
70775,-100,4,2,2,75,0,0
70943,-100,4,2,5,75,0,0
71280,-100,4,2,4,75,0,0
71617,-100,4,2,5,75,0,0
71954,-100,4,2,4,75,0,0
72291,-100,4,2,5,75,0,0
72460,-100,4,2,4,75,0,0
72965,-100,4,2,5,75,0,0
73302,-100,4,2,4,75,0,0
73471,-100,4,2,2,75,0,0
73639,-100,4,2,5,75,0,0
73977,-100,4,2,4,75,0,0
74314,-100,4,2,5,75,0,0
74651,-100,4,2,4,75,0,0
74988,-100,4,2,5,75,0,0
75156,-100,4,2,4,75,0,0
75662,-100,4,2,5,75,0,0
76168,-100,4,2,4,75,0,0
76505,-100,4,2,5,75,0,0
76673,-100,4,2,4,75,0,0
77010,-100,4,2,5,75,0,0
77178,-100,4,2,4,75,0,0
77347,-100,4,2,5,75,0,0
77685,-100,4,2,4,75,0,0
77853,-100,4,2,1,75,0,0
78022,-100,4,2,1,75,0,0
78696,-100,4,2,2,75,0,0
79033,-100,4,2,5,75,0,0
79370,-100,4,2,4,75,0,0
79707,-100,4,2,5,75,0,0
80044,-100,4,2,4,75,0,0
80381,-100,4,2,5,75,0,0
80550,-100,4,2,4,75,0,0
80634,-100,4,2,1,75,0,0
80718,-100,4,2,4,75,0,0
81055,-100,4,2,5,75,0,0
81392,-100,4,2,1,75,0,0
82909,-100,4,2,1,75,0,0
84426,-100,4,2,5,75,0,0
85437,-100,4,2,1,75,0,0
85605,-100,4,2,1,75,0,0
87123,-100,4,2,5,75,0,0
87628,-100,4,2,1,75,0,0
88471,-100,4,2,5,75,0,0
88808,-100,4,2,1,75,0,0
89819,-100,4,2,5,75,0,0
90831,-100,4,2,1,75,0,0
90999,-100,4,2,1,75,0,0
92516,-100,4,2,5,75,0,0
94033,-100,4,2,1,75,0,0
94201,-100,4,2,1,75,0,0
94876,-100,4,2,2,75,0,0
95213,-100,4,2,5,75,0,0
95549,-100,4,2,2,75,0,0
95718,-100,4,2,4,75,0,0
95802,-100,4,2,5,75,0,0
96224,-100,4,2,4,75,0,0
96392,-100,4,2,5,75,0,0
96729,-100,4,2,4,75,0,0
97235,-100,4,2,5,75,0,0
97572,-100,4,2,4,75,0,0
97909,-100,4,2,5,75,0,0
98246,-100,4,2,4,75,0,0
98499,-100,4,2,5,75,0,0
98920,-100,4,2,4,75,0,0
99088,-100,4,2,5,75,0,0
99426,-100,4,2,4,75,0,0
99932,-100,4,2,1,75,0,0
100269,-100,4,2,5,75,0,0
101701,-100,4,2,5,5,0,0
101786,-100,4,2,1,75,0,0
102965,-100,4,2,5,75,0,0
103133,-100,4,2,2,75,0,0
103302,-100,4,2,5,75,0,0
103471,-100,4,2,2,75,0,0
103640,-100,4,2,5,75,0,0
103808,-100,4,2,2,75,0,0
103977,-100,4,2,5,75,0,0
104145,-100,4,2,2,75,0,0
104314,-100,4,2,5,75,0,0
104482,-100,4,2,2,75,0,0
104651,-100,4,2,5,75,0,0
104820,-100,4,2,2,75,0,0
104988,-100,4,2,5,75,0,0
105662,340.909090909091,4,2,5,50,1,0
106684,-100,4,2,5,50,0,0
107707,-100,4,2,5,50,0,0
108730,-100,4,2,5,50,0,0
111031,-100,4,2,5,50,0,0
111116,-100,4,2,5,40,0,0

[Colours]
Combo1 : 255,241,53
Combo2 : 147,206,255
Combo3 : 182,255,161
Combo4 : 255,167,167

[HitObjects]
84,192,3190,6,0,P|118:177|159:178,1,60,0|0,3:3|2:2,0:0:0:0:
220,208,3527,1,0,3:3:0:0:
268,136,3696,2,0,P|316:168|396:152,1,120,0|0,2:2|2:2,0:0:0:0:
460,192,4201,1,0,3:3:0:0:
448,104,4370,6,0,P|400:72|320:88,1,120,0|0,2:2|2:2,0:0:0:0:
268,136,4876,1,0,3:3:0:0:
268,136,5044,1,0,2:2:0:0:
332,200,5213,6,0,P|329:251|323:359,1,150,4|4,2:2|2:2,0:0:0:0:
323,349,5887,6,0,P|281:354|235:363,2,75,4|0|8,3:2|2:2|2:2,0:0:0:0:
404,304,6392,2,0,P|360:264|268:272,1,150,0|0,3:3|3:3,0:0:0:0:
200,216,6898,1,8,2:2:0:0:
121,259,7067,6,0,L|108:108,1,150,0|0,3:3|3:3,0:0:0:0:
64,30,7572,2,0,P|102:20|150:14,1,75,8|0,3:2|2:2,0:0:0:0:
224,32,7909,2,0,L|217:118,1,75,8|0,2:2|3:3,0:0:0:0:
276,176,8246,2,0,P|312:185|349:191,1,75,8|0,2:2|3:3,0:0:0:0:
416,248,8583,6,0,P|436:208|388:112,1,150,4|8,3:2|2:2,0:0:0:0:
344,48,9089,1,0,0:0:0:0:
264,88,9258,2,0,P|198:94|108:108,1,150,0|8,3:3|2:2,0:0:0:0:
13,257,9932,6,0,P|58:263|104:271,1,75,8|0,2:2|3:3,0:0:0:0:
152,332,10269,1,8,2:2:0:0:
152,332,10437,2,0,P|180:277|139:191,1,150,0|0,3:3|3:3,0:0:0:0:
200,124,10943,2,0,P|162:117|125:113,1,75,8|0,2:2|3:3,0:0:0:0:
252,196,11280,6,0,P|305:184|398:172,2,120,4|0|0,3:2|3:3|3:3,0:0:0:0:
87,267,12291,1,0,3:3:0:0:
228,380,12628,2,0,P|281:368|374:356,2,120,0|0|0,3:3|3:3|3:3,0:0:0:0:
87,267,13640,1,0,3:3:0:0:
160,204,13808,1,2,2:2:0:0:
176,300,13977,6,0,P|215:295|253:292,1,60,4|0,2:2|0:0,0:0:0:0:
324,308,14314,2,0,P|323:270|299:227,1,60,0|2,2:2|2:2,0:0:0:0:
364,172,14651,2,0,P|322:157|243:199,1,120,2|2,2:2|2:2,0:0:0:0:
180,136,15156,6,0,P|138:151|59:109,1,120,2|2,2:2|2:2,0:0:0:0:
0,180,15662,2,0,P|14:212|23:246,1,60,0|2,2:2|2:2,0:0:0:0:
70,124,15999,2,0,P|56:92|47:58,1,60,2|2,2:2|2:2,0:0:0:0:
116,7,16336,2,0,P|150:10|184:20,1,60,2|0,2:2|2:2,0:0:0:0:
192,105,16673,6,0,L|268:99,1,60,2|0,2:2|2:2,0:0:0:0:
320,39,17010,2,0,P|344:79|332:139,1,90,2|0,2:2|2:2,0:0:0:0:
336,139,17347,2,0,L|332:211,2,60,2|2|2,2:2|2:2|2:2,0:0:0:0:
424,164,17853,6,0,P|412:210|394:296,1,120,0|0,2:2|2:2,0:0:0:0:
440,360,18359,2,0,P|376:372|324:332,1,120,2|2,2:2|2:2,0:0:0:0:
304,260,18864,1,2,2:2:0:0:
304,260,19033,1,2,2:2:0:0:
396,280,19201,6,0,P|453:261|510:245,1,120,0|0,2:2|2:2,0:0:0:0:
492,156,19707,2,0,P|460:163|425:175,1,60,2|2,2:2|2:2,0:0:0:0:
344,152,20044,2,0,P|332:120|372:36,1,120,2|2,2:2|2:2,0:0:0:0:
276,8,20550,2,0,P|254:34|161:41,1,120,2|0,2:2|2:2,0:0:0:0:
84,44,21055,2,0,P|93:84|102:123,1,60,2|2,2:2|2:2,0:0:0:0:
68,188,21392,2,0,L|39:179|10:170,2,60,2|2|2,2:2|2:2|2:2,0:0:0:0:
128,256,21898,6,0,P|160:228|248:232,1,120,0|0,2:2|0:0,0:0:0:0:
304,288,22404,2,0,P|324:256|324:209,1,60,2|2,2:2|2:2,0:0:0:0:
234,225,22741,2,0,P|214:257|214:304,1,60,2|2,2:2|2:2,0:0:0:0:
248,364,23078,1,2,2:2:0:0:
340,380,23246,1,2,2:2:0:0:
312,152,24258,6,0,L|317:102,2,37.5,0|0|8,2:2|2:2|2:2,0:0:0:0:
340,380,24763,6,0,P|364:340|354:289,1,75,4|0,2:2|2:2,0:0:0:0:
312,240,25100,2,0,L|400:224,1,75,8|0,2:2|3:3,0:0:0:0:
420,232,25353,1,0,3:3:0:0:
420,232,25437,2,0,P|412:176|484:96,1,150,0|8,3:3|2:2,0:0:0:0:
443,15,25943,6,0,B|397:-20|347:0|347:0|312:72,1,150,0|0,2:2|3:3,0:0:0:0:
240,64,26449,2,0,P|253:119|263:169,1,75,8|0,2:2|3:3,0:0:0:0:
216,220,26786,1,0,3:3:0:0:
216,220,26954,1,0,3:3:0:0:
308,232,27123,2,0,P|349:218|397:206,1,75,8|0,2:2|2:2,0:0:0:0:
328,114,27460,6,0,P|292:126|256:136,1,75,0|0,3:3|3:3,0:0:0:0:
186,214,27797,2,0,P|150:201|114:191,1,75,8|0,2:2|3:3,0:0:0:0:
89,182,28050,1,0,3:0:0:0:
89,182,28134,2,0,L|97:262,1,75,0|0,3:3|3:3,0:0:0:0:
12,304,28471,1,8,2:2:0:0:
12,304,28640,6,0,P|64:292|144:356,1,150,0|0,2:2|3:3,0:0:0:0:
232,368,29145,2,0,P|233:323|208:279,1,75,8|0,2:2|3:3,0:0:0:0:
152,228,29482,2,0,L|237:204,1,75,0|0,3:3|3:3,0:0:0:0:
312,232,29819,1,8,2:2:0:0:
384,296,29988,6,0,P|408:248|360:148,1,150,0|0,2:2|2:2,0:0:0:0:
384,68,30493,2,0,P|340:74|301:79,1,75,8|0,2:2|3:3,0:0:0:0:
276,76,30746,1,0,3:3:0:0:
276,76,30831,2,0,L|285:260,1,150,0|8,3:3|2:2,0:0:0:0:
217,300,31336,6,0,P|188:256|213:156,1,150,0|0,2:2|3:3,0:0:0:0:
283,225,31842,2,0,P|333:229|376:233,1,75,8|0,2:2|3:3,0:0:0:0:
392,242,32095,1,0,3:0:0:0:
392,242,32179,1,0,3:3:0:0:
456,170,32347,1,0,3:3:0:0:
404,88,32516,1,12,2:2:0:0:
323,142,32685,6,0,P|255:154|187:98,1,150,0|0,0:0|3:3,0:0:0:0:
129,188,33190,1,8,2:2:0:0:
129,188,33359,1,0,0:0:0:0:
230,187,33527,2,0,P|214:236|186:359,1,150,8|8,2:2|2:2,0:0:0:0:
86,375,34033,6,0,P|74:333|72:285,1,75,0|8,3:3|2:2,0:0:0:0:
68,204,34370,1,0,3:3:0:0:
152,252,34538,2,0,L|241:245,1,75,8|8,2:2|2:2,0:0:0:0:
260,256,34791,1,8,2:2:0:0:
260,256,34876,5,8,2:2:0:0:
280,164,35044,1,0,3:3:0:0:
300,72,35213,1,0,3:3:0:0:
372,156,35381,6,0,P|356:221|331:332,1,150,4|0,2:2|2:2,0:0:0:0:
260,256,35887,2,0,P|218:245|185:239,1,75,8|0,2:2|3:3,0:0:0:0:
152,252,36140,1,0,3:3:0:0:
152,252,36224,2,0,L|141:168,1,75,0|0,3:3|3:3,0:0:0:0:
72,124,36561,2,0,L|83:40,1,75,8|0,2:2|2:2,0:0:0:0:
168,24,36898,6,0,P|204:68|312:64,2,150,0|8|0,3:3|2:2|3:3,0:0:0:0:
81,49,37741,1,0,3:3:0:0:
128,128,37909,2,0,P|114:178|102:225,1,75,8|0,2:2|2:2,0:0:0:0:
121,290,38246,6,0,P|84:290|52:272,1,75,0|0,3:3|2:2,0:0:0:0:
4,193,38583,2,0,P|18:143|30:96,1,75,8|0,2:2|3:3,0:0:0:0:
11,30,38920,2,0,P|48:29|80:48,1,75,0|0,3:3|3:3,0:0:0:0:
128,128,39258,1,8,2:2:0:0:
128,128,39595,6,0,L|293:126,1,150,0|8,3:3|2:2,0:0:0:0:
308,216,40100,2,0,L|233:214,1,75,0|0,3:3|3:3,0:0:0:0:
368,144,40437,1,0,3:3:0:0:
368,144,40606,2,0,L|442:142,1,75,8|0,2:2|2:2,0:0:0:0:
508,72,40943,6,0,P|512:41|522:-6,2,75,4|0|8,2:2|3:3|2:2,0:0:0:0:
442,142,41449,2,0,P|468:208|412:300,1,150,4|0,3:2|3:3,0:0:0:0:
352,304,41954,1,8,2:2:0:0:
420,368,42123,6,0,P|380:359|264:337,1,150,4|0,2:2|3:3,0:0:0:0:
191,381,42628,2,0,P|187:300|244:249,1,150,8|8,2:2|2:2,0:0:0:0:
296,184,43134,1,0,3:3:0:0:
380,224,43302,2,0,L|439:216,3,37.5,8|8|8|8,2:3|2:3|2:3|2:3,0:0:0:0:
448,240,43640,6,0,P|457:190|467:149,1,75,4|0,2:2|2:2,0:0:0:0:
504,84,43977,2,0,P|459:74|405:98,1,75,8|0,2:2|3:3,0:0:0:0:
356,132,44314,2,0,P|300:139|224:88,1,150,0|8,2:2|2:2,0:0:0:0:
140,52,44819,6,0,P|138:94|132:148,1,75,0|0,2:2|3:3,0:0:0:0:
80,200,45156,1,0,2:2:0:0:
80,200,45325,1,8,2:2:0:0:
152,260,45493,2,0,P|209:214|282:218,1,150,0|0,3:3|3:3,0:0:0:0:
352,280,45999,2,0,P|350:322|344:376,1,75,8|0,2:2|2:2,0:0:0:0:
248,336,46336,6,0,P|204:340|66:355,1,150,12|8,3:2|3:2,0:0:0:0:
48,268,46842,2,0,P|92:264|230:249,1,150,0|0,3:3|3:3,0:0:0:0:
292,256,47347,1,8,3:2:0:0:
292,256,47685,6,0,P|300:212|336:84,1,150,8|8,3:2|3:2,0:0:0:0:
248,56,48190,2,0,P|240:100|204:228,1,150,0|0,3:3|3:3,0:0:0:0:
144,268,48696,2,0,P|103:252|64:240,1,75,8|0,3:2|3:3,0:0:0:0:
4,176,49033,6,0,P|40:152|157:197,1,150,4|8,2:2|2:2,0:0:0:0:
144,268,49538,1,8,2:2:0:0:
60,312,49707,2,0,P|50:275|56:232,1,75,8|8,2:2|2:2,0:0:0:0:
138,172,50044,2,0,L|247:178,1,75,8|8,2:2|2:2,0:0:0:0:
284,260,50381,6,0,L|358:255,1,75,12|8,2:2|2:2,0:0:0:0:
452,192,50718,1,8,2:2:0:0:
452,192,50887,1,12,2:2:0:0:
256,24,51392,5,8,2:2:0:0:
256,24,51729,6,0,P|277:63|230:176,1,150,6|8,2:2|2:2,0:0:0:0:
160,176,52235,1,2,2:2:0:0:
80,228,52404,2,0,P|62:187|68:140,1,75,2|0,2:2|2:2,0:0:0:0:
160,176,52741,2,0,L|172:264,1,75,8|2,2:2|2:2,0:0:0:0:
140,336,53078,6,0,P|172:300|288:312,1,150,2|10,2:2|2:2,0:0:0:0:
340,240,53583,1,0,2:2:0:0:
420,288,53752,2,0,P|428:247|440:200,1,75,2|0,2:2|2:2,0:0:0:0:
496,140,54089,1,10,2:2:0:0:
496,140,54426,6,0,L|329:126,1,150,2|8,2:2|2:2,0:0:0:0:
260,88,54932,2,0,P|268:141|272:183,1,75,2|0,2:2|2:2,0:0:0:0:
216,232,55269,1,2,2:2:0:0:
216,232,55353,1,0,0:0:0:0:
216,232,55437,1,10,2:2:0:0:
128,275,55606,6,0,P|115:227|169:142,1,150,2|0,2:2|2:2,0:0:0:0:
256,140,56111,2,0,P|300:150|335:160,1,75,8|2,2:2|2:2,0:0:0:0:
396,228,56449,1,0,2:2:0:0:
396,228,56617,1,2,2:2:0:0:
480,192,56786,2,0,P|482:149|484:103,1,75,10|2,2:2|2:2,0:0:0:0:
512,31,57123,6,0,P|455:25|393:92,1,150,6|8,2:2|2:2,0:0:0:0:
316,36,57628,1,2,2:2:0:0:
256,108,57797,2,0,P|211:103|172:103,1,75,2|0,2:2|2:2,0:0:0:0:
92,72,58134,2,0,L|100:156,1,75,8|2,2:2|2:2,0:0:0:0:
180,196,58471,6,0,L|172:270,1,75,2|0,2:2|2:2,0:0:0:0:
104,336,58808,2,0,P|83:303|92:240,1,75,10|0,2:2|2:2,0:0:0:0:
16,200,59145,2,0,P|51:188|86:174,1,75,2|0,2:2|2:2,0:0:0:0:
180,196,59482,2,0,P|223:201|260:208,1,75,10|0,2:2|2:2,0:0:0:0:
328,268,59819,6,0,P|353:214|301:123,1,150,6|10,2:2|2:2,0:0:0:0:
244,72,60325,2,0,P|220:141|254:206,1,150,2|2,2:2|2:2,0:0:0:0:
328,268,60831,1,10,2:2:0:0:
328,268,60999,6,0,P|412:252|510:236,1,150,6|0,2:2|2:2,0:0:0:0:
512,156,61505,2,0,P|502:130|484:71,1,75,8|0,2:2|3:3,0:0:0:0:
416,24,61842,2,0,P|406:50|388:109,1,75,8|0,2:2|3:3,0:0:0:0:
336,172,62179,2,0,L|279:166,3,37.5,8|8|8|8,2:3|2:3|2:3|2:3,0:0:0:0:
272,192,62516,6,0,P|265:149|249:95,1,75,4|2,2:2|2:2,0:0:0:0:
224,32,62853,2,0,L|302:21,1,75,8|2,2:2|2:2,0:0:0:0:
168,108,63190,2,0,P|109:123|32:56,1,150,2|10,2:2|2:2,0:0:0:0:
120,32,63696,1,2,2:2:0:0:
168,108,63864,6,0,P|160:156|153:208,1,75,2|2,2:2|2:2,0:0:0:0:
200,276,64201,1,8,2:2:0:0:
200,276,64370,2,0,P|127:285|57:212,1,150,2|0,2:2|2:2,0:0:0:0:
4,176,64876,1,10,2:2:0:0:
64,108,65044,1,2,2:2:0:0:
128,172,65213,6,0,P|177:159|234:150,1,75,12|2,2:2|3:2,0:0:0:0:
288,188,65550,2,0,L|283:102,1,75,8|2,2:2|3:2,0:0:0:0:
376,80,65887,2,0,L|371:154,2,75,8|2|8,2:2|3:2|2:2,0:0:0:0:
304,20,66392,1,2,3:2:0:0:
283,113,66561,6,0,L|218:107,3,37.5,0|0|0|0,3:3|3:3|3:3|3:3,0:0:0:0:
216,128,66898,2,0,P|213:80|210:47,1,75,0|0,3:3|3:3,0:0:0:0:
128,12,67235,6,0,L|127:59,3,37.5,8|8|8|8,2:3|2:3|2:3|2:3,0:0:0:0:
104,76,67572,2,0,L|105:123,3,37.5,10|10|10|10,2:3|2:3|2:3|2:3,0:0:0:0:
128,140,67909,6,0,P|84:180|92:284,1,150,6|8,2:2|2:2,0:0:0:0:
156,316,68415,1,2,2:2:0:0:
248,312,68583,2,0,P|247:335|220:382,1,75,2|0,2:2|2:2,0:0:0:0:
156,316,68920,2,0,L|173:232,1,75,8|2,2:2|2:2,0:0:0:0:
264,216,69258,6,0,P|292:184|268:64,1,150,2|10,2:2|2:2,0:0:0:0:
336,4,69763,1,0,2:2:0:0:
416,52,69932,2,0,P|414:96|412:145,1,75,2|0,2:2|2:2,0:0:0:0:
472,208,70269,1,10,2:2:0:0:
472,208,70606,6,0,L|305:222,1,150,6|10,2:2|2:2,0:0:0:0:
244,168,71111,2,0,P|228:206|234:255,1,75,2|0,2:2|2:2,0:0:0:0:
307,291,71449,2,0,P|323:253|317:204,1,75,2|10,2:2|2:2,0:0:0:0:
332,124,71786,6,0,P|285:74|188:88,1,150,2|0,2:2|2:2,0:0:0:0:
116,48,72291,2,0,P|122:90|128:146,1,75,8|2,2:2|2:2,0:0:0:0:
184,204,72628,1,0,2:2:0:0:
184,204,72797,1,2,2:2:0:0:
96,240,72965,2,0,P|56:233|-4:225,1,75,10|2,2:2|2:2,0:0:0:0:
44,324,73302,6,0,P|100:342|179:295,1,150,6|8,2:2|2:2,0:0:0:0:
184,204,73808,1,2,2:2:0:0:
276,236,73977,2,0,P|270:288|267:344,1,75,2|0,2:2|2:2,0:0:0:0:
360,344,74314,2,0,P|366:292|369:236,1,75,8|2,2:2|2:2,0:0:0:0:
432,196,74651,6,0,P|402:190|356:179,1,75,6|0,2:2|2:2,0:0:0:0:
296,104,74988,2,0,P|326:98|372:87,1,75,10|0,2:2|2:2,0:0:0:0:
452,32,75325,2,0,L|456:106,1,75,2|0,2:2|2:2,0:0:0:0:
432,196,75662,2,0,L|428:270,1,75,10|0,2:2|2:2,0:0:0:0:
360,336,75999,6,0,P|325:291|217:297,1,150,14|2,2:2|2:2,0:0:0:0:
172,352,76505,2,0,P|154:310|136:272,1,75,10|0,2:2|2:2,0:0:0:0:
76,220,76842,1,2,2:2:0:0:
164,192,77010,2,0,P|215:194|267:198,1,75,10|2,2:2|2:2,0:0:0:0:
312,256,77347,6,0,P|363:253|415:250,2,75,6|8|8,2:2|2:2|2:2,0:0:0:0:
238,196,77853,1,2,2:2:0:0:
312,140,78022,1,0,3:3:0:0:
312,140,78106,1,0,3:3:0:0:
312,140,78190,1,0,3:3:0:0:
238,80,78359,2,0,L|244:12,3,37.5,8|8|8|8,3:3|3:3|3:3|3:3,0:0:0:0:
223,16,78696,6,0,P|315:8|363:76,1,150,6|8,2:2|2:2,0:0:0:0:
436,88,79201,1,2,2:2:0:0:
376,160,79370,2,0,P|366:204|358:254,1,75,0|2,2:2|2:2,0:0:0:0:
452,256,79707,2,0,P|462:212|470:162,1,75,8|2,2:2|2:2,0:0:0:0:
436,88,80044,6,0,P|360:64|290:124,1,150,6|8,2:2|2:2,0:0:0:0:
272,188,80550,1,2,2:2:0:0:
196,244,80718,2,0,P|192:204|185:158,1,75,0|2,2:2|2:2,0:0:0:0:
108,120,81055,2,0,P|111:80|119:34,1,75,8|2,2:2|2:2,0:0:0:0:
208,20,81392,6,0,P|205:60|197:106,1,75,12|2,2:2|3:2,0:0:0:0:
108,120,81729,2,0,L|28:115,1,75,8|2,2:2|3:2,0:0:0:0:
4,208,82067,2,0,L|84:203,1,75,12|2,2:2|3:2,0:0:0:0:
172,228,82404,2,0,P|174:190|180:153,1,75,8|2,2:2|3:2,0:0:0:0:
280,135,82741,5,0,0:0:0:0:
280,135,82909,1,0,0:0:0:0:
329,228,83078,1,0,0:0:0:0:
329,228,83246,1,0,0:0:0:0:
428,224,83415,2,0,L|436:88,1,112.5,0|0,3:3|3:3,0:0:0:0:
460,92,83752,2,0,L|457:54,3,37.5,8|8|8|8,3:3|3:3|3:3|3:3,0:0:0:0:
480,32,84089,6,0,P|444:16|380:24,1,75,4|0,2:2|2:2,0:0:0:0:
348,80,84426,1,8,2:2:0:0:
348,80,84595,2,0,L|360:244,1,150,8|0,2:2|2:2,0:0:0:0:
412,308,85100,1,8,2:2:0:0:
328,352,85269,6,0,P|307:319|186:319,1,150,0|0,2:2|3:3,0:0:0:0:
136,368,85774,2,0,P|121:345|111:320,3,37.5,0|0|0|0,3:3|3:3|3:3|3:3,0:0:0:0:
88,320,86111,2,0,P|91:274|95:221,1,75,0|0,3:3|3:3,0:0:0:0:
8,212,86449,2,0,P|29:179|126:164,1,112.5,8|8,3:3|3:3,0:0:0:0:
128,164,86786,6,0,L|121:90,1,75,4|0,2:2|2:2,0:0:0:0:
172,16,87123,1,8,2:2:0:0:
172,16,87291,2,0,P|204:56|320:44,1,150,8|0,2:2|3:3,0:0:0:0:
388,92,87797,1,0,3:3:0:0:
316,152,87965,6,0,P|308:193|294:302,1,150,4|0,3:2|2:2,0:0:0:0:
352,376,88471,1,8,2:2:0:0:
352,376,88640,1,0,2:2:0:0:
436,336,88808,2,0,L|430:253,1,75,0|0,3:3|3:3,0:0:0:0:
448,236,89061,1,0,3:3:0:0:
465,212,89145,2,0,L|469:159,3,37.5,8|8|8|8,2:3|2:3|2:3|2:3,0:0:0:0:
487,151,89482,6,0,P|443:149|404:111,1,75,4|0,2:2|2:2,0:0:0:0:
417,34,89819,1,8,2:2:0:0:
417,34,89988,2,0,L|253:50,1,150,8|0,2:2|2:2,0:0:0:0:
180,92,90493,1,8,2:2:0:0:
100,40,90662,6,0,P|84:76|144:184,1,150,0|0,2:2|3:3,0:0:0:0:
148,260,91168,2,0,P|164:252|184:241,3,37.5,0|0|0|0,3:3|3:3|3:3|3:3,0:0:0:0:
204,220,91505,2,0,L|293:225,1,75,0|0,3:3|3:3,0:0:0:0:
364,180,91842,1,8,2:3:0:0:
364,180,92179,6,0,L|370:259,1,75,4|0,2:2|2:2,0:0:0:0:
440,317,92516,2,0,P|459:284|462:240,1,75,8|2,2:2|2:2,0:0:0:0:
369,254,92853,2,0,L|280:304,1,75,2|0,2:2|2:2,0:0:0:0:
236,356,93190,1,8,2:2:0:0:
236,356,93527,6,0,P|204:320|104:320,1,150,2|8,2:2|2:2,0:0:0:0:
16,300,94033,1,0,3:3:0:0:
76,228,94201,2,0,L|80:181,3,37.5,0|0|0|0,3:3|3:3|3:3|3:3,0:0:0:0:
104,168,94538,2,0,L|100:121,3,37.5,8|8|8|8,2:3|2:3|2:3|2:3,0:0:0:0:
80,104,94876,6,0,L|161:95,1,75,4|2,2:2|2:2,0:0:0:0:
240,60,95213,1,8,2:2:0:0:
293,138,95381,2,0,P|328:98|313:-1,1,150,2|2,2:2|2:2,0:0:0:0:
412,24,95887,2,0,P|424:69|436:105,1,75,8|0,2:2|2:2,0:0:0:0:
496,164,96224,6,0,L|488:245,1,75,0|0,2:2|2:2,0:0:0:0:
436,316,96561,1,8,2:2:0:0:
436,316,96729,1,0,2:2:0:0:
356,260,96898,2,0,P|311:266|261:275,1,75,0|0,2:2|2:2,0:0:0:0:
228,192,97235,2,0,P|272:185|323:177,1,75,8|0,2:2|2:2,0:0:0:0:
368,112,97572,6,0,P|390:140|397:178,1,75,4|2,2:2|2:2,0:0:0:0:
356,260,97909,1,8,2:2:0:0:
302,180,98078,2,0,P|270:112|325:30,1,150,2|2,2:2|2:2,0:0:0:0:
208,20,98583,2,0,P|166:26|122:34,1,75,8|0,2:2|2:2,0:0:0:0:
84,112,98920,6,0,P|121:117|158:123,1,75,0|0,2:2|2:2,0:0:0:0:
216,200,99258,1,8,2:2:0:0:
216,200,99426,1,0,2:2:0:0:
136,252,99595,2,0,P|142:300|147:347,1,75,8|0,2:2|2:2,0:0:0:0:
240,372,99932,1,8,2:2:0:0:
240,372,100100,1,0,2:2:0:0:
296,292,100269,6,0,P|336:276|444:344,1,150,14|10,2:2|2:2,0:0:0:0:
508,264,100774,2,0,P|500:226|491:174,1,75,6|0,2:2|2:2,0:0:0:0:
496,100,101111,1,2,2:2:0:0:
496,100,101280,1,8,2:2:0:0:
436,22,101449,6,0,P|408:54|420:158,1,150,6|0,2:2|3:3,0:0:0:0:
368,240,101954,2,0,L|327:236,3,37.5,0|0|0|0,3:3|3:3|3:3|3:3,0:0:0:0:
304,216,102291,2,0,L|266:219,3,37.5,0|0|0|0,3:3|3:3|3:3|3:3,0:0:0:0:
240,240,102628,2,0,L|202:236,3,37.5,8|8|8|8,2:3|2:3|2:3|2:3,0:0:0:0:
172,256,102965,6,0,P|116:218|116:110,1,150,12|8,2:2|2:2,0:0:0:0:
164,72,103471,1,0,3:3:0:0:
247,106,103640,2,0,P|228:138|196:156,1,75,8|0,2:2|3:3,0:0:0:0:
84,120,103977,2,0,L|76:32,1,75,8|0,2:2|3:3,0:0:0:0:
195,156,104314,6,0,L|188:230,1,75,8|0,2:2|3:3,0:0:0:0:
112,316,104651,1,8,2:2:0:0:
112,316,104988,5,8,2:2:0:0:
204,308,105156,1,2,2:2:0:0:
296,300,105325,1,8,2:2:0:0:
388,292,105493,1,2,2:2:0:0:
256,192,105662,12,0,111116,2:2:0:0:
