osu file format v14

[General]
AudioFilename: audio.mp3
AudioLeadIn: 0
PreviewTime: 59919
Countdown: 0
SampleSet: Soft
StackLeniency: 0.7
Mode: 0
LetterboxInBreaks: 0
WidescreenStoryboard: 0

[Editor]
DistanceSpacing: 1.1
BeatDivisor: 4
GridSize: 32
TimelineZoom: 2.4

[Metadata]
Title:Gurenge feat. Un3h [ dj-Jo Remix ] TV Size
TitleUnicode:紅蓮華 feat. Un3h [ dj-Jo Remix ] TV Size
Artist:LiSA
ArtistUnicode:LiSA
Creator:Sotarks
Version:Expert
Source:鬼滅の刃
Tags:demon slayer kimetsu no yaiba 通常盤 anime japanese op opening edit reform kujinn realazy lasse kowari akitoshi corinn -laura- iljaaz tech dnb drum n bass
BeatmapID:2316005
BeatmapSetID:1108166

[Difficulty]
HPDrainRate:6.2
CircleSize:4.2
OverallDifficulty:8.5
ApproachRate:9.6
SliderMultiplier:2.72
SliderTickRate:1

[Events]
//Background and Video events
0,0,"bg.jpg",0,0
//Break Periods
//Storyboard Layer 0 (Background)
//Storyboard Layer 1 (Fail)
//Storyboard Layer 2 (Pass)
//Storyboard Layer 3 (Foreground)
//Storyboard Layer 4 (Overlay)
//Storyboard Sound Samples

[TimingPoints]
920,444.444444444444,4,2,22,52,1,0
920,-192.307692307692,4,2,22,52,0,0
11586,-70.4225352112676,4,2,22,82,0,0
12253,-121.951219512195,4,2,22,82,0,0
13364,-70.4225352112676,4,2,22,82,0,0
14031,-121.951219512195,4,2,22,82,0,0
14697,-81.9672131147541,4,2,22,82,0,0
15142,-70.4225352112676,4,2,22,82,0,0
15808,-121.951219512195,4,2,22,82,0,0
17586,-121.951219512195,4,2,22,82,0,0
18253,-61.7283950617284,4,2,22,82,0,0
18697,-138.888888888889,4,2,22,62,0,0
32919,-238.095238095239,4,2,22,72,0,0
33364,-75.7575757575758,4,2,22,72,0,0
33808,-121.951219512195,4,2,22,72,0,0
34697,-161.290322580645,4,2,22,72,0,0
36031,-81.9672131147541,4,2,22,72,0,0
36475,-238.095238095238,4,2,22,72,0,0
36919,-161.290322580645,4,2,22,72,0,0
37364,-238.095238095238,4,2,22,72,0,0
37586,-81.9672131147541,4,2,22,72,0,0
37808,-238.095238095238,4,2,22,72,0,0
38030,-81.9672131147541,4,2,22,72,0,0
38253,-98.0392156862745,4,2,22,72,0,0
40031,-238.095238095238,4,2,22,72,0,0
40475,-81.9672131147541,4,2,22,72,0,0
41031,-121.951219512195,4,2,22,72,0,0
41364,-70.4225352112676,4,2,22,72,0,0
41808,-61.7283950617284,4,2,22,72,0,0
43142,-70.4225352112676,4,2,22,72,0,0
43586,-61.7283950617284,4,2,22,72,0,0
44031,-98.0392156862745,4,2,22,72,0,0
45364,-89.2857142857143,4,2,22,72,0,0
47142,-89.2857142857143,4,2,22,52,0,0
49586,-192.307692307692,4,2,22,52,0,0
54253,-454.545454545452,4,2,22,62,0,0
54697,-161.290322580645,4,2,22,62,0,0
54919,-454.545454545452,4,2,22,62,0,0
55364,-161.290322580645,4,2,22,62,0,0
56031,-454.545454545452,4,2,22,62,0,0
56475,-161.290322580645,4,2,22,62,0,0
56697,-454.545454545452,4,2,22,62,0,0
57142,-161.290322580645,4,2,22,62,0,0
57808,-121.951219512195,4,2,22,72,0,0
59142,-81.9672131147541,4,2,22,72,0,0
59586,-454.545454545455,4,2,22,72,0,0
60031,-833.333333333333,4,2,22,72,0,0
60919,-70.4225352112676,4,2,22,82,0,0
61364,-81.9672131147541,4,2,22,92,0,0
62475,-70.4225352112676,4,2,22,92,0,0
62642,-70.4225352112676,4,2,22,5,0,0
62697,-61.7283950617284,4,2,22,92,0,0
62753,-70.4225352112676,4,2,22,5,0,0
62808,-98.0392156862745,4,2,22,92,0,0
63086,-70.4225352112676,4,2,22,5,0,0
63142,-81.9672131147541,4,2,22,92,0,0
64253,-70.4225352112676,4,2,22,92,0,0
64419,-70.4225352112676,4,2,22,5,0,0
64475,-61.7283950617284,4,2,22,92,0,0
64531,-70.4225352112676,4,2,22,5,0,0
64586,-98.0392156862745,4,2,22,92,0,0
64919,-70.4225352112676,4,2,22,92,0,0
64975,-70.4225352112676,4,2,22,5,0,0
65031,-70.4225352112676,4,2,22,92,0,0
65086,-70.4225352112676,4,2,22,5,0,0
65142,-70.4225352112676,4,2,22,92,0,0
65197,-70.4225352112676,4,2,22,5,0,0
65253,-70.4225352112676,4,2,22,92,0,0
65308,-70.4225352112676,4,2,22,5,0,0
65364,-61.7283950617284,4,2,22,92,0,0
65697,-81.9672131147541,4,2,22,92,0,0
66253,-70.4225352112676,4,2,22,92,0,0
66419,-70.4225352112676,4,2,22,5,0,0
66475,-70.4225352112676,4,2,22,92,0,0
66642,-70.4225352112676,4,2,22,5,0,0
66697,-70.4225352112676,4,2,22,92,0,0
67142,-81.9672131147541,4,2,22,92,0,0
67586,-70.4225352112676,4,2,22,92,0,0
68475,-89.2857142857143,4,2,22,92,0,0
70253,-75.7575757575758,4,2,22,92,0,0
72031,-70.4225352112676,4,2,22,92,0,0
73808,-161.290322580645,4,2,22,92,0,0
75142,-138.888888888889,4,2,22,92,0,0
75586,-61.7283950617284,4,2,22,92,0,0
79142,-98.0392156862745,4,2,22,92,0,0
80031,-70.4225352112676,4,2,22,92,0,0
80549,-70.4225352112676,4,2,22,5,0,0
80623,-65.7894736842105,4,2,22,92,0,0
80697,-70.4225352112676,4,2,22,5,0,0
80771,-61.7283950617284,4,2,22,92,0,0
80845,-70.4225352112676,4,2,22,5,0,0
80919,-70.4225352112676,4,2,22,92,0,0
82697,-81.9672131147541,4,2,22,92,0,0
83364,-161.290322580645,4,2,22,92,0,0
84031,-81.9672131147541,4,2,22,92,0,0
86253,-70.4225352112676,4,2,22,82,0,0
87586,-98.0392156862744,4,2,22,82,0,0

[Colours]
Combo1 : 192,39,92
Combo2 : 187,91,91
Combo3 : 203,52,52
Combo4 : 232,193,208

[HitObjects]
136,67,920,5,2,0:2:0:0:
188,176,1253,1,2,0:2:0:0:
36,224,1586,2,0,B|159:181|108:295|252:248,1,212.159998705078,2|0,0:2|0:2,0:2:0:0:
412,146,2697,5,2,0:2:0:0:
360,255,3030,1,2,0:2:0:0:
512,303,3364,2,0,B|389:260|440:374|296:327,1,212.159998705078,2|0,0:2|0:2,0:2:0:0:
313,332,4253,1,0,0:2:0:0:
197,144,4475,5,2,0:2:0:0:
231,251,4808,1,2,0:2:0:0:
194,371,5142,2,0,P|215:258|218:71,1,282.879998273437,2|0,0:2|0:2,0:2:0:0:
144,247,6253,5,2,0:2:0:0:
301,194,6586,1,2,0:2:0:0:
402,324,6919,1,2,0:2:0:0:
402,324,7364,5,2,0:2:0:0:
369,258,7586,1,2,0:2:0:0:
438,228,7808,1,2,0:2:0:0:
470,294,8031,6,0,P|388:289|338:301,2,106.079999352539,2|0|0,0:2|0:2|0:2,0:2:0:0:
470,294,9142,6,0,P|415:256|423:169,1,141.439999136719,0|0,0:2|0:2,0:2:0:0:
502,50,9808,6,0,B|338:20|419:152|244:128,1,282.879998273437,2|0,0:2|0:2,0:2:0:0:
56,58,11586,6,0,B|103:28|103:28|70:191,1,193.119990275635,2|0,1:2|0:2,0:2:0:0:
53,259,11919,1,2,1:2:0:0:
160,106,12031,1,8,0:2:0:0:
160,106,12253,6,0,L|173:236,1,111.52000170166,2|0,0:2|0:2,0:2:0:0:
236,151,12586,1,10,0:2:0:0:
149,317,12697,1,0,1:2:0:0:
149,317,12919,5,10,0:2:0:0:
248,262,13031,1,2,0:2:0:0:
333,321,13142,1,2,0:2:0:0:
391,286,13253,1,10,0:2:0:0:
314,224,13364,5,2,1:2:0:0:
273,356,13475,1,8,0:2:0:0:
410,380,13586,1,0,1:2:0:0:
410,380,13660,1,0,1:2:0:0:
410,380,13734,1,0,1:2:0:0:
410,380,13808,1,8,0:2:0:0:
149,317,14031,6,0,L|19:295,1,111.52000170166,2|0,0:2|0:2,0:2:0:0:
146,236,14364,1,10,0:2:0:0:
47,178,14475,1,0,1:2:0:0:
108,137,14586,1,0,1:2:0:0:
67,33,14697,6,0,L|56:98,1,55.3066643881023,10|2,0:2|0:2,0:2:0:0:
179,109,14845,2,0,L|188:163,1,55.3066643881023,2|2,1:2|0:2,0:2:0:0:
104,300,14994,1,0,0:2:0:0:
104,300,15068,1,2,0:2:0:0:
104,300,15142,6,0,B|229:280|146:367|302:349,1,193.119990275635,2|0,1:2|0:2,0:2:0:0:
361,300,15475,1,2,1:2:0:0:
263,207,15586,1,8,0:2:0:0:
263,207,15808,6,0,P|269:275|277:331,1,111.52000170166,2|0,0:2|0:2,0:2:0:0:
338,227,16142,1,10,0:2:0:0:
218,329,16253,1,0,1:2:0:0:
218,329,16475,5,10,0:2:0:0:
168,227,16587,1,2,0:2:0:0:
231,145,16698,1,2,0:2:0:0:
199,85,16809,1,10,0:2:0:0:
133,159,16919,5,2,1:2:0:0:
263,207,17031,1,8,0:2:0:0:
294,71,17142,1,0,1:2:0:0:
294,71,17216,1,0,1:2:0:0:
294,71,17290,1,0,1:2:0:0:
294,71,17364,1,8,0:2:0:0:
395,161,17586,6,0,L|528:131,1,111.52000170166,2|0,0:2|0:2,0:2:0:0:
407,85,17919,1,10,0:2:0:0:
379,232,18031,1,0,1:2:0:0:
319,148,18142,1,0,1:2:0:0:
383,344,18253,6,0,P|312:225|142:332,1,330.48000806836,10|0,0:2|0:2,0:2:0:0:
155,279,18697,6,0,P|82:248|-10:269,1,146.880003585938,2|0,1:2|0:2,0:2:0:0:
148,195,19142,1,0,3:2:0:0:
53,353,19364,2,0,B|152:354|85:301|219:303,1,146.880003585938,2|0,0:2|0:2,0:2:0:0:
257,323,19808,1,0,1:2:0:0:
210,155,20031,1,0,3:2:0:0:
434,323,20364,1,0,3:2:0:0:
387,155,20475,5,2,1:2:0:0:
185,358,20697,1,0,1:2:0:0:
135,126,20919,2,0,P|59:94|-25:119,1,146.880003585938,0|0,3:2|3:2,0:2:0:0:
137,44,21364,5,0,3:2:0:0:
151,34,21475,1,0,3:2:0:0:
217,71,21586,5,0,1:2:0:0:
278,33,21697,1,0,1:2:0:0:
347,81,21808,6,0,P|295:71|267:72,1,48.9600011953125,0|0,3:2|1:2,0:2:0:0:
401,28,22031,5,0,3:2:0:0:
337,147,22142,1,0,3:2:0:0:
503,60,22253,5,2,1:2:0:0:
217,158,22475,1,0,1:2:0:0:
480,342,22697,5,0,3:2:0:0:
435,284,22808,2,0,B|342:284|391:343|272:336,1,146.880003585938,0|0,0:2|0:2,0:2:0:0:
481,221,23364,1,0,1:2:0:0:
185,325,23586,6,0,P|132:314|117:314,1,48.9600011953125,0|0,3:2|0:2,0:2:0:0:
140,242,23808,2,0,P|115:245|92:252,1,48.9600011953125,0|0,0:2|0:2,0:2:0:0:
52,322,24031,5,2,1:2:0:0:
196,100,24253,1,0,1:2:0:0:
326,333,24475,5,0,3:2:0:0:
283,269,24586,1,0,0:2:0:0:
466,350,24808,5,0,0:2:0:0:
499,279,24919,2,0,P|434:281|352:319,1,146.880003585938,0|0,3:2|0:2,0:2:0:0:
433,212,25364,5,0,1:2:0:0:
393,328,25475,1,0,1:2:0:0:
433,212,25586,2,0,P|424:147|422:120,1,73.4400017929688,0|0,3:2|0:2,0:2:0:0:
435,110,25808,5,6,1:2:0:0:
297,346,26031,1,0,3:2:0:0:
297,346,26142,1,0,3:2:0:0:
297,346,26253,1,0,3:2:0:0:
223,88,26475,6,0,P|282:72|338:64,1,97.9200023906251,2|0,0:2|0:2,0:2:0:0:
166,15,26919,1,0,1:2:0:0:
293,213,27142,1,0,3:2:0:0:
87,115,27364,5,0,1:2:0:0:
70,183,27475,1,0,3:2:0:0:
14,74,27586,1,2,1:2:0:0:
140,259,27808,5,0,3:2:0:0:
133,283,27882,1,0,3:2:0:0:
143,300,27957,1,0,3:2:0:0:
142,309,28031,2,0,P|202:280|249:290,1,97.9200023906251,0|0,3:2|0:2,0:2:0:0:
338,256,28364,1,0,3:2:0:0:
282,210,28475,5,0,0:2:0:0:
347,184,28586,1,0,3:2:0:0:
285,330,28697,1,0,1:2:0:0:
231,283,28808,1,0,0:2:0:0:
388,336,28919,5,0,3:2:0:0:
230,382,29031,2,0,L|174:364,1,48.9600011953125,0|0,3:2|1:2,0:2:0:0:
338,256,29253,1,0,3:2:0:0:
214,163,29364,5,2,1:2:0:0:
470,252,29586,1,0,1:2:0:0:
470,252,29697,1,0,0:2:0:0:
470,252,29808,1,0,3:2:0:0:
327,128,30031,2,0,P|393:116|442:100,1,97.9200023906251,2|0,0:2|0:2,0:2:0:0:
277,73,30475,1,0,1:2:0:0:
359,231,30697,1,0,3:2:0:0:
434,29,30919,1,0,0:2:0:0:
200,215,31142,5,2,1:2:0:0:
173,205,31253,1,0,3:2:0:0:
163,173,31364,1,0,1:2:0:0:
178,144,31475,1,0,3:2:0:0:
224,133,31586,5,0,3:2:0:0:
259,159,31697,1,0,3:2:0:0:
259,220,31808,1,0,3:2:0:0:
192,253,31919,1,0,3:2:0:0:
126,210,32031,6,0,L|134:163,2,32.640000796875,0|0|0,3:2|3:2|3:2,3:2:0:0:
109,110,32253,2,0,L|101:63,2,32.640000796875,0|0|0,3:2|3:2|3:2,3:2:0:0:
150,20,32475,5,0,1:2:0:0:
8,96,32586,1,0,1:2:0:0:
204,163,32697,1,0,3:2:0:0:
204,163,32919,6,0,P|188:125|173:158,1,85.679997385254,0|0,1:0|0:0,0:0:0:0:
241,238,33364,6,0,P|282:152|199:-9,1,269.279999178223,8|0,1:0|0:0,0:0:0:0:
194,21,33808,6,0,P|232:72|237:96,1,55.7600008508301,0|0,1:0|0:0,0:0:0:0:
242,148,34031,2,0,P|239:175|229:201,1,55.7600008508301,2|0,0:0|0:0,0:0:0:0:
152,285,34253,6,0,P|130:295|104:298,4,27.880000425415,10|0|0|0|0,1:0|0:0|0:0|0:0|0:0,0:0:0:0:
164,220,34586,1,0,0:0:0:0:
254,340,34697,2,0,P|312:319|348:319,1,84.3199966547853,0|0,1:0|0:0,0:0:0:0:
405,267,35031,1,0,0:0:0:0:
329,234,35142,2,0,P|363:241|379:250,1,42.1599983273926,10|0,1:0|0:0,0:0:0:0:
280,174,35364,2,0,P|308:154|326:149,1,42.1599983273926,2|0,0:0|0:0,0:0:0:0:
243,249,35586,1,0,1:0:0:0:
204,265,35697,1,0,3:0:0:0:
164,256,35808,1,0,0:0:0:0:
135,226,35919,1,0,3:0:0:0:
129,185,36031,6,0,P|138:148|149:90,1,82.9599965821535,8|0,1:0|0:0,0:0:0:0:
420,122,36253,2,0,P|409:80|400:26,1,82.9599965821535,0|0,1:0|0:0,0:0:0:0:
247,19,36475,6,0,P|262:52|280:17,1,85.679997385254,0|0,1:0|0:0,0:0:0:0:
284,23,36919,5,8,1:0:0:0:
268,63,37030,1,0,3:0:0:0:
264,104,37141,1,0,0:0:0:0:
272,146,37252,1,0,3:0:0:0:
291,183,37364,6,0,L|329:174,1,28.559999128418,0|0,1:0|0:0,0:0:0:0:
267,263,37586,2,0,L|370:236,1,82.9599965821535,2|0,0:0|0:0,0:0:0:0:
137,124,37808,6,0,L|99:114,1,28.559999128418,8|0,1:0|0:0,0:0:0:0:
161,203,38031,2,0,L|58:176,1,82.9599965821535,2|0,0:0|0:0,0:0:0:0:
346,46,38253,5,0,1:0:0:0:
332,135,38364,2,0,L|324:66,1,69.3600004233398,2|0,0:0|0:0,0:0:0:0:
255,127,38586,1,0,1:0:0:0:
412,87,38697,1,8,1:0:0:0:
164,45,38919,5,2,1:0:0:0:
402,175,39142,5,0,1:0:0:0:
305,79,39253,2,0,L|286:243,1,138.72000084668,0|0,1:0|0:0,0:0:0:0:
262,310,39586,2,0,L|208:295,2,46.2400002822266,8|0|0,1:0|0:0|0:0,0:0:0:0:
198,225,39808,2,0,L|153:237,2,46.2400002822266
107,314,40031,6,0,P|75:317|104:297,1,85.679997385254,0|0,1:0|0:0,0:0:0:0:
23,371,40475,6,0,P|2:272|6:254,1,82.9599965821535,8|0,1:0|0:0,0:0:0:0:
183,296,40697,2,0,P|177:336|160:374,1,82.9599965821535
94,222,40919,5,0,1:0:0:0:
162,188,41031,2,0,P|94:183|29:161,1,111.52000170166,2|0,0:0|0:0,0:0:0:0:
232,152,41364,6,0,P|333:132|361:132,1,96.5599951378176,8|0,1:0|0:0,0:0:0:0:
167,83,41586,1,2,0:0:0:0:
169,52,41660,1,2,0:0:0:0:
171,34,41734,1,2,0:0:0:0:
171,34,41808,6,0,B|360:-15|273:167|518:134,1,330.48000806836,0|0,1:0|0:0,0:0:0:0:
486,114,42253,5,10,1:0:0:0:
355,156,42401,5,2,0:0:0:0:
235,102,42549,5,2,0:0:0:0:
131,193,42697,5,2,1:0:0:0:
122,192,42771,1,2,0:0:0:0:
112,185,42845,1,2,0:0:0:0:
109,169,42919,1,2,0:0:0:0:
126,153,42994,1,2,0:0:0:0:
155,160,43068,1,2,0:0:0:0:
160,194,43142,6,0,P|109:246|118:112,1,289.679985413453,8|0,1:0|0:0,0:0:0:0:
73,72,43586,6,0,P|-2:182|163:257,1,330.48000806836,0|0,1:0|0:0,0:0:0:0:
203,207,44031,5,8,1:0:0:0:
274,368,44253,2,0,P|289:289|299:263,1,69.3600004233398,0|0,3:0|0:0,0:0:0:0:
424,118,44475,1,0,1:0:0:0:
353,279,44697,2,0,P|338:200|328:174,1,69.3600004233398,0|0,3:0|0:0,0:0:0:0:
202,15,44919,1,8,1:0:0:0:
273,176,45141,2,0,P|288:97|298:71,1,69.3600004233398,0|0,3:0|0:0,0:0:0:0:
120,328,45364,5,0,1:2:0:0:
160,121,45586,1,8,0:2:0:0:
192,193,45697,2,0,L|97:172,1,76.1600009296875,8|0,0:2|0:2,0:2:0:0:
356,229,45919,6,0,L|430:245,1,76.1600009296875,8|0,0:2|0:2,0:2:0:0:
430,245,46142,1,8,0:2:0:0:
289,124,46253,5,8,0:3:0:0:
266,196,46364,1,0,0:3:0:0:
288,278,46475,1,4,0:3:0:0:
288,278,46549,1,4,0:3:0:0:
288,278,46623,1,4,0:3:0:0:
288,278,46697,1,8,0:2:0:0:
213,115,46919,5,8,0:2:0:0:
169,96,46993,1,0,1:2:0:0:
140,129,47067,1,0,1:2:0:0:
112,114,47141,5,6,1:2:0:0:
281,143,47475,1,2,0:2:0:0:
441,172,47808,1,2,0:2:0:0:
441,172,48919,5,2,0:2:0:0:
272,201,49253,1,2,0:2:0:0:
112,229,49586,2,0,B|266:205|186:329|371:311,1,282.879998273437,2|0,0:2|0:2,0:2:0:0:
113,99,50697,5,2,0:2:0:0:
157,320,51031,1,2,0:2:0:0:
379,201,51364,2,0,P|291:225|232:60,1,282.879998273437,2|0,0:2|0:2,0:2:0:0:
341,306,52475,5,2,0:2:0:0:
408,79,52808,1,2,0:2:0:0:
158,141,53142,1,2,0:2:0:0:
158,141,53586,6,0,P|208:87|281:108,1,141.439999136719,2|0,0:2|0:2,0:2:0:0:
150,234,54253,6,0,L|133:231,1,14.960000456543,2|0,0:2|0:2,0:2:0:0:
65,191,54475,2,0,L|79:193,1,14.960000456543,2|0,0:2|0:2,0:2:0:0:
361,261,54697,6,0,L|289:247,1,42.1599983273926,0|0,3:2|0:2,0:2:0:0:
248,207,54919,6,0,L|275:212,1,14.960000456543,2|0,0:2|0:2,0:2:0:0:
347,186,55142,2,0,L|332:183,1,14.960000456543,2|0,0:2|0:2,0:2:0:0:
150,234,55364,6,0,L|353:289,1,210.799991636963,0|0,3:2|0:2,0:2:0:0:
362,325,56031,6,0,L|379:322,1,14.960000456543,6|0,1:2|0:2,0:2:0:0:
447,282,56253,2,0,L|432:284,1,14.960000456543,2|0,0:2|0:2,0:2:0:0:
151,352,56475,6,0,L|223:338,1,42.1599983273926,0|0,3:2|0:2,0:2:0:0:
264,298,56697,6,0,L|237:303,1,14.960000456543,2|0,0:2|0:2,0:2:0:0:
165,277,56920,2,0,L|179:274,1,14.960000456543,2|0,0:2|0:2,0:2:0:0:
362,325,57142,6,0,L|158:380,1,210.799991636963,0|0,3:2|0:2,0:2:0:0:
85,331,57808,5,2,1:2:0:0:
71,261,57919,1,0,3:2:0:0:
56,187,58031,2,0,L|64:130,1,55.7600008508301,0|0,3:2|3:2,3:2:0:0:
148,271,58253,5,0,3:2:0:0:
162,201,58364,1,0,3:2:0:0:
177,127,58476,2,0,L|169:70,1,55.7600008508301,0|0,3:2|3:2,3:2:0:0:
273,228,58697,5,0,3:2:0:0:
259,158,58808,1,0,3:2:0:0:
244,84,58920,2,0,L|252:27,1,55.7600008508301,0|0,3:2|3:2,3:2:0:0:
332,182,59142,6,0,P|427:204|453:220,1,82.9599965821535,0|0,3:2|3:2,3:2:0:0:
200,210,59364,2,0,P|160:221|119:225,1,82.9599965821535,0|0,3:2|3:2,3:2:0:0:
273,228,59586,6,0,P|287:266|288:281,1,44.8800013696289,0|0,2:2|2:2,2:2:0:0:
304,315,60031,6,0,P|306:283|299:253,1,57.1200013945313,2|0,0:2|0:2,0:2:0:0:
326,158,60919,6,0,B|188:145|221:292|61:270,1,289.679985413453,14|0,0:2|0:2,0:2:0:0:
22,209,61364,6,0,P|36:140|45:107,1,82.9599965821535,6|0,1:2|0:2,0:2:0:0:
233,91,61586,5,2,0:2:0:0:
188,38,61697,1,0,1:2:0:0:
158,108,61808,2,0,P|167:148|175:189,1,82.9599965821535,10|0,0:2|0:2,0:2:0:0:
298,325,62031,5,2,0:2:0:0:
252,379,62142,1,0,0:2:0:0:
222,309,62253,2,0,P|231:268|239:227,1,82.9599965821535,2|0,0:2|0:2,0:2:0:0:
268,30,62475,6,0,P|280:127|305:217,1,144.839992706726,2|0,1:2|0:2,0:2:0:0:
290,172,62697,6,0,P|354:187|378:195,1,55.0800013447266,8|0,0:2|0:2,0:2:0:0:
202,143,62808,6,0,B|103:125|142:212|20:189,1,173.40000105835,2|0,1:2|0:2,0:2:0:0:
15,170,63142,6,0,P|32:113|35:66,1,82.9599965821535,2|0,1:2|0:2,0:2:0:0:
199,296,63364,2,0,P|182:239|179:192,1,82.9599965821535,2|0,0:2|1:2,0:2:0:0:
283,37,63586,6,0,P|343:56|360:175,1,165.919993164307,10|0,0:2|0:2,0:2:0:0:
311,200,63919,1,0,1:2:0:0:
448,149,64031,5,2,0:2:0:0:
363,250,64142,1,2,0:2:0:0:
492,209,64253,6,0,P|413:194|336:195,1,144.839992706726,2|0,1:2|0:2,0:2:0:0:
348,193,64475,6,0,P|361:136|368:116,1,55.0800013447266,10|0,0:2|0:2,0:2:0:0:
288,269,64586,6,0,P|222:303|170:216,1,173.40000105835,2|0,0:2|0:2,0:2:0:0:
146,165,64919,6,0,P|200:146|210:141,1,48.2799975689088,2|0,1:2|0:2,0:2:0:0:
348,50,65031,2,0,P|324:43|302:34,1,48.2799975689088,2|0,1:2|0:2,0:2:0:0:
288,269,65142,2,0,P|331:231|339:223,1,48.2799975689088,2|0,1:2|2:2,2:2:0:0:
435,89,65253,2,0,P|410:91|386:91,1,48.2799975689088,2|0,1:2|2:2,2:2:0:0:
165,237,65364,6,0,P|78:228|74:88,1,220.320005378906,10|0,0:2|0:2,0:2:0:0:
272,175,65697,6,0,P|278:246|218:328,1,165.919993164307,2|0,0:2|0:2,0:2:0:0:
348,50,66031,2,0,P|385:91|392:129,1,82.9599965821535,2|0,1:2|0:2,0:2:0:0:
146,165,66253,6,0,L|330:139,1,144.839992706726,10|0,0:2|0:2,0:2:0:0:
299,125,66475,2,0,L|155:145,1,144.839992706726,2|0,1:2|0:2,0:2:0:0:
64,159,66697,1,2,1:2:0:0:
51,147,66919,5,2,1:2:0:0:
38,221,66994,1,0,1:2:0:0:
58,291,67068,5,0,1:2:0:0:
51,325,67142,6,0,B|208:326|96:231|305:226,1,248.87998974646,10|0,0:2|0:2,0:2:0:0:
339,212,67586,6,0,P|244:201|216:190,1,96.5599951378176,2|0,1:2|0:2,0:2:0:0:
339,212,67808,1,0,1:2:0:0:
121,183,67919,6,0,P|168:172|216:171,1,96.5599951378176,10|0,0:2|0:2,0:2:0:0:
57,140,68142,1,8,0:2:0:0:
243,200,68253,1,2,1:2:0:0:
491,19,68475,6,0,P|477:105|487:132,1,76.1600009296875,2|0,1:2|0:2,0:2:0:0:
456,223,68697,2,0,P|454:185|439:150,1,76.1600009296875,2|0,3:2|0:2,0:2:0:0:
252,0,68919,2,0,P|302:70|329:82,1,76.1600009296875,10|0,0:2|0:2,0:2:0:0:
371,168,69142,2,0,P|342:142|307:127,1,76.1600009296875,2|0,3:2|0:2,0:2:0:0:
42,129,69364,6,0,P|127:143|154:133,1,76.1600009296875,2|0,1:2|0:2,0:2:0:0:
244,163,69586,2,0,P|206:164|171:179,1,76.1600009296875,2|0,3:2|0:2,0:2:0:0:
6,372,69808,2,0,P|76:321|88:294,1,76.1600009296875,10|0,0:2|0:2,0:2:0:0:
172,258,70031,1,2,3:2:0:0:
150,331,70142,1,0,3:2:0:0:
248,244,70253,6,0,P|339:206|364:206,1,89.7599997260742,2|0,1:2|0:2,0:2:0:0:
512,105,70475,2,0,P|474:129|431:141,1,89.7599997260742,2|0,3:2|0:2,0:2:0:0:
157,206,70697,6,0,P|254:218|276:231,1,89.7599997260742,10|0,0:2|0:2,0:2:0:0:
455,217,70919,2,0,P|410:219|366:208,1,89.7599997260742,2|0,3:2|0:2,0:2:0:0:
105,126,71142,6,0,P|183:185|195:207,1,89.7599997260742,2|0,1:2|0:2,0:2:0:0:
357,284,71364,2,0,P|317:263|284:232,1,89.7599997260742,2|0,3:2|0:2,0:2:0:0:
101,28,71586,6,0,P|138:118|138:143,1,89.7599997260742,10|0,0:2|0:2,0:2:0:0:
240,290,71808,1,2,3:2:0:0:
201,213,71919,1,0,3:0:0:0:
298,9,72031,6,0,P|249:106|301:193,1,193.119990275635,6|0,1:2|0:2,0:2:0:0:
412,294,72364,1,2,0:2:0:0:
432,160,72475,2,0,P|471:67|489:49,1,96.5599951378176,0|0,1:2|0:2,0:2:0:0:
286,343,72697,2,0,P|247:250|229:232,1,96.5599951378176,2|0,0:2|1:2,0:2:0:0:
57,117,72919,5,8,0:2:0:0:
16,188,73031,2,0,P|114:212|181:109,1,193.119990275635,2|0,0:2|0:2,0:2:0:0:
202,27,73364,5,2,1:2:0:0:
286,5,73475,1,2,0:2:0:0:
361,46,73586,1,2,0:2:0:0:
420,26,73697,1,2,0:2:0:0:
451,61,73808,6,0,L|383:46,2,42.1599983273926,6|0|0,1:2|3:2|3:2,3:2:0:0:
284,36,74142,2,0,L|242:45,2,42.1599983273926,2|0|0,3:2|3:2|3:2,3:2:0:0:
145,89,74475,2,0,L|77:74,1,42.1599983273926,2|0,3:2|3:2,3:2:0:0:
216,107,74697,1,10,0:2:0:0:
6,159,74808,2,0,L|120:141,1,84.3199966547853,2|0,3:2|1:2,0:2:0:0:
107,163,75086,1,0,1:2:0:0:
107,163,75142,6,0,L|97:210,1,32.640000796875,2|0,1:2|1:2,0:2:0:0:
229,243,75290,2,0,L|239:290,1,32.640000796875,0|0,1:2|1:2,0:2:0:0:
155,335,75438,1,0,1:2:0:0:
152,351,75512,1,0,1:2:0:0:
152,351,75586,6,0,P|137:236|146:189,1,110.160002689453,6|0,0:2|0:2,0:2:0:0:
67,301,75808,2,0,P|82:186|103:142,1,110.160002689453,2|0,0:2|0:2,0:2:0:0:
297,291,76031,2,0,P|312:176|303:129,1,110.160002689453,10|0,0:2|0:2,0:2:0:0:
382,241,76253,2,0,P|366:126|345:82,1,110.160002689453,2|0,0:2|0:2,0:2:0:0:
143,131,76475,5,2,1:2:0:0:
206,78,76586,2,0,P|88:55|54:62,1,110.160002689453,0|2,3:2|0:2,0:2:0:0:
277,210,76808,1,2,3:2:0:0:
321,133,76919,2,0,P|266:137|214:157,1,110.160002689453,8|0,0:2|0:2,0:2:0:0:
314,58,77142,1,2,1:2:0:0:
384,89,77253,1,2,0:2:0:0:
391,165,77364,6,0,P|371:282|358:313,1,110.160002689453,2|0,1:2|0:2,0:2:0:0:
465,231,77586,2,0,P|415:338|394:365,1,110.160002689453,2|0,0:2|0:2,0:2:0:0:
189,140,77808,2,0,P|209:257|222:288,1,110.160002689453,10|0,0:2|0:2,0:2:0:0:
115,206,78030,2,0,P|164:313|185:340,1,110.160002689453,2|0,0:2|0:2,0:2:0:0:
332,108,78253,5,2,1:2:0:0:
276,156,78364,1,0,3:2:0:0:
350,124,78475,1,2,1:2:0:0:
262,137,78586,1,2,3:2:0:0:
406,171,78697,6,0,P|531:141|547:140,1,110.160002689453,8|0,0:2|0:2,0:2:0:0:
196,105,78919,2,0,P|143:87|89:76,1,110.160002689453,2|0,1:2|0:2,0:2:0:0:
331,74,79142,6,0,P|338:52|343:28,5,46.2400002822266,2|0|0|0|0|0,3:2|3:2|3:2|3:2|3:2|3:2,3:2:0:0:
301,148,79586,5,2,3:2:0:0:
315,218,79697,1,0,3:2:0:0:
331,284,79808,1,2,3:2:0:0:
374,137,79919,5,0,3:2:0:0:
317,367,80031,2,0,P|178:314|168:312,2,128.746660183757,12|2|2,0:2|0:2|0:2,0:2:0:0:
229,245,80475,6,0,P|143:269|124:285,1,64.3733300918784,2|0,0:2|0:2,0:2:0:0:
130,183,80623,2,0,P|86:260|84:292,1,68.9066658255208,2|0,0:2|0:2,0:2:0:0:
17,217,80771,2,0,P|41:302|68:335,1,73.4400017929688,2|0,0:2|0:2,0:2:0:0:
214,164,80919,6,0,P|127:77|35:100,1,193.119990275635,4|0,1:2|0:2,0:2:0:0:
11,142,81253,1,0,1:2:0:0:
325,4,81364,6,0,P|195:24|144:88,1,193.119990275635,8|0,0:2|1:2,0:2:0:0:
120,161,81697,1,0,1:2:0:0:
232,85,81808,5,2,1:2:0:0:
250,89,81919,1,0,3:2:0:0:
268,97,82030,1,0,3:2:0:0:
337,155,82142,5,2,3:2:0:0:
408,93,82253,1,8,3:2:0:0:
476,145,82364,5,0,3:2:0:0:
494,141,82475,1,2,3:2:0:0:
512,133,82586,1,0,3:2:0:0:
456,40,82697,6,0,B|448:129|448:129|442:124|442:124|430:258,1,165.919993164307,6|0,1:2|0:2,0:2:0:0:
418,310,83031,1,0,1:2:0:0:
317,122,83142,1,8,0:2:0:0:
328,105,83364,6,0,L|344:201,1,84.3199966547853,0|0,0:2|0:2,0:2:0:0:
367,40,83697,1,8,0:2:0:0:
314,255,83808,1,2,1:2:0:0:
314,255,84031,6,0,L|207:231,1,82.9599965821535,10|0,0:2|0:2,0:2:0:0:
97,211,84253,2,0,L|177:192,1,82.9599965821535,2|0,0:2|0:2,0:2:0:0:
20,232,84475,5,8,0:2:0:0:
256,173,84586,1,0,1:2:0:0:
94,96,86253,6,0,B|42:61|159:2|226:143,1,193.119990275635,6|0,1:2|0:2,0:2:0:0:
230,193,86586,1,2,1:2:0:0:
282,17,86697,2,0,P|294:66|292:130,1,96.5599951378176,8|0,0:2|0:2,0:2:0:0:
211,302,86919,6,0,P|268:203|359:226,1,193.119990275635,2|0,0:2|0:2,0:2:0:0:
386,262,87253,1,10,0:2:0:0:
156,201,87364,1,0,1:2:0:0:
149,220,87586,6,0,B|117:242|117:242|70:232,1,69.3600004233398,10|0,0:2|0:2,0:2:0:0:
49,36,87808,2,0,B|81:14|81:14|110:20,1,69.3600004233398,2|0,1:2|0:2,0:2:0:0:
