osu file format v14

[General]
AudioFilename: audio.mp3
AudioLeadIn: 0
PreviewTime: 59919
Countdown: 0
SampleSet: Soft
StackLeniency: 0.7
Mode: 0
LetterboxInBreaks: 0
WidescreenStoryboard: 0

[Editor]
DistanceSpacing: 1.1
BeatDivisor: 8
GridSize: 32
TimelineZoom: 1.7

[Metadata]
Title:Gurenge feat. Un3h [ dj-Jo Remix ] TV Size
TitleUnicode:紅蓮華 feat. Un3h [ dj-Jo Remix ] TV Size
Artist:LiSA
ArtistUnicode:LiSA
Creator:Sajinn
Version:Destiny
Source:鬼滅の刃
Tags:demon slayer kimetsu no yaiba kny 通常盤 anime japanese op opening edit tech dnb drum n bass toybot vikala asukow kujinn reform xahlt kuon- female vocalist vocals electronic
BeatmapID:3319095
BeatmapSetID:1625682

[Difficulty]
HPDrainRate:5.4
CircleSize:4.2
OverallDifficulty:8.7
ApproachRate:9.4
SliderMultiplier:2.62
SliderTickRate:1

[Events]
//Background and Video events
0,0,"1069971.jpg",0,0
//Break Periods
2,49119,53713
//Storyboard Layer 0 (Background)
//Storyboard Layer 1 (Fail)
//Storyboard Layer 2 (Pass)
//Storyboard Layer 3 (Foreground)
//Storyboard Layer 4 (Overlay)
//Storyboard Sound Samples

[TimingPoints]
920,444.444444444444,4,2,1,32,1,0
920,-161.290322580645,4,2,1,32,0,0
1586,-238.095238095238,4,2,1,32,0,0
2697,-161.290322580645,4,2,1,32,0,0
3364,-238.095238095238,4,2,1,32,0,0
4475,-161.290322580645,4,2,1,32,0,0
5142,-238.095238095238,4,2,1,32,0,0
6031,-238.095238095238,4,2,1,32,0,0
8475,-833.333333333333,4,2,1,32,0,0
8919,-454.545454545455,4,2,1,32,0,0
9364,-312.5,4,2,1,32,0,0
11586,-58.1395348837209,4,2,1,72,0,0
12031,-161.290322580645,4,2,1,72,0,0
12253,-65.7894736842105,4,2,1,72,0,0
12586,-49.5049504950495,4,2,1,72,0,0
12697,-138.888888888889,4,2,1,72,0,0
13808,-49.5049504950495,4,2,1,72,0,0
15142,-58.1395348837209,4,2,1,72,0,0
15586,-192.307692307692,4,2,1,72,0,0
15808,-75.7575757575758,4,2,1,72,0,0
16253,-61.7283950617284,4,2,1,72,0,0
16475,-138.888888888889,4,2,1,72,0,0
16697,-138.888888888889,4,2,1,72,0,0
17364,-49.5049504950495,4,2,1,72,0,0
18253,-75.7575757575758,4,2,1,72,0,0
18697,-121.951219512195,4,2,1,72,0,0
19142,-238.095238095238,4,2,1,52,0,0
20475,-121.951219512195,4,2,1,52,0,0
22142,-121.951219512195,4,2,1,52,0,0
22697,-238.095238095238,4,2,1,52,0,0
24919,-98.0392156862745,4,2,1,52,0,0
25586,-192.307692307692,4,2,1,52,0,0
25808,-81.967213114754,4,2,1,62,0,0
27142,-192.307692307692,4,2,1,62,0,0
27586,-81.967213114754,4,2,1,62,0,0
28031,-192.307692307692,4,2,1,62,0,0
29364,-98.0392156862744,4,2,1,62,0,0
32919,-312.5,4,2,1,62,0,0
33364,-98.0392156862745,4,2,1,62,0,0
33808,-312.5,4,2,1,62,0,0
34253,-138.888888888889,4,2,1,62,0,0
36475,-238.095238095239,4,2,1,62,0,0
37031,-108.695652173913,4,2,1,62,0,0
39586,-70.4225352112676,4,2,1,62,0,0
39808,-192.307692307692,4,2,1,62,0,0
40031,-454.545454545455,4,2,1,62,0,0
40475,-70.4225352112676,4,2,1,62,0,0
40919,-138.888888888889,4,2,1,62,0,0
41364,-65.7894736842105,4,2,1,62,0,0
42253,-121.951219512195,4,2,1,62,0,0
43142,-54.9450549450549,4,2,1,62,0,0
44142,-312.5,4,2,1,62,0,0
44475,-54.9450549450549,4,2,1,62,0,0
44586,-312.5,4,2,1,62,0,0
44919,-54.9450549450549,4,2,1,62,0,0
45031,-312.5,4,2,1,62,0,0
46697,-65.7894736842105,4,2,1,62,0,0
47142,-344.827586206897,4,2,4,62,0,0
47253,-344.827586206897,4,2,1,62,0,0
48919,-344.827586206897,4,2,1,72,0,0
54253,-61.7283950617284,4,2,1,72,0,0
54475,-192.307692307692,4,2,1,72,0,0
55364,-208.333333333333,4,2,1,72,0,0
56031,-61.7283950617284,4,2,1,72,0,0
56253,-192.307692307692,4,2,1,72,0,0
57142,-208.333333333333,4,2,1,72,0,0
59586,-208.333333333333,4,2,1,52,0,0
60919,-192.307692307692,4,2,1,82,0,0
61364,-49.5049504950495,4,2,1,82,0,0
62031,-75.7575757575758,4,2,1,82,0,0
62142,-75.7575757575758,4,2,1,82,0,0
62253,-58.1395348837209,4,2,1,82,0,0
62808,-192.307692307692,4,2,1,82,0,0
63142,-49.5049504950495,4,2,1,82,0,0
64586,-81.9672131147541,4,2,1,82,0,0
64919,-138.888888888889,4,2,1,82,0,0
65364,-54.9450549450549,4,2,1,82,0,0
65808,-65.7894736842105,4,2,1,82,0,0
66031,-192.307692307692,4,2,1,82,0,0
66253,-58.1395348837209,4,2,1,82,0,0
66475,-192.307692307692,4,2,1,82,0,0
66697,-58.1395348837209,4,2,1,82,0,0
66919,-138.888888888889,4,2,1,82,0,0
67919,-54.9450549450549,4,2,1,82,0,0
68253,-161.290322580645,4,2,1,82,0,0
68475,-58.1395348837209,4,2,1,82,0,0
69142,-138.888888888889,4,2,1,82,0,0
69808,-75.7575757575758,4,2,1,82,0,0
70253,-61.7283950617284,4,2,1,82,0,0
70475,-121.951219512195,4,2,1,82,0,0
70697,-61.7283950617284,4,2,1,82,0,0
70919,-121.951219512195,4,2,1,82,0,0
71142,-61.7283950617284,4,2,1,82,0,0
71364,-121.951219512195,4,2,1,82,0,0
71586,-61.7283950617284,4,2,1,82,0,0
72031,-49.5049504950495,4,2,1,82,0,0
72475,-54.9450549450549,4,2,1,82,0,0
73364,-89.2857142857143,4,2,1,82,0,0
75586,-54.9450549450549,4,2,1,82,0,0
76253,-121.951219512195,4,2,1,82,0,0
76475,-54.9450549450549,4,2,1,82,0,0
76586,-312.5,4,2,1,82,0,0
76919,-54.9450549450549,4,2,1,82,0,0
77586,-192.307692307692,4,2,1,82,0,0
78697,-54.9450549450549,4,2,1,82,0,0
78919,-192.307692307692,4,2,1,82,0,0
80031,-54.9450549450549,4,2,1,82,0,0
80327,-81.9672131147541,4,2,1,82,0,0
80919,-54.9450549450549,4,2,1,82,0,0
83364,-75.7575757575758,4,2,1,82,0,0
83697,-54.9450549450549,4,2,1,82,0,0
83752,-54.9450549450549,4,2,1,82,0,0
83808,-238.095238095238,4,2,1,82,0,0
84031,-54.9450549450549,4,2,1,82,0,0
84253,-138.888888888889,4,2,1,82,0,0
84475,-54.9450549450549,4,2,1,82,0,0
86253,-58.1395348837209,4,2,1,82,0,0
86697,-161.290322580645,4,2,1,82,0,0
86919,-65.7894736842105,4,2,1,82,0,0
87253,-49.5049504950495,4,2,1,82,0,0
87364,-138.888888888889,4,2,1,82,0,0
87586,-45.0450450450451,4,2,1,82,0,0
87808,-61.7283950617284,4,2,1,82,0,0

[Colours]
Combo1 : 64,0,128
Combo2 : 192,192,192
Combo3 : 128,128,192
Combo4 : 128,128,128
Combo5 : 128,0,255
Combo6 : 255,128,255

[HitObjects]
151,279,920,6,0,P|196:255|181:191,1,121.829995166657,2|2,2:0|2:0,2:0:0:0:
103,167,1586,2,0,B|157:191|192:153|158:136|207:91|256:122,1,165.059994962769,2|0,2:0|2:0,2:0:0:0:
429,335,2697,6,0,B|382:304|382:304|401:272|418:241,1,121.829995166657,2|2,2:0|2:0,2:0:0:0:
481,196,3364,2,0,B|440:229|381:213|381:213|412:201|427:161,1,165.059994962769,2|0,2:0|2:0,2:0:0:0:
339,132,4253,1,0,2:0:0:0:
223,168,4475,6,0,P|281:149|339:132,1,121.829995166657,2|2,2:0|2:0,2:0:0:0:
211,160,5142,2,0,B|161:152|138:193|138:193|141:248|78:262,1,165.059994962769,2|0,2:0|2:0,2:0:0:0:
35,222,6031,1,0,2:0:0:0:
149,319,6253,6,0,P|180:328|241:344,2,82.5299974813844,2|2|2,2:0|2:0|2:0,2:0:0:0:
228,340,7364,5,2,2:0:0:0:
293,316,7586,1,2,2:0:0:0:
362,343,7808,1,2,2:0:0:0:
444,307,8031,1,2,2:0:0:0:
454,299,8475,6,0,L|452:283,1,15.7200003837891,0|0,2:0|2:0,2:0:0:0:
460,293,8919,6,0,L|455:255,1,28.8200008795166,0|0,2:0|2:0,2:0:0:0:
466,286,9364,6,0,L|459:238,1,41.92,0|0,2:0|2:0,2:0:0:0:
401,190,9808,5,2,2:0:0:0:
378,179,10031,5,0,2:0:0:0:
317,218,10253,5,0,2:0:0:0:
229,174,10475,5,2,2:0:0:0:
211,160,10919,6,0,P|171:156|143:194,1,83.84,0|0,2:0|2:0,2:0:0:0:
185,259,11586,6,0,B|121:193|43:188|-23:265|62:343|119:288,1,281.650004297638,6|0,1:2|2:0,2:0:0:0:
196,253,11919,2,0,B|225:238|225:238|205:274,1,56.3300008595276,2|0,1:2|2:0,2:0:0:0:
189,339,12031,6,0,P|212:347|251:330,1,60.9149975833283,8|0,2:0|2:0,2:0:0:0:
308,294,12253,6,0,B|280:240|320:190|345:221|401:171|355:103,1,199.119997569336,2|0,2:0|2:0,2:0:0:0:
252,68,12586,2,0,L|173:52,1,66.1549986877213,10|0,2:0|2:0,2:0:0:0:
185,41,12697,6,0,L|255:53,1,70.7400017270508,0|0,1:2|2:0,2:0:0:0:
330,16,12919,6,0,L|339:43,1,23.5800005756836,10|0,2:0|2:0,2:0:0:0:
344,22,13031,2,0,L|353:49,1,23.5800005756836,2|0,2:0|2:0,2:0:0:0:
431,45,13142,6,0,L|422:72,1,23.5800005756836,2|0,2:0|2:0,2:0:0:0:
441,57,13254,2,0,L|432:84,1,23.5800005756836,10|0,2:0|2:0,2:0:0:0:
365,123,13364,5,6,1:2:0:0:
403,191,13475,1,8,1:2:0:0:
380,265,13586,5,0,1:2:0:0:
372,270,13660,5,8,2:0:0:0:
377,277,13734,5,0,1:2:0:0:
369,285,13808,6,0,P|354:203|333:110,1,132.309997375443,8|0,2:0|2:0,2:0:0:0:
212,159,14031,2,0,B|199:141|159:137|159:137|155:131|155:131|229:106|273:162|233:176|289:224|351:178,1,264.619994750885,2|0,2:0|2:0,2:0:0:0:
470,157,14364,5,10,2:0:0:0:
512,217,14475,1,0,1:2:0:0:
476,275,14586,1,0,1:2:0:0:
364,340,14697,5,10,2:0:0:0:
353,336,14771,5,2,2:0:0:0:
337,326,14845,5,2,2:0:0:0:
338,298,14919,5,2,2:0:0:0:
369,285,14994,5,2,2:0:0:0:
394,316,15068,5,2,2:0:0:0:
364,340,15142,6,0,P|285:322|71:268,1,281.650004297638,6|0,1:2|2:0,2:0:0:0:
35,374,15475,2,0,P|66:364|98:348,1,56.3300008595276,2|0,1:2|2:0,2:0:0:0:
40,203,15586,6,0,P|31:188|35:206,1,51.0899996881714,8|0,2:0|2:0,2:0:0:0:
124,197,15808,6,0,B|186:203|208:153|178:139|206:93|271:102,1,172.91999947229,2|0,2:0|2:0,2:0:0:0:
340,19,16086,2,0,B|357:24|357:24|358:27|358:27|379:34,1,43.2299998680725,0|10,2:0|2:0,2:0:0:0:
440,94,16253,6,0,B|365:64|365:64|347:106|316:152,1,159.165003885864,0|0,1:2|2:0,2:0:0:0:
381,199,16475,6,0,P|401:194|408:192,1,23.5800005756836,10|0,2:0|2:0,2:0:0:0:
398,205,16586,2,0,P|418:200|425:198,1,23.5800005756836,2|0,2:0|2:0,2:0:0:0:
304,259,16697,6,0,P|324:264|331:266,1,23.5800005756836,2|0,2:0|2:0,2:0:0:0:
295,268,16808,2,0,P|315:273|322:275,1,23.5800005756836,10|0,2:0|2:0,2:0:0:0:
386,336,16919,5,2,1:2:0:0:
481,282,17031,1,8,2:0:0:0:
474,362,17142,5,0,1:2:0:0:
479,368,17216,5,0,1:2:0:0:
475,374,17290,5,0,1:2:0:0:
479,380,17364,6,0,B|418:368|418:368|414:371|414:371|315:351,1,132.309997375443,8|0,2:0|2:0,2:0:0:0:
216,277,17586,2,0,B|139:293|164:389|243:399|317:331|290:244,1,264.619994750885,2|0,2:0|2:0,2:0:0:0:
236,117,17919,5,10,2:0:0:0:
162,137,18031,1,0,1:2:0:0:
93,102,18142,1,0,1:2:0:0:
64,189,18253,6,0,P|86:183|117:170,10,28.8199999120483,10|0|0|0|0|0|0|0|0|0|0,2:0|2:0|2:0|2:0|2:0|2:0|2:0|2:0|2:0|2:0|2:0,2:0:0:0:
217,198,18697,6,0,B|162:137|162:137|196:104|228:69,1,161.130002458649,6|0,1:2|2:0,2:0:0:0:
231,73,19142,2,0,P|281:88|345:104,1,110.039996641846,0|0,3:2|2:0,2:0:0:0:
468,167,19808,5,0,1:2:0:0:
406,213,20031,1,0,3:2:0:0:
441,101,20364,5,2,3:2:0:0:
454,114,20475,2,0,P|461:145|474:185,1,53.7100008195496,2|0,1:2|2:0,2:0:0:0:
406,213,20697,2,0,P|396:250|386:284,1,53.7100008195496,0|0,3:2|2:0,2:0:0:0:
476,367,20919,2,0,P|426:383|388:348,1,107.420001639099,0|0,3:2|2:0,2:0:0:0:
380,342,21253,1,0,3:2:0:0:
299,321,21364,5,0,3:2:0:0:
286,315,21475,1,0,3:2:0:0:
219,348,21586,5,0,1:2:0:0:
194,358,21697,1,0,1:2:0:0:
121,306,21808,6,0,L|95:296,3,17.9033336065165,0|0|0|2,3:2|2:0|2:0|2:0,2:0:0:0:
37,337,22031,1,0,3:2:0:0:
133,301,22142,1,0,3:2:0:0:
57,218,22253,5,2,1:2:0:0:
91,157,22475,1,0,1:2:0:0:
4,134,22697,2,0,P|57:120|110:106,1,110.039996641846,0|0,3:2|2:0,2:0:0:0:
219,136,23364,5,0,1:2:0:0:
205,217,23586,2,0,B|176:171|176:171|224:131,1,110.039996641846,0|2,3:2|1:2,2:0:0:0:
306,78,24253,5,0,1:2:0:0:
364,118,24475,1,0,3:2:0:0:
512,69,24697,5,0,2:0:0:0:
481,137,24808,1,0,2:0:0:0:
364,118,24919,6,0,B|424:88|481:140|481:140|432:138|406:186,1,200.430001223328,0|0,3:2|2:0,2:0:0:0:
374,269,25364,5,0,1:2:0:0:
317,223,25475,1,2,2:0:0:0:
255,260,25586,2,0,P|229:269|208:278,1,51.0899996881714,0|0,3:2|2:0,2:0:0:0:
52,263,25808,6,0,B|100:249|127:287|127:287|130:338|181:351,1,159.819993415619,6|0,1:2|3:2,2:0:0:0:
266,350,26142,1,0,3:2:0:0:
276,337,26253,2,0,L|252:249,1,79.9099967078096,0|0,3:2|2:0,2:0:0:0:
162,211,26475,2,0,B|142:193|112:186|112:186|161:145|224:167,1,159.819993415619,2|0,2:0|2:0,2:0:0:0:
403,41,26919,5,0,1:2:0:0:
469,58,27142,2,0,L|403:40,1,68.1199995842285,0|2,3:2|2:0,2:0:0:0:
326,79,27475,1,0,3:2:0:0:
313,88,27586,2,0,P|283:122|297:162,1,79.9099967078096,2|0,1:2|2:0,2:0:0:0:
370,222,27808,5,0,3:2:0:0:
378,217,27882,5,0,3:2:0:0:
380,223,27957,5,0,3:2:0:0:
386,223,28031,6,0,L|447:206,1,51.0899996881714,0|0,3:2|2:0,2:0:0:0:
449,209,28253,5,0,2:0:0:0:
457,223,28364,1,0,3:2:0:0:
438,294,28475,5,0,2:0:0:0:
431,314,28586,1,0,3:2:0:0:
499,361,28697,5,0,1:2:0:0:
508,384,28808,1,0,2:0:0:0:
431,314,28919,5,0,3:2:0:0:
364,287,29031,1,0,3:2:0:0:
297,307,29142,1,0,1:2:0:0:
267,371,29253,1,0,3:2:0:0:
257,361,29364,6,0,P|194:376|141:329,1,133.620000815552,2|2,1:2|3:2,2:0:0:0:
213,263,29697,1,0,2:0:0:0:
222,250,29808,2,0,L|198:161,1,66.8100004077759,0|2,3:2|3:2,2:0:0:0:
118,94,30031,5,2,2:0:0:0:
106,87,30253,1,0,3:2:0:0:
181,49,30475,1,0,1:2:0:0:
254,78,30697,1,0,3:2:0:0:
268,84,30919,1,0,2:0:0:0:
468,63,31142,5,2,1:3:0:0:
462,46,31253,1,2,3:2:0:0:
444,50,31364,1,2,1:3:0:0:
450,70,31475,1,2,3:0:0:0:
471,98,31586,5,2,3:0:0:0:
487,53,31697,1,2,3:0:0:0:
449,28,31808,1,2,3:0:0:0:
424,76,31919,1,2,3:0:0:0:
480,110,32031,5,2,3:0:0:0:
486,117,32105,1,2,3:0:0:0:
491,129,32179,1,2,3:0:0:0:
491,142,32253,1,2,3:0:0:0:
488,156,32327,1,2,3:0:0:0:
481,169,32401,1,2,3:0:0:0:
471,180,32475,5,2,1:3:0:0:
448,198,32549,1,2,2:3:0:0:
435,228,32623,1,2,2:3:0:0:
438,258,32697,1,2,3:0:0:0:
452,292,32771,1,0,3:2:0:0:
486,310,32845,1,2,2:3:0:0:
482,319,32919,6,0,B|450:328|450:328|453:332|453:332|411:345,1,73.36,0|0,1:0|2:0,2:0:0:0:
300,319,33364,6,0,B|267:354|306:395|386:400|407:279|325:254,1,233.835001427216,4|0,1:3|2:0,2:0:0:0:
243,245,33808,6,0,P|226:244|238:255,1,41.92,0|2,1:0|2:0,2:0:0:0:
287,178,34142,5,0,2:0:0:0:
278,163,34253,2,0,P|264:160|251:153,4,23.5800005756836,8|0|0|0|0,1:0|2:0|2:0|2:0|2:0,2:0:0:0:
383,43,34586,5,0,2:0:0:0:
397,35,34697,2,0,B|446:17|446:17|406:109,1,141.480003454102,2|0,1:2|2:0,2:0:0:0:
334,109,35142,5,8,1:0:0:0:
271,80,35253,5,0,2:0:0:0:
204,123,35364,5,2,2:0:0:0:
122,98,35475,5,0,2:0:0:0:
261,70,35586,5,0,1:0:0:0:
200,110,35697,1,0,3:0:0:0:
127,83,35808,1,0,2:0:0:0:
188,28,35919,1,0,3:0:0:0:
195,18,36031,6,0,L|203:-11,3,23.5800005756836,2|0|0|2,1:2|2:0|2:0|2:0,2:0:0:0:
271,56,36253,2,0,L|277:33,3,23.5800005756836,0|0|0|0,1:0|2:0|2:0|2:0,2:0:0:0:
334,109,36475,6,0,B|381:101|381:101|382:104|382:104|428:95,1,96.2849970616151,0|0,1:0|2:0,2:0:0:0:
484,153,36919,1,8,1:0:0:0:
478,162,37031,6,0,L|469:209,1,30.1299989885559,0|0,3:0|2:0,2:0:0:0:
346,313,37253,6,0,L|355:360,1,30.1299989885559,0|0,3:0|2:0,2:0:0:0:
349,298,37364,6,0,P|380:269|436:284,1,90.3899969656678,0|0,1:0|2:0,2:0:0:0:
492,327,37586,2,0,B|497:310|497:310|508:326,3,30.1299989885559,2|0|0|0,2:0|2:0|2:0|2:0,2:0:0:0:
424,274,37808,6,0,P|381:268|349:298,1,90.3899969656678,8|0,1:0|2:0,2:0:0:0:
273,347,38031,2,0,B|268:330|268:330|257:346,3,30.1299989885559,2|0|0|0,2:0|2:0|2:0|2:0,2:0:0:0:
187,278,38253,5,0,1:0:0:0:
176,282,38364,1,2,2:0:0:0:
162,273,38475,1,0,2:0:0:0:
97,330,38586,5,0,1:0:0:0:
55,271,38697,5,8,1:0:0:0:
49,259,38808,1,0,2:0:0:0:
110,207,38919,5,0,1:0:0:0:
118,186,39031,1,0,2:0:0:0:
51,115,39142,5,0,1:0:0:0:
21,55,39253,1,0,1:0:0:0:
84,25,39364,1,0,2:0:0:0:
114,85,39475,1,2,3:2:0:0:
124,93,39586,6,0,B|86:23|86:23|150:32,1,139.514992974862,8|0,1:0|2:0,2:0:0:0:
198,83,39808,6,0,P|214:78|230:73,1,34.0599997921143,2|0,2:0|2:0,2:0:0:0:
434,135,40031,6,0,P|439:128|435:141,1,50.4350015391541,0|0,1:0|2:0,2:0:0:0:
419,138,40475,6,0,B|349:108|349:108|385:137|370:195,1,139.514992974862,2|2,1:2|3:2,2:0:0:0:
223,195,40697,2,0,B|293:165|293:165|272:252,1,139.514992974862,0|0,2:0|2:0,2:0:0:0:
348,283,40919,6,0,P|360:278|370:273,1,23.5800005756836,0|0,1:0|3:2,2:0:0:0:
337,278,41031,2,0,B|379:259|379:259|382:252|382:252|428:233,1,94.3200023027344,2|0,2:0|2:0,2:0:0:0:
512,381,41364,6,0,B|541:349|518:307|518:307|524:353|477:383,1,149.339998177002,8|0,1:0|2:0,2:0:0:0:
418,355,41586,5,2,2:0:0:0:
408,351,41660,5,2,2:0:0:0:
397,356,41734,5,2,2:0:0:0:
387,358,41808,6,0,B|360:390|312:370|312:370|107:255,1,298.679996354004,0|0,1:0|2:0,2:0:0:0:
39,334,42253,6,0,P|20:354|-6:362,1,35.8066672130331,8|0,1:0|2:0,2:0:0:0:
39,334,42401,6,0,P|69:344|86:366,1,35.8066672130331,2|0,2:0|2:0,2:0:0:0:
39,334,42549,6,0,P|32:310|39:281,1,35.8066672130331,2|0,2:0|2:0,2:0:0:0:
110,255,42697,5,2,1:2:0:0:
117,244,42771,5,2,2:0:0:0:
107,233,42845,5,2,2:0:0:0:
119,211,42919,5,2,2:0:0:0:
101,184,42994,5,2,3:2:0:0:
122,151,43068,5,2,2:0:0:0:
89,104,43142,6,0,B|1:119|13:-29|163:-15|221:79|148:114|215:178|314:122,1,357.630012005402,8|0,1:0|2:0,2:0:0:0:
417,247,43586,2,0,B|510:308|394:446|269:298|360:196|426:170,1,357.630012005402,0|0,1:0|2:0,2:0:0:0:
512,58,44031,6,0,P|479:47|436:34,1,59.6050020009003,8|0,1:0|2:0,2:0:0:0:
383,99,44142,2,0,P|379:82|390:96,1,41.92,0|0,2:0|2:0,2:0:0:0:
256,60,44475,6,0,P|288:50|332:36,1,59.6050020009003,0|0,1:0|2:0,2:0:0:0:
383,99,44586,2,0,P|386:82|376:96,1,41.92,0|0,2:0|2:0,2:0:0:0:
512,58,44919,6,0,P|479:47|436:34,1,59.6050020009003,8|0,1:0|2:0,2:0:0:0:
383,99,45031,2,0,P|379:82|390:96,1,41.92,0|0,2:0|2:0,2:0:0:0:
182,19,45364,5,4,1:2:0:0:
417,247,45586,5,2,2:0:0:0:
290,202,45697,1,8,2:0:0:0:
22,343,45919,5,8,2:0:0:0:
225,264,46142,1,8,2:0:0:0:
167,218,46253,5,8,2:3:0:0:
227,274,46364,1,8,2:3:0:0:
284,211,46475,5,8,2:3:0:0:
290,202,46549,5,8,2:3:0:0:
283,193,46623,5,8,2:3:0:0:
285,185,46697,6,0,B|308:108|308:108|245:143,1,149.339998177002,8|0,2:0|2:0,2:0:0:0:
190,190,46919,5,8,2:3:0:0:
167,218,46994,5,8,1:3:0:0:
126,231,47068,5,8,2:3:0:0:
77,204,47142,6,0,B|28:168|34:71|107:48|107:48|61:101|80:150,1,303.920009274903,6|2,1:2|2:0,2:0:0:0:
68,47,54253,6,0,B|161:76|161:76|115:87|96:145,1,159.165003885864,6|0,1:2|2:0,2:0:0:0:
112,192,54475,6,0,L|75:202,1,34.0599997921143,2|0,2:0|2:0,2:0:0:0:
215,158,54697,2,0,L|182:149,1,34.0599997921143,0|0,3:2|2:0,2:0:0:0:
112,192,54919,6,0,L|75:202,1,34.0599997921143,2|0,2:0|2:0,2:0:0:0:
215,158,55142,2,0,L|182:149,1,34.0599997921143,2|0,2:0|2:0,2:0:0:0:
68,47,55364,6,0,B|100:56|100:56|99:60|99:60|135:70,1,62.8800015351563,0|0,3:2|2:0,2:0:0:0:
367,189,56031,6,0,B|375:168|403:156|403:156|273:193,1,159.165003885864,6|0,1:2|2:0,2:0:0:0:
233,236,56253,6,0,L|224:268,1,34.0599997921143,2|0,2:0|2:0,2:0:0:0:
284,326,56475,2,0,L|292:358,1,34.0599997921143,0|0,3:2|2:0,2:0:0:0:
233,236,56697,6,0,L|228:260,3,17.0299998960571,2|0|0|0,2:0|2:0|2:0|2:0,2:0:0:0:
284,326,56919,2,0,L|292:358,1,34.0599997921143,2|0,2:0|2:0,2:0:0:0:
298,185,57142,6,0,B|322:178|322:178|321:174|321:174|353:165,1,62.8800015351563,0|0,3:2|2:0,2:0:0:0:
492,49,57808,5,2,1:3:0:0:
482,43,57919,1,2,3:0:0:0:
455,59,58031,1,2,3:0:0:0:
421,35,58142,1,2,3:0:0:0:
358,80,58253,1,2,3:0:0:0:
282,33,58364,1,2,3:0:0:0:
364,92,58475,5,2,3:0:0:0:
368,100,58586,1,2,3:0:0:0:
326,166,58697,5,2,3:0:0:0:
318,183,58808,1,2,2:3:0:0:
391,237,58919,5,2,3:0:0:0:
403,272,59031,1,2,3:0:0:0:
330,328,59142,5,2,3:0:0:0:
264,363,59253,1,2,3:0:0:0:
186,332,59364,5,2,3:0:0:0:
122,359,59475,1,2,3:0:0:0:
75,342,59586,5,0,3:2:0:0:
54,349,59697,1,0,2:1:0:0:
40,344,59808,1,0,2:1:0:0:
27,347,59919,1,0,2:1:0:0:
15,343,60031,1,2,2:0:0:0:
140,44,60919,6,0,B|102:84|102:84|135:104|153:142,1,119.2099992724,10|0,2:0|2:0,2:0:0:0:
227,196,61364,6,0,B|271:138|213:93|153:91|97:190|176:269,1,264.619994750885,6|2,1:2|2:0,2:0:0:0:
289,304,61697,1,0,1:2:0:0:
323,240,61808,2,0,B|396:210|396:210|367:272,1,132.309997375443,10|0,2:0|2:0,2:0:0:0:
218,357,62031,6,0,L|166:343,1,43.2299998680725,2|0,2:0|2:0,2:0:0:0:
213,339,62142,2,0,L|171:327,1,43.2299998680725,0|0,2:0|2:0,2:0:0:0:
1,274,62253,6,0,B|40:274|42:222|42:222|46:226|46:226|35:291|96:314,1,168.990002578583,2|0,2:0|2:0,2:0:0:0:
122,238,62475,2,0,P|183:214|250:185,1,112.660001719055,2|0,1:2|2:0,2:0:0:0:
272,74,62697,2,0,B|299:82|299:82|301:85|301:85|329:94,1,56.3300008595276,8|0,2:0|2:0,2:0:0:0:
438,187,62808,6,0,P|389:185|369:150,1,85.1499994802856,2|0,1:2|2:0,2:0:0:0:
463,204,63142,6,0,B|360:232|345:115|345:115|396:140|442:103,1,264.619994750885,6|2,1:2|2:0,2:0:0:0:
471,35,63475,1,0,1:2:0:0:
272,74,63586,2,0,B|217:9|111:19|86:135|170:156|218:106,1,264.619994750885,10|0,2:0|2:0,2:0:0:0:
208,114,63919,1,0,1:2:0:0:
94,179,64031,5,2,2:0:0:0:
86,209,64142,1,2,2:0:0:0:
193,262,64253,5,2,1:2:0:0:
214,327,64364,1,0,2:0:0:0:
106,365,64475,5,10,2:0:0:0:
41,309,64586,2,0,P|129:334|258:369,1,199.774991769524,2|0,2:0|2:0,2:0:0:0:
352,315,64919,6,0,L|390:292,1,23.5800005756836,2|0,1:2|2:0,2:0:0:0:
393,233,65031,2,0,L|370:194,1,23.5800005756836,2|0,1:2|2:0,2:0:0:0:
304,189,65142,2,0,L|283:200,1,23.5800005756836,2|0,1:2|2:0,2:0:0:0:
267,271,65254,2,0,L|278:291,1,23.5800005756836,2|0,1:2|2:0,2:0:0:0:
404,221,65364,6,0,B|446:201|496:189|496:189|450:95|348:135,1,238.420008003601,10|0,2:0|2:0,2:0:0:0:
304,189,65697,1,2,2:0:0:0:
291,199,65808,2,0,P|228:186|170:173,1,99.559998784668,0|0,2:0|2:0,2:0:0:0:
6,103,66031,6,0,P|30:97|55:91,1,51.0899996881714,2|2,1:2|2:0,2:0:0:0:
118,41,66253,6,0,B|169:90|169:90|131:123|88:179,1,168.990002578583,10|0,2:0|2:0,2:0:0:0:
114,241,66475,6,0,P|139:247|168:254,1,51.0899996881714,2|0,1:2|2:0,2:0:0:0:
138,345,66697,6,0,B|190:363|224:330|224:330|229:280|287:262,1,168.990002578583,2|0,1:2|2:0,2:0:0:0:
303,343,66919,2,0,B|320:347|320:347|320:350|320:350|339:356,2,31.4400007675781,2|0|0,1:2|1:2|1:2,2:0:0:0:
413,325,67142,5,10,2:0:0:0:
382,264,67253,5,2,2:0:0:0:
414,196,67364,5,2,2:0:0:0:
389,120,67475,5,2,2:0:0:0:
379,108,67586,6,0,B|321:93|321:93|351:124,1,94.3200023027344,2|0,1:2|1:2,2:0:0:0:
396,107,67919,6,0,B|287:71|287:71|338:136,1,178.815006002701,10|0,2:0|2:0,2:0:0:0:
320,203,68142,1,8,2:0:0:0:
310,215,68253,6,0,B|281:225|281:225|282:228|282:228|247:243,1,60.9149975833283,2|0,1:2|2:0,2:0:0:0:
190,202,68475,6,0,B|148:128|55:119|34:224|112:235,1,225.32000343811,6|2,1:2|3:2,2:0:0:0:
240,348,68808,1,2,2:3:0:0:
253,358,68919,2,0,B|296:308|296:308|238:331|194:285,1,168.990002578583,10|0,2:0|2:0,2:0:0:0:
146,338,69142,2,0,P|108:335|86:301,1,70.7400017270508,2|2,3:2|2:0,2:0:0:0:
88,302,69364,2,0,P|98:263|106:231,1,70.7400017270508,2|0,1:2|2:0,2:0:0:0:
63,171,69586,5,2,3:2:0:0:
55,159,69697,1,0,2:0:0:0:
140,54,69808,6,0,B|177:42|186:4|186:4|166:87|233:108,1,172.91999947229,10|2,2:0|3:2,2:0:0:0:
277,146,70142,1,2,2:0:0:0:
408,91,70253,6,0,B|366:68|320:108|357:125|317:166|264:141,1,159.165003885864,2|0,1:2|2:0,2:0:0:0:
207,176,70475,2,0,P|190:203|196:235,1,53.7100008195496,0|0,3:2|2:0,2:0:0:0:
365,322,70697,6,0,B|312:285|312:285|428:262,1,159.165003885864,10|0,2:0|2:0,2:0:0:0:
474,293,70919,2,0,P|489:314|490:340,1,53.7100008195496,2|0,3:2|2:0,2:0:0:0:
262,370,71142,6,0,P|277:308|305:205,1,159.165003885864,0|0,3:2|2:0,2:0:0:0:
276,145,71364,2,0,P|254:129|228:128,1,53.7100008195496,2|0,3:2|2:0,2:0:0:0:
6,157,71586,6,0,B|72:135|109:184|109:184|110:263|191:260,1,212.220005181152,10|2,2:0|3:2,2:0:0:0:
223,206,71919,1,0,3:0:0:0:
163,79,72031,6,0,B|194:-23|314:21|314:21|309:78|379:112,1,264.619994750885,6|0,1:2|2:0,2:0:0:0:
432,154,72364,1,2,2:0:0:0:
510,62,72475,2,0,P|453:42|397:23,1,119.210004001801,8|0,2:0|2:0,2:0:0:0:
276,145,72697,1,2,2:0:0:0:
362,298,72808,5,0,1:2:0:0:
465,257,72919,1,8,2:0:0:0:
348,180,73031,5,2,2:0:0:0:
306,241,73142,1,0,1:0:0:0:
350,300,73253,1,0,2:0:0:0:
439,339,73364,6,0,L|482:353,1,36.6800004477539,2|0,1:2|2:0,2:0:0:0:
443,355,73475,2,0,L|486:369,1,36.6800004477539,2|0,2:0|2:0,2:0:0:0:
465,257,73586,6,0,L|508:243,1,36.6800004477539,2|0,2:0|2:0,2:0:0:0:
469,241,73697,2,0,L|512:227,1,36.6800004477539,2|0,2:0|2:0,2:0:0:0:
350,300,73808,5,2,1:3:0:0:
337,308,73919,1,2,3:0:0:0:
294,361,74031,5,2,3:0:0:0:
275,355,74142,1,2,3:0:0:0:
222,303,74253,5,2,3:0:0:0:
203,309,74364,1,2,3:0:0:0:
140,360,74475,5,2,3:0:0:0:
118,352,74586,1,2,3:0:0:0:
43,323,74697,5,10,2:0:0:0:
26,331,74808,1,2,3:0:0:0:
135,282,74919,5,8,2:3:0:0:
108,241,74994,5,8,2:3:0:0:
62,245,75068,5,8,2:3:0:0:
53,251,75142,6,0,L|54:219,10,24.4533336318359,8|0|0|0|0|0|8|0|0|0|0,1:3|2:0|1:2|2:0|1:2|2:0|1:3|2:0|1:0|2:0|1:0,2:0:0:0:
51,190,75586,6,0,B|-19:166|-19:166|167:119,1,238.420008003601,6|2,1:2|2:0,2:0:0:0:
240,218,75919,1,0,2:0:0:0:
262,230,76031,2,0,B|210:181|210:181|254:144|292:105,1,178.815006002701,10|0,2:0|2:0,2:0:0:0:
323,48,76253,6,0,P|349:62|359:104,1,53.7100008195496,2|0,2:0|2:0,2:0:0:0:
482,254,76475,6,0,B|451:242|451:242|449:245|449:245|401:229,1,59.6050020009003,2|0,1:2|2:0,2:0:0:0:
353,203,76586,6,0,P|354:185|362:203,1,41.92,8|2,3:2|1:2,2:0:0:0:
332,363,76919,6,0,B|386:407|444:314|371:246|265:320,1,238.420008003601,8|2,2:0|1:2,2:0:0:0:
215,373,77253,1,2,2:0:0:0:
154,264,77364,6,0,B|59:227|59:227|83:273|63:315,1,178.815006002701,2|0,1:2|2:0,2:0:0:0:
166,252,77586,2,0,P|184:227|181:202,1,51.0899996881714,2|0,2:0|2:0,2:0:0:0:
134,138,77808,5,10,2:0:0:0:
119,120,77919,1,0,2:0:0:0:
210,38,78031,6,0,P|213:25|212:40,1,51.0899996881714,2|0,2:0|2:0,2:0:0:0:
235,115,78253,5,2,1:2:0:0:
298,141,78364,1,8,1:2:0:0:
364,163,78475,1,0,2:0:0:0:
373,172,78586,1,2,1:2:0:0:
419,325,78697,6,0,B|371:260|371:260|420:238|474:206,1,178.815006002701,8|0,2:0|2:0,2:0:0:0:
414,335,78919,2,0,P|390:349|358:350,1,51.0899996881714,2|0,1:2|2:0,2:0:0:0:
281,304,79142,6,0,L|308:298,5,17.0299998960571,2|0|0|0|0|0,1:2|2:0|2:0|2:0|3:2|2:0,2:0:0:0:
236,363,79475,1,0,2:0:0:0:
124,292,79586,5,2,1:2:0:0:
196,341,79697,1,0,3:2:0:0:
217,353,79808,1,2,3:2:0:0:
110,280,79919,1,0,1:2:0:0:
13,351,80031,6,0,B|88:362|107:280|107:280|39:289|1:238,1,238.420008003601,8|0,2:0|2:0,2:0:0:0:
78,200,80327,6,0,P|75:185|89:200,1,53.2733311385397,2|0,2:0|2:0,2:0:0:0:
84,208,80475,5,2,2:0:0:0:
91,192,80549,5,0,2:0:0:0:
78,169,80623,5,2,2:0:0:0:
102,134,80697,5,2,2:0:0:0:
71,93,80771,5,2,2:0:0:0:
104,40,80845,5,0,2:0:0:0:
98,30,80919,6,0,B|172:13|213:84|213:84|183:158|262:193,1,238.420008003601,4|0,1:2|2:0,2:0:0:0:
256,261,81253,1,0,1:2:0:0:
450,242,81364,2,0,B|370:210|324:204|324:204|398:182|399:110,1,238.420008003601,8|0,2:0|1:2,2:0:0:0:
366,58,81697,1,0,1:2:0:0:
302,116,81808,5,2,1:2:0:0:
298,122,81919,1,0,3:2:0:0:
304,127,82031,1,0,3:2:0:0:
310,121,82142,1,2,3:2:0:0:
299,101,82253,5,8,3:2:0:0:
279,116,82364,1,0,3:2:0:0:
299,136,82475,1,2,3:2:0:0:
323,121,82586,1,0,3:2:0:0:
403,256,82697,6,0,B|435:300|503:276|505:210|454:158|377:181,1,238.420008003601,6|0,1:2|2:0,2:0:0:0:
306,324,83031,1,0,1:2:0:0:
215,283,83142,2,0,B|246:228|299:242|299:242|249:249|236:287,1,178.815006002701,8|0,2:0|2:0,2:0:0:0:
234,365,83364,2,0,P|171:358|140:253,1,172.91999947229,0|0,2:0|2:0,2:0:0:0:
93,98,83697,6,0,P|127:86|172:97,1,59.6050020009003,8|0,2:0|2:0,2:0:0:0:
144,164,83808,6,0,P|134:177|133:160,1,41.2649987406922,2|0,1:2|2:0,2:0:0:0:
260,120,84031,6,0,B|312:154|350:100|326:87|357:38|421:70,1,178.815006002701,10|0,2:0|2:0,2:0:0:0:
420,68,84253,2,0,P|440:102|437:138,1,70.7400017270508,2|0,2:0|2:0,2:0:0:0:
434,291,84475,6,0,B|406:283|406:283|403:280|403:280|377:273,1,59.6050020009003,8|0,2:0|2:0,2:0:0:0:
369,258,84586,2,0,B|394:264|394:264|397:267|397:267|425:275,1,59.6050020009003,0|0,1:2|2:0,2:0:0:0:
468,34,86253,6,0,B|392:13|343:77|343:77|348:131|302:159,1,225.32000343811,6|0,1:2|2:0,2:0:0:0:
242,91,86586,2,0,P|245:77|251:97,1,56.3300008595276,2|0,1:2|2:0,2:0:0:0:
231,173,86697,6,0,P|240:210|248:240,1,60.9149975833283,8|0,2:0|2:0,2:0:0:0:
137,305,86919,6,0,B|129:382|11:412|-24:323|21:279|70:288,1,248.89999696167,2|0,2:0|2:0,2:0:0:0:
150,292,87253,2,0,B|182:282|182:282|153:261,1,66.1549986877213,10|0,2:0|2:0,2:0:0:0:
92,212,87364,6,0,P|99:182|106:141,1,70.7400017270508,0|0,1:2|2:0,2:0:0:0:
51,26,87586,6,0,B|109:-12|172:44|129:70|187:130|268:77,1,218.115005325073,10|0,1:2|2:0,2:0:0:0:
229,96,87808,2,0,B|190:130|115:78|159:51|102:-2|45:37,1,212.220005181152,2|0,1:2|2:0,2:0:0:0:
