osu file format v14

[General]
AudioFilename: audio.mp3
AudioLeadIn: 0
PreviewTime: 59919
Countdown: 0
SampleSet: Soft
StackLeniency: 0.7
Mode: 2
LetterboxInBreaks: 0
WidescreenStoryboard: 1

[Editor]
Bookmarks: 920,11586,32919
DistanceSpacing: 1.9
BeatDivisor: 4
GridSize: 32
TimelineZoom: 1.6

[Metadata]
Title:Gurenge feat. Un3h [ dj-Jo Remix ] TV Size
TitleUnicode:紅蓮華 feat. Un3h [ dj-Jo Remix ] TV Size
Artist:LiSA
ArtistUnicode:LiSA
Creator:Jemzuu
Version:Salad
Source:鬼滅の刃
Tags:ajamez dust du5t idust idu5t rew0825 greaper [_-Kukkai-_] demon slayer kimetsu no yaiba 通常盤 anime japanese op electronic opening edit tech dnb drum and bass n d&b dubstep trap hardcore
BeatmapID:2901450
BeatmapSetID:1400050

[Difficulty]
HPDrainRate:3.5
CircleSize:3
OverallDifficulty:7
ApproachRate:7
SliderMultiplier:1.8
SliderTickRate:1

[Events]
//Background and Video events
0,0,"bg661.jpg",0,0
//Break Periods
2,47342,53353
//Storyboard Layer 0 (Background)
//Storyboard Layer 1 (Fail)
//Storyboard Layer 2 (Pass)
//Storyboard Layer 3 (Foreground)
//Storyboard Layer 4 (Overlay)
//Storyboard Sound Samples

[TimingPoints]
920,444.444444444444,4,2,1,52,1,0
920,-100,4,2,1,52,0,0
11586,-100,4,2,1,52,0,0
12253,-100,4,2,1,52,0,0
13364,-100,4,2,1,52,0,0
14031,-100,4,2,1,52,0,0
14697,-100,4,2,1,52,0,0
15142,-100,4,2,1,52,0,0
15808,-100,4,2,1,52,0,0
17586,-100,4,2,1,52,0,0
18253,-100,4,2,1,52,0,0
18697,-100,4,2,1,52,0,0
24919,-100,4,2,1,52,0,0
25364,-100,4,2,1,52,0,0
28031,-100,4,2,1,52,0,0
28364,-100,4,2,1,52,0,0
31142,-100,4,2,1,52,0,0
32031,-100,4,2,1,52,0,0
32919,-100,4,2,1,52,0,0
33364,-100,4,2,1,52,0,0
33808,-100,4,2,1,52,0,0
34697,-100,4,2,1,52,0,0
36031,-100,4,2,1,52,0,0
36475,-100,4,2,1,52,0,0
36919,-100,4,2,1,52,0,0
37364,-100,4,2,1,52,0,0
37586,-100,4,2,1,52,0,0
37808,-100,4,2,1,52,0,0
38030,-100,4,2,1,52,0,0
38253,-100,4,2,1,52,0,0
40031,-100,4,2,1,52,0,0
40475,-100,4,2,1,52,0,0
41031,-100,4,2,1,52,0,0
41364,-100,4,2,1,52,0,0
41808,-100,4,2,1,52,0,0
43142,-100,4,2,1,52,0,0
43586,-100,4,2,1,52,0,0
44031,-100,4,2,1,52,0,0
45364,-100,4,2,1,52,0,0
47142,-100,4,2,4,52,0,0
47475,-100,4,2,1,52,0,0
49586,-100,4,2,1,52,0,0
54253,-100,4,2,1,52,0,0
54697,-100,4,2,1,52,0,0
54919,-100,4,2,1,52,0,0
55364,-100,4,2,1,52,0,0
56031,-100,4,2,1,52,0,0
56475,-100,4,2,1,52,0,0
56697,-100,4,2,1,52,0,0
57142,-100,4,2,1,52,0,0
57808,-100,4,2,1,60,0,0
59586,-100,4,2,1,60,0,0
60031,-100,4,2,1,60,0,0
60919,-100,4,2,1,60,0,0
61364,-100,4,2,1,70,0,1
62475,-100,4,2,1,70,0,1
62642,-100,4,2,1,70,0,1
62697,-100,4,2,1,70,0,1
62753,-100,4,2,1,70,0,1
62808,-100,4,2,1,70,0,1
63086,-100,4,2,1,70,0,1
63142,-100,4,2,1,70,0,1
64253,-100,4,2,1,70,0,1
64419,-100,4,2,1,70,0,1
64475,-100,4,2,1,70,0,1
64531,-100,4,2,1,70,0,1
64586,-100,4,2,1,70,0,1
64919,-100,4,2,1,70,0,1
64975,-100,4,2,1,70,0,1
65031,-100,4,2,1,70,0,1
65086,-100,4,2,1,70,0,1
65142,-100,4,2,1,70,0,1
65197,-100,4,2,1,70,0,1
65253,-100,4,2,1,70,0,1
65308,-100,4,2,1,70,0,1
65364,-100,4,2,1,70,0,1
65697,-100,4,2,1,70,0,1
66253,-100,4,2,1,70,0,1
66419,-100,4,2,1,70,0,1
66475,-100,4,2,1,70,0,1
66642,-100,4,2,1,70,0,1
66697,-100,4,2,1,70,0,1
67142,-100,4,2,1,70,0,1
67586,-100,4,2,1,70,0,1
68475,-100,4,2,1,52,0,0
70253,-100,4,2,1,52,0,0
72031,-100,4,2,1,52,0,0
73808,-100,4,2,1,52,0,0
75142,-100,4,2,1,52,0,0
75586,-100,4,2,1,70,0,1
79142,-100,4,2,1,70,0,1
80031,-100,4,2,1,70,0,0
80549,-100,4,2,1,70,0,0
80623,-100,4,2,1,70,0,0
80697,-100,4,2,1,70,0,0
80771,-100,4,2,1,70,0,0
80845,-100,4,2,1,70,0,0
80919,-100,4,2,1,70,0,1
82697,-100,4,2,1,70,0,1
83364,-100,4,2,1,70,0,1
84031,-100,4,2,1,70,0,1
84586,-100,4,2,1,52,0,0
86253,-100,4,2,1,52,0,0
87586,-100,4,2,1,52,0,0

[Colours]
Combo1 : 94,255,255
Combo2 : 255,128,128
Combo3 : 83,255,169

[HitObjects]
259,98,920,5,2,0:2:0:0:
406,154,1253,1,2,0:2:0:0:
259,234,1586,1,2,0:2:0:0:
28,97,2697,5,2,0:2:0:0:
163,166,3031,1,2,0:2:0:0:
321,191,3364,1,2,0:2:0:0:
112,301,4475,6,0,L|102:158,1,135,2|2,0:2|0:2,0:0:0:0:
261,124,5142,1,2,0:2:0:0:
470,61,6253,5,2,0:2:0:0:
324,87,6586,1,2,0:2:0:0:
470,61,6919,1,2,0:2:0:0:
274,231,7364,2,0,L|175:242,1,90,2|2,0:2|0:2,0:0:0:0:
387,327,8031,6,0,L|397:170,1,135,2|0,0:2|0:2,0:0:0:0:
241,162,8697,2,0,L|45:138,2,180,0|0|0,0:2|0:2|0:0,0:0:0:0:
439,55,9808,5,2,0:2:0:0:
353,70,10030,1,0,0:0:0:0:
317,148,10252,1,0,0:0:0:0:
360,223,10474,1,0,0:0:0:0:
447,230,10696,1,0,0:0:0:0:
118,325,11586,6,0,P|86:250|133:211,1,135,6|2,1:2|1:2,0:0:0:0:
167,202,12031,1,8,0:2:0:0:
270,138,12253,2,0,L|119:126,1,135,2|10,0:2|0:2,0:0:0:0:
192,104,12697,1,0,1:2:0:0:
297,84,12919,1,10,0:2:0:0:
36,55,13253,6,0,L|35:138,1,45,10|6,0:2|1:2,0:0:0:0:
79,128,13475,1,8,1:2:0:0:
128,140,13586,1,0,1:2:0:0:
230,163,13808,1,8,0:2:0:0:
125,174,14031,6,0,L|268:206,1,135,2|10,0:2|0:2,0:0:0:0:
256,256,14475,1,0,1:2:0:0:
154,271,14697,2,0,L|148:346,1,45,10|2,0:2|1:2,0:0:0:0:
374,330,15031,1,10,1:2:0:0:
424,356,15142,6,0,L|427:208,1,135,6|2,1:2|1:2,0:0:0:0:
276,170,15808,2,0,L|129:149,1,135,2|10,0:2|0:2,0:0:0:0:
196,118,16253,1,0,1:2:0:0:
311,94,16475,1,10,0:2:0:0:
43,33,16808,5,10,0:2:0:0:
20,64,16919,1,2,1:2:0:0:
43,33,17031,1,8,0:2:0:0:
84,30,17142,1,0,1:2:0:0:
187,57,17364,1,8,0:2:0:0:
82,65,17586,6,0,L|79:206,1,135,2|10,0:2|0:2,0:0:0:0:
130,216,18031,1,0,1:2:0:0:
336,266,18253,2,0,L|449:263,1,90,10|0,0:2|0:0,0:0:0:0:
213,350,18697,6,0,P|172:273|262:254,1,180,6|0,1:2|3:2,0:0:0:0:
334,229,19364,1,2,0:2:0:0:
491,84,19808,2,0,L|398:86,1,90,0|0,1:2|3:2,0:0:0:0:
240,76,20364,1,0,3:2:0:0:
293,80,20475,6,0,L|305:190,1,90,2|0,1:2|1:2,0:0:0:0:
193,204,20919,2,0,L|37:218,1,135,0|0,3:2|3:2,0:0:0:0:
108,246,21364,1,0,3:2:0:0:
225,295,21586,1,0,1:2:0:0:
243,255,21697,1,0,1:2:0:0:
224,216,21808,1,0,3:2:0:0:
182,208,21919,1,0,1:2:0:0:
337,163,22253,6,0,L|446:157,1,90,2|0,1:2|1:2,0:0:0:0:
322,116,22697,1,0,3:2:0:0:
137,151,23142,2,0,L|123:59,1,90,0|0,0:2|1:2,0:0:0:0:
237,50,23586,2,0,L|254:153,1,90,0|0,3:2|0:2,0:0:0:0:
137,173,24031,6,0,L|23:197,1,90,2|0,1:2|1:2,0:0:0:0:
154,235,24475,1,0,3:2:0:0:
352,311,24919,2,0,L|248:330,1,90,0|0,3:2|0:0,0:0:0:0:
156,324,25364,2,0,L|130:281,2,45,0|0|0,1:2|1:2|3:2,0:0:0:0:
380,334,25808,6,0,P|408:289|345:233,1,135,6|0,1:2|3:2,0:0:0:0:
313,223,26253,1,0,3:2:0:0:
206,202,26475,2,0,L|403:160,1,180,2|0,0:2|1:2,0:0:0:0:
482,148,27142,1,0,3:2:0:0:
326,86,27475,1,0,3:2:0:0:
280,86,27586,6,0,L|277:183,1,90,2|0,1:2|3:2,0:0:0:0:
390,186,28031,2,0,L|395:323,1,135,0|0,3:2|3:2,0:0:0:0:
345,333,28475,1,0,0:2:0:0:
243,348,28697,1,0,1:2:0:0:
353,356,28919,2,0,L|407:357,2,45,0|0|0,3:2|3:2|1:2,0:0:0:0:
139,255,29364,6,0,L|31:248,1,90,2|0,1:2|1:2,0:0:0:0:
146,215,29808,1,0,3:2:0:0:
341,210,30253,2,0,L|348:114,1,90,0|0,0:2|1:2,0:0:0:0:
242,106,30697,2,0,L|128:115,1,90,0|0,3:2|0:2,0:0:0:0:
357,44,31142,5,2,1:3:0:0:
395,121,31364,1,2,1:3:0:0:
353,196,31586,1,2,3:3:0:0:
267,201,31808,1,2,3:3:0:0:
157,251,32031,6,0,L|269:255,1,90,2|2,3:3|3:3,0:0:0:0:
348,286,32475,2,0,L|377:223,2,45,2|0|2,1:3|0:0|3:3,0:0:0:0:
251,317,32919,2,0,L|148:321,1,90,0|0,1:0|0:0,0:0:0:0:
377,353,33364,6,0,L|488:212,1,180,4|0,1:3|1:0,0:0:0:0:
393,172,34031,1,2,0:0:0:0:
292,176,34253,2,0,L|283:69,1,90,8|0,1:0|0:0,0:0:0:0:
394,68,34697,6,0,L|210:59,1,180,0|8,1:0|1:0,0:0:0:0:
119,72,35364,1,2,0:0:0:0:
221,135,35586,2,0,L|325:131,1,90,0|0,1:0|0:0,0:0:0:0:
206,185,36031,2,0,L|97:188,1,90,8|0,1:0|1:0,0:0:0:0:
325,309,36475,6,0,P|333:249|214:193,1,180,0|8,1:0|1:0,0:0:0:0:
52,202,37364,2,0,L|43:100,1,90,0|2,1:0|0:0,0:0:0:0:
153,82,37808,2,0,L|47:75,1,90,8|2,1:0|0:0,0:0:0:0:
274,206,38253,6,0,L|440:220,1,135,0|0,1:0|1:0,0:0:0:0:
359,251,38697,1,8,1:0:0:0:
260,280,38919,1,0,1:0:0:0:
365,316,39142,2,0,L|414:318,1,45,0|0,1:0|1:0,0:0:0:0:
263,363,39586,6,0,L|256:263,1,90,8|0,1:0|0:0,0:0:0:0:
363,240,40031,2,0,L|483:238,1,90,0|0,1:0|0:0,0:0:0:0:
243,164,40475,6,0,L|134:153,1,90,8|0,1:0|0:0,0:0:0:0:
255,111,40919,2,0,L|266:228,1,90,0|0,1:0|0:0,0:0:0:0:
57,235,41364,2,0,L|46:128,1,90,8|2,1:0|0:0,0:0:0:0:
257,93,41808,6,0,L|430:153,1,180,0|8,1:0|1:0,0:0:0:0:
330,209,42475,1,0,0:0:0:0:
234,229,42697,2,0,L|230:120,1,90,2|2,1:2|0:0,0:0:0:0:
430,148,43142,2,0,L|432:38,1,90,8|0,1:0|0:0,0:0:0:0:
225,51,43586,6,0,L|35:100,1,180,0|8,1:0|1:0,0:0:0:0:
146,148,44253,1,0,3:0:0:0:
331,191,44697,1,0,3:0:0:0:
142,291,45142,1,0,3:0:0:0:
349,332,45364,6,0,L|450:333,1,90,4|8,1:2|0:2,0:0:0:0:
440,300,45697,1,8,0:2:0:0:
341,257,45919,1,8,0:2:0:0:
242,253,46142,1,8,0:2:0:0:
216,222,46253,1,8,0:3:0:0:
242,253,46364,1,0,0:3:0:0:
287,262,46475,1,8,0:3:0:0:
389,188,46697,2,0,L|289:179,1,90,8|8,0:2|0:3,0:0:0:0:
79,161,47142,5,6,1:2:0:0:
163,141,54253,6,0,L|58:142,1,90,2|2,0:2|0:2,0:0:0:0:
175,83,54697,2,0,L|266:74,1,90,0|2,3:2|0:2,0:0:0:0:
166,133,55142,1,2,0:2:0:0:
271,129,55364,1,0,3:2:0:0:
388,212,56031,6,0,L|493:213,1,90,6|2,1:2|0:2,0:0:0:0:
376,154,56475,2,0,L|285:145,1,90,0|2,3:2|0:2,0:0:0:0:
385,204,56920,1,2,0:2:0:0:
280,200,57142,1,0,3:2:0:0:
54,230,57808,6,0,L|59:130,1,90,2|2,1:3|3:3,0:0:0:0:
154,123,58253,2,0,L|265:113,1,90,2|2,3:3|3:3,0:0:0:0:
148,175,58697,1,2,3:3:0:0:
250,194,58919,2,0,L|361:183,1,90,2|2,3:3|3:3,0:0:0:0:
241,237,59364,1,2,3:3:0:0:
37,306,59586,5,2,2:2:0:0:
39,278,60031,2,0,P|134:242|17:80,1,360,2|8,0:2|0:1,0:0:0:0:
398,52,61364,6,0,P|428:116|367:145,1,135,6|0,1:2|1:2,0:0:0:0:
337,160,61808,1,10,0:2:0:0:
238,168,62031,1,2,0:2:0:0:
341,214,62253,2,0,L|461:206,1,90,2|2,0:2|1:2,0:0:0:0:
335,293,62697,2,0,L|280:299,1,45,8|2,0:2|1:2,0:0:0:0:
24,161,63142,6,0,L|166:99,1,135,2|0,1:2|1:2,0:0:0:0:
195,102,63586,1,10,0:2:0:0:
346,51,63919,2,0,L|287:62,1,45,0|2,1:2|0:2,0:0:0:0:
201,99,64253,1,2,1:2:0:0:
304,149,64475,2,0,L|375:147,1,45,10|2,0:2|0:2,0:0:0:0:
88,299,64919,5,2,1:2:0:0:
45,289,65030,1,2,1:2:0:0:
26,250,65141,1,2,1:2:0:0:
44,211,65252,1,2,1:2:0:0:
87,200,65363,5,10,0:2:0:0:
234,163,65697,1,2,0:2:0:0:
81,104,66031,1,2,1:2:0:0:
273,53,66253,2,0,L|371:61,1,90,10|2,0:2|1:2,0:0:0:0:
158,140,66697,6,0,L|155:248,1,90,2|2,1:2|1:2,0:0:0:0:
350,261,67142,2,0,L|465:267,1,90,10|0,0:2|0:0,0:0:0:0:
339,349,67586,6,0,L|230:347,1,90,2|0,1:2|1:2,0:0:0:0:
203,341,67919,1,10,0:2:0:0:
303,274,68142,2,0,L|366:273,1,45,8|2,0:2|1:2,0:0:0:0:
138,276,68475,6,0,P|117:218|181:158,1,135,6|2,1:2|0:3,0:0:0:0:
206,151,68919,1,10,0:2:0:0:
303,118,69142,1,2,3:2:0:0:
203,97,69364,2,0,L|103:95,1,90,2|2,1:2|3:2,0:0:0:0:
212,66,69808,2,0,L|310:55,1,90,10|2,0:2|3:2,0:0:0:0:
98,48,70253,6,0,L|-4:67,1,90,2|2,1:2|3:2,0:0:0:0:
112,138,70697,2,0,L|212:142,1,90,10|2,0:2|3:2,0:0:0:0:
302,208,71142,2,0,L|205:229,1,90,2|2,1:2|3:2,0:0:0:0:
23,319,71586,2,0,L|139:319,1,90,10|2,0:2|3:2,0:0:0:0:
322,328,72031,6,0,L|486:282,2,135,6|2|2,1:2|0:2|0:2,0:0:0:0:
219,325,72919,2,0,L|212:227,1,90,8|0,0:2|0:0,0:0:0:0:
311,197,73364,1,2,1:2:0:0:
355,193,73475,1,2,0:2:0:0:
400,189,73586,1,2,0:2:0:0:
200,117,73808,6,0,L|39:98,2,135,2|2|2,1:3|3:3|3:3,0:0:0:0:
299,133,74697,2,0,L|314:238,1,90,10|8,0:2|0:3,0:0:0:0:
118,275,75142,6,0,L|12:290,1,90,8|8,1:3|1:3,0:0:0:0:
238,343,75586,6,0,L|419:278,1,180,6|10,1:2|0:2,0:0:0:0:
206,215,76475,2,0,L|136:213,1,45,2|8,1:2|3:2,0:0:0:0:
259,142,76808,2,0,L|314:138,1,45,2|8,1:2|0:2,0:0:0:0:
402,89,77142,1,2,1:2:0:0:
203,57,77364,6,0,L|26:138,1,180,2|10,1:2|0:2,0:0:0:0:
232,180,78253,2,0,L|238:242,1,45,2|8,1:2|1:2,0:0:0:0:
139,266,78586,2,0,L|70:275,1,45,2|8,1:2|0:2,0:0:0:0:
196,342,78919,1,2,1:2:0:0:
403,348,79142,6,0,P|457:329|439:208,1,180,2|2,1:2|1:2,0:0:0:0:
166,213,79919,1,0,1:2:0:0:
119,214,80031,6,0,L|5:190,1,90,14|0,0:2|0:0,0:0:0:0:
115,118,80475,2,0,L|213:100,1,90,2|0,0:2|0:2,0:0:0:0:
410,55,80919,6,0,P|446:110|348:150,1,180,4|8,1:2|0:2,0:0:0:0:
268,183,81586,1,0,1:2:0:0:
164,240,81808,2,0,L|310:256,1,135,2|2,1:2|3:2,0:0:0:0:
347,258,82253,1,8,3:2:0:0:
254,340,82475,1,2,3:2:0:0:
50,356,82697,6,0,P|34:271|98:236,1,135,6|0,1:2|1:2,0:0:0:0:
112,230,83142,1,8,0:2:0:0:
214,173,83364,2,0,L|69:159,1,135,0|8,0:2|0:2,0:0:0:0:
127,127,83808,1,2,1:2:0:0:
230,85,84031,2,0,L|326:76,1,90,10|2,0:2|0:2,0:0:0:0:
111,39,84475,6,0,L|42:42,1,45,8|0,0:2|1:2,0:0:0:0:
256,192,85364,12,0,85808,0:0:0:0:
390,253,86253,6,0,P|406:186|347:145,1,135,6|2,1:2|1:2,0:0:0:0:
313,143,86697,1,8,0:2:0:0:
216,119,86919,2,0,L|361:94,1,135,2|10,0:2|0:2,0:0:0:0:
300,86,87364,1,0,1:2:0:0:
81,183,87586,6,0,L|79:281,1,90,10|2,1:2|1:2,0:0:0:0:
