osu file format v14

[General]
AudioFilename: audio.mp3
AudioLeadIn: 0
PreviewTime: 59919
Countdown: 0
SampleSet: Soft
StackLeniency: 0.7
Mode: 2
LetterboxInBreaks: 0
WidescreenStoryboard: 1

[Editor]
Bookmarks: 920,11586,32919
DistanceSpacing: 3.4
BeatDivisor: 4
GridSize: 4
TimelineZoom: 1.6

[Metadata]
Title:Gurenge feat. Un3h [ dj-Jo Remix ] TV Size
TitleUnicode:紅蓮華 feat. Un3h [ dj-Jo Remix ] TV Size
Artist:LiSA
ArtistUnicode:LiSA
Creator:Jemzuu
Version:Rew's Platter
Source:鬼滅の刃
Tags:ajamez dust du5t idust idu5t rew0825 greaper [_-Kukkai-_] demon slayer kimetsu no yaiba 通常盤 anime japanese op electronic opening edit tech dnb drum and bass n d&b dubstep trap hardcore
BeatmapID:2901449
BeatmapSetID:1400050

[Difficulty]
HPDrainRate:4
CircleSize:3.5
OverallDifficulty:8
ApproachRate:8
SliderMultiplier:1.9
SliderTickRate:2

[Events]
//Background and Video events
0,0,"bg661.jpg",0,0
//Break Periods
//Storyboard Layer 0 (Background)
//Storyboard Layer 1 (Fail)
//Storyboard Layer 2 (Pass)
//Storyboard Layer 3 (Foreground)
//Storyboard Layer 4 (Overlay)
//Storyboard Sound Samples

[TimingPoints]
920,444.444444444444,4,2,1,52,1,0
920,-100,4,2,1,52,0,0
11586,-100,4,2,1,52,0,0
12253,-100,4,2,1,52,0,0
13364,-100,4,2,1,52,0,0
14031,-100,4,2,1,52,0,0
14697,-100,4,2,1,52,0,0
15142,-100,4,2,1,52,0,0
15808,-100,4,2,1,52,0,0
17586,-100,4,2,1,52,0,0
18253,-100,4,2,1,52,0,0
18697,-100,4,2,1,52,0,0
24919,-100,4,2,1,52,0,0
25364,-100,4,2,1,52,0,0
28031,-100,4,2,1,52,0,0
28364,-100,4,2,1,52,0,0
31142,-100,4,2,1,52,0,0
32031,-100,4,2,1,52,0,0
32919,-100,4,2,1,52,0,0
33364,-100,4,2,1,52,0,0
33808,-100,4,2,1,52,0,0
34697,-100,4,2,1,52,0,0
36031,-100,4,2,1,52,0,0
36475,-100,4,2,1,52,0,0
36919,-100,4,2,1,52,0,0
37364,-100,4,2,1,52,0,0
37586,-100,4,2,1,52,0,0
37808,-100,4,2,1,52,0,0
38030,-100,4,2,1,52,0,0
38253,-100,4,2,1,52,0,0
40031,-100,4,2,1,52,0,0
40475,-100,4,2,1,52,0,0
41031,-100,4,2,1,52,0,0
41364,-100,4,2,1,52,0,0
41808,-100,4,2,1,52,0,0
43142,-100,4,2,1,52,0,0
43586,-100,4,2,1,52,0,0
44031,-100,4,2,1,52,0,0
45364,-100,4,2,1,52,0,0
47142,-100,4,2,4,52,0,0
47475,-100,4,2,1,52,0,0
49586,-100,4,2,1,52,0,0
54253,-100,4,2,1,52,0,0
54697,-100,4,2,1,52,0,0
54919,-100,4,2,1,52,0,0
55364,-100,4,2,1,52,0,0
56031,-100,4,2,1,52,0,0
56475,-100,4,2,1,52,0,0
56697,-100,4,2,1,52,0,0
57142,-100,4,2,1,52,0,0
57808,-100,4,2,1,60,0,0
59586,-100,4,2,1,60,0,0
60031,-100,4,2,1,60,0,0
60919,-100,4,2,1,60,0,0
61364,-100,4,2,1,70,0,1
62475,-100,4,2,1,70,0,1
62642,-100,4,2,1,70,0,1
62697,-100,4,2,1,70,0,1
62753,-100,4,2,1,70,0,1
62808,-100,4,2,1,70,0,1
63086,-100,4,2,1,70,0,1
63142,-100,4,2,1,70,0,1
64253,-100,4,2,1,70,0,1
64419,-100,4,2,1,70,0,1
64475,-100,4,2,1,70,0,1
64531,-100,4,2,1,70,0,1
64586,-100,4,2,1,70,0,1
64919,-100,4,2,1,70,0,1
64975,-100,4,2,1,70,0,1
65031,-100,4,2,1,70,0,1
65086,-100,4,2,1,70,0,1
65142,-100,4,2,1,70,0,1
65197,-100,4,2,1,70,0,1
65253,-100,4,2,1,70,0,1
65308,-100,4,2,1,70,0,1
65364,-100,4,2,1,70,0,1
65697,-100,4,2,1,70,0,1
66253,-100,4,2,1,70,0,1
66419,-100,4,2,1,70,0,1
66475,-100,4,2,1,70,0,1
66642,-100,4,2,1,70,0,1
66697,-100,4,2,1,70,0,1
67142,-100,4,2,1,70,0,1
67586,-100,4,2,1,70,0,1
68475,-100,4,2,1,52,0,0
70253,-100,4,2,1,52,0,0
72031,-100,4,2,1,52,0,0
73808,-100,4,2,1,52,0,0
75142,-100,4,2,1,52,0,0
75586,-100,4,2,1,70,0,1
79142,-100,4,2,1,70,0,1
80031,-100,4,2,1,70,0,0
80549,-100,4,2,1,70,0,0
80623,-100,4,2,1,70,0,0
80697,-100,4,2,1,70,0,0
80771,-100,4,2,1,70,0,0
80845,-100,4,2,1,70,0,0
80919,-100,4,2,1,70,0,1
82697,-100,4,2,1,70,0,1
83364,-100,4,2,1,70,0,1
84031,-100,4,2,1,70,0,1
84586,-100,4,2,1,52,0,0
86253,-100,4,2,1,52,0,0
87586,-100,4,2,1,52,0,0

[Colours]
Combo1 : 94,255,255
Combo2 : 255,128,128
Combo3 : 83,255,169

[HitObjects]
72,304,920,6,0,L|68:160,1,142.5,2|2,0:2|0:2,0:0:0:0:
224,160,1586,2,0,P|320:248|220:304,1,285,2|0,0:2|0:2,0:0:0:0:
432,304,2697,6,0,L|440:160,1,142.5,2|2,0:2|0:2,0:0:0:0:
284,160,3364,2,0,P|188:72|288:16,1,285,2|0,0:2|0:2,0:0:0:0:
76,16,4475,6,0,L|224:16,1,142.5,2|2,0:2|0:2,0:0:0:0:
376,16,5142,2,0,L|88:16,1,285,2|0,0:2|0:0,0:0:0:0:
300,16,6253,6,0,L|460:16,1,142.5,2|2,0:2|0:2,0:0:0:0:
284,16,6919,2,0,L|88:16,1,190,2|2,0:2|0:2,0:0:0:0:
200,16,7586,1,2,0:2:0:0:
408,16,8031,6,0,L|412:160,1,142.5,2|0,0:2|0:2,0:0:0:0:
256,160,8697,1,0,0:2:0:0:
160,160,8919,1,0,0:0:0:0:
112,236,9142,1,0,0:2:0:0:
160,160,9364,1,0,0:0:0:0:
256,160,9586,1,0,0:0:0:0:
464,160,9808,5,2,0:2:0:0:
480,260,10031,1,0,0:0:0:0:
440,344,10253,1,0,0:0:0:0:
348,372,10475,1,0,0:0:0:0:
244,368,10697,1,0,0:0:0:0:
352,372,10919,2,0,P|444:372|496:296,1,190,0|0,0:0|0:0,0:0:0:0:
208,296,11586,6,0,P|148:292|116:224,1,142.5,6|2,1:2|1:2,0:0:0:0:
168,220,12031,1,8,0:2:0:0:
376,224,12253,2,0,P|436:220|468:152,1,142.5,2|10,0:2|0:2,0:0:0:0:
416,148,12698,1,0,1:2:0:0:
208,148,12919,1,10,0:2:0:0:
156,144,13031,1,2,0:2:0:0:
112,140,13142,1,2,0:2:0:0:
320,136,13364,5,6,1:2:0:0:
328,176,13475,1,8,1:2:0:0:
308,220,13586,1,0,1:2:0:0:
268,236,13697,1,0,0:0:0:0:
216,236,13808,1,8,0:2:0:0:
424,236,14031,2,0,P|472:280|424:320,1,142.5,2|10,0:2|0:2,0:0:0:0:
372,320,14475,1,0,1:2:0:0:
164,324,14697,1,10,0:2:0:0:
112,324,14808,1,2,1:2:0:0:
216,324,15031,1,10,1:2:0:0:
344,324,15142,6,0,P|404:320|436:252,1,142.5,6|2,1:2|1:2,0:0:0:0:
384,248,15587,1,8,0:2:0:0:
176,252,15809,2,0,P|116:248|84:180,1,142.5,2|10,0:2|0:2,0:0:0:0:
136,176,16254,1,0,1:2:0:0:
344,176,16475,1,10,0:2:0:0:
396,172,16587,1,2,0:2:0:0:
436,168,16698,1,2,0:2:0:0:
228,176,16919,5,2,1:2:0:0:
176,176,17030,1,8,0:2:0:0:
132,168,17141,1,0,1:2:0:0:
112,124,17253,1,0,0:0:0:0:
116,68,17364,1,8,0:2:0:0:
324,64,17586,2,0,P|364:108|324:168,1,142.5,2|10,0:2|0:2,0:0:0:0:
272,168,18031,1,0,1:2:0:0:
220,168,18142,1,0,1:2:0:0:
352,168,18253,2,0,P|396:196|348:252,1,142.5,10|0,0:2|0:2,0:0:0:0:
220,256,18697,6,0,P|148:252|116:152,1,190,6|0,1:2|3:2,0:0:0:0:
220,152,19364,2,0,P|292:148|336:48,1,190,2|0,0:2|1:2,0:0:0:0:
232,52,20031,1,0,3:2:0:0:
88,52,20364,1,0,3:2:0:0:
220,52,20475,5,2,1:2:0:0:
316,52,20697,1,0,1:2:0:0:
212,52,20919,1,0,3:2:0:0:
356,52,21253,1,0,3:2:0:0:
260,52,21475,1,0,3:2:0:0:
308,56,21586,1,0,1:2:0:0:
332,88,21697,1,0,1:2:0:0:
308,124,21808,1,0,3:2:0:0:
260,128,21919,2,0,L|256:224,1,95,0|0,1:2|3:2,0:0:0:0:
392,224,22253,5,2,1:2:0:0:
487,224,22475,1,0,1:2:0:0:
384,224,22697,1,0,3:2:0:0:
140,128,23364,1,0,1:2:0:0:
45,128,23586,1,0,3:2:0:0:
148,128,23808,1,0,0:2:0:0:
356,128,24031,6,0,L|360:228,1,95,2|0,1:2|1:2,0:0:0:0:
256,224,24475,1,0,3:2:0:0:
204,224,24586,1,0,0:2:0:0:
108,224,24808,1,0,0:2:0:0:
240,224,24919,1,0,3:2:0:0:
432,220,25364,1,0,1:2:0:0:
472,192,25475,1,0,1:2:0:0:
432,164,25586,1,0,3:2:0:0:
148,164,25808,6,0,P|88:160|56:92,1,142.5,6|0,1:2|3:2,0:0:0:0:
108,92,26253,1,0,3:2:0:0:
212,92,26475,2,0,L|404:92,1,190,2|0,0:2|1:2,0:0:0:0:
192,92,27142,2,0,L|92:92,1,95,0|0,3:2|1:2,0:0:0:0:
148,92,27475,1,0,3:2:0:0:
280,92,27586,5,2,1:2:0:0:
376,92,27808,1,0,3:2:0:0:
272,92,28031,1,0,3:2:0:0:
116,92,28364,1,0,3:2:0:0:
112,144,28475,1,0,0:2:0:0:
216,144,28697,1,0,1:2:0:0:
112,144,28919,1,0,3:2:0:0:
68,176,29031,1,0,3:2:0:0:
112,204,29142,1,0,1:2:0:0:
320,204,29364,5,2,1:2:0:0:
416,204,29586,1,0,1:2:0:0:
320,204,29808,1,0,3:2:0:0:
216,204,30031,2,0,P|144:200|112:100,1,190,2|0,0:2|1:2,0:0:0:0:
320,100,30697,2,0,L|416:100,1,95,0|0,3:2|0:2,0:0:0:0:
216,100,31142,6,0,L|212:196,1,95,2|2,1:3|1:3,0:0:0:0:
316,196,31586,1,2,3:3:0:0:
212,196,31808,1,2,3:3:0:0:
412,196,32031,1,2,3:3:0:0:
464,204,32142,1,0,0:0:0:0:
460,256,32253,1,2,3:3:0:0:
408,260,32364,1,0,0:0:0:0:
280,260,32475,1,2,1:3:0:0:
228,260,32586,1,0,0:0:0:0:
200,216,32697,1,2,3:3:0:0:
408,216,32919,6,0,P|452:172|400:124,1,142.5,0|0,1:0|0:0,0:0:0:0:
272,124,33364,2,0,L|124:124,1,142.5,4|0,1:3|0:0,0:0:0:0:
180,124,33808,2,0,L|328:124,1,142.5,0|0,1:0|0:0,0:0:0:0:
188,124,34253,2,0,L|88:124,1,95,8|0,1:0|0:0,0:0:0:0:
300,124,34697,5,0,1:0:0:0:
396,124,34919,1,0,0:0:0:0:
288,124,35142,1,8,1:0:0:0:
392,124,35364,1,2,0:0:0:0:
192,124,35586,1,0,1:0:0:0:
136,128,35697,1,0,3:0:0:0:
116,176,35808,1,0,0:0:0:0:
136,224,35919,1,0,3:0:0:0:
192,228,36031,1,8,1:0:0:0:
296,228,36253,1,0,1:0:0:0:
88,228,36475,6,0,P|48:188|100:132,1,142.5,0|0,1:0|0:0,0:0:0:0:
148,132,36919,1,8,1:0:0:0:
200,132,37031,2,0,L|104:132,1,95,0|0,3:0|3:0,0:0:0:0:
236,132,37364,1,0,1:0:0:0:
340,132,37586,1,2,0:0:0:0:
228,132,37808,1,8,1:0:0:0:
332,132,38030,1,2,0:0:0:0:
124,132,38253,5,0,1:0:0:0:
72,132,38364,1,2,0:0:0:0:
176,132,38586,1,0,1:0:0:0:
228,132,38697,1,8,1:0:0:0:
124,132,38919,1,0,1:0:0:0:
332,132,39142,1,0,1:0:0:0:
336,184,39253,1,0,1:0:0:0:
180,184,39586,1,8,1:0:0:0:
284,184,39808,1,0,0:0:0:0:
76,184,40031,6,0,L|72:280,1,95,0|0,1:0|0:0,0:0:0:0:
356,276,40475,1,8,1:0:0:0:
460,276,40697,1,0,0:0:0:0:
252,276,40919,1,0,1:0:0:0:
156,276,41142,1,0,0:0:0:0:
264,276,41364,1,8,1:0:0:0:
160,276,41586,1,2,0:0:0:0:
368,276,41808,6,0,P|432:228|364:172,1,190,0|8,1:0|1:0,0:0:0:0:
296,172,42401,1,2,0:0:0:0:
224,172,42549,1,2,0:0:0:0:
376,172,42697,1,2,1:2:0:0:
416,128,42808,1,0,0:0:0:0:
376,88,42919,1,2,0:0:0:0:
168,88,43142,2,0,L|72:88,1,95,8|0,1:0|0:0,0:0:0:0:
356,88,43586,6,0,P|400:136|356:184,1,142.5,0|0,1:0|0:0,0:0:0:0:
224,184,44031,1,8,1:0:0:0:
124,184,44253,1,0,3:0:0:0:
228,184,44475,1,0,1:0:0:0:
128,184,44697,1,0,3:0:0:0:
336,184,44919,1,8,1:0:0:0:
436,184,45141,1,0,3:0:0:0:
152,184,45364,5,4,1:2:0:0:
48,184,45586,1,8,0:2:0:0:
100,184,45697,1,8,0:2:0:0:
204,184,45919,1,8,0:2:0:0:
100,184,46142,1,8,0:2:0:0:
232,184,46253,1,8,0:3:0:0:
284,180,46364,1,0,0:3:0:0:
336,176,46475,1,8,0:3:0:0:
128,176,46697,2,0,L|124:272,1,95,8|8,0:2|0:3,0:0:0:0:
408,276,47142,6,0,L|412:132,1,142.5,6|2,1:2|0:2,0:0:0:0:
256,132,47808,2,0,P|252:180|432:256,1,285,2|0,0:2|0:0,0:0:0:0:
224,268,48919,6,0,L|80:268,1,142.5,2|2,0:2|0:2,0:0:0:0:
240,268,49586,2,0,P|336:216|240:124,1,285,2|0,0:2|0:0,0:0:0:0:
448,124,50697,6,0,L|304:124,1,142.5,2|2,0:2|0:2,0:0:0:0:
148,124,51364,2,0,L|448:124,1,285,2|0,0:2|0:0,0:0:0:0:
224,120,52475,6,0,L|76:120,1,142.5,2|2,0:2|0:2,0:0:0:0:
240,120,53142,2,0,L|432:120,1,190,2|2,0:2|0:2,0:0:0:0:
324,120,53808,1,0,0:0:0:0:
428,120,54031,1,0,0:2:0:0:
220,120,54253,5,2,0:2:0:0:
116,120,54475,1,2,0:2:0:0:
220,120,54697,1,0,3:2:0:0:
324,120,54919,1,2,0:2:0:0:
220,120,55142,1,2,0:2:0:0:
116,120,55364,2,0,P|56:168|116:240,1,190,0|0,3:2|0:0,0:0:0:0:
324,240,56031,5,6,1:2:0:0:
428,240,56253,1,2,0:2:0:0:
324,240,56475,1,0,3:2:0:0:
220,240,56697,1,2,0:2:0:0:
324,240,56920,1,2,0:2:0:0:
428,240,57142,2,0,P|488:192|428:120,1,190,0|0,3:2|0:0,0:0:0:0:
144,116,57808,5,2,1:3:0:0:
92,120,57919,1,2,3:3:0:0:
96,172,58031,1,2,3:3:0:0:
148,172,58142,1,2,3:3:0:0:
280,172,58253,1,2,3:3:0:0:
384,172,58475,5,2,3:3:0:0:
436,176,58586,1,2,3:3:0:0:
432,228,58698,1,2,3:3:0:0:
380,228,58809,1,2,0:3:0:0:
248,228,58920,1,2,3:3:0:0:
144,228,59142,1,2,3:3:0:0:
112,188,59253,1,2,3:3:0:0:
144,148,59364,1,2,3:3:0:0:
352,148,59586,5,2,2:2:0:0:
216,148,60031,2,0,L|408:148,1,190,2|0,0:2|0:0,0:0:0:0:
64,148,60919,2,0,L|60:248,1,95,8|0,0:1|0:0,0:0:0:0:
348,244,61364,6,0,P|388:204|340:148,1,142.5,6|0,1:2|1:2,0:0:0:0:
208,148,61808,2,0,P|164:112|216:64,1,142.5,10|0,0:2|0:2,0:0:0:0:
264,64,62253,1,2,0:2:0:0:
160,64,62475,1,2,1:2:0:0:
368,64,62697,1,8,0:2:0:0:
420,64,62808,1,2,1:2:0:0:
472,64,62919,1,0,0:0:0:0:
188,64,63142,6,0,P|140:100|192:144,1,142.5,2|0,1:2|1:2,0:0:0:0:
320,148,63586,2,0,P|368:184|320:228,1,142.5,10|0,0:2|1:2,0:0:0:0:
268,228,64031,1,2,0:2:0:0:
372,228,64253,1,2,1:2:0:0:
164,228,64475,2,0,L|160:324,1,95,10|0,0:2|0:0,0:0:0:0:
444,308,64919,5,2,1:2:0:0:
476,264,65031,1,2,1:2:0:0:
456,216,65142,1,2,1:2:0:0:
404,212,65253,1,2,1:2:0:0:
272,208,65364,2,0,L|160:204,1,95,10|0,0:2|0:2,0:0:0:0:
284,204,65808,1,0,0:0:0:0:
176,200,66031,1,2,1:2:0:0:
384,200,66253,1,10,0:2:0:0:
488,196,66475,1,2,1:2:0:0:
204,196,66697,5,2,1:2:0:0:
100,196,66919,1,2,1:2:0:0:
152,196,67031,1,0,0:0:0:0:
284,196,67142,2,0,P|328:144|280:108,1,142.5,10|0,0:2|0:2,0:0:0:0:
148,108,67586,1,2,1:2:0:0:
44,108,67808,1,0,1:2:0:0:
96,108,67919,1,10,0:2:0:0:
304,108,68142,1,8,0:2:0:0:
356,108,68253,1,2,1:2:0:0:
72,108,68475,6,0,L|68:208,1,95,6|2,1:2|3:2,0:0:0:0:
276,200,68919,1,10,0:2:0:0:
172,200,69142,1,2,3:2:0:0:
276,200,69364,1,2,1:2:0:0:
312,240,69475,1,2,0:3:0:0:
272,276,69586,1,2,3:2:0:0:
64,276,69808,2,0,L|172:276,1,95,10|2,0:2|3:2,0:0:0:0:
368,276,70253,6,0,L|372:180,1,95,2|2,1:2|3:2,0:0:0:0:
164,180,70697,1,10,0:2:0:0:
272,180,70919,2,0,L|268:80,1,95,2|2,3:2|1:2,0:0:0:0:
160,84,71364,1,2,3:2:0:0:
368,84,71586,2,0,L|472:84,1,95,10|2,0:2|3:2,0:0:0:0:
176,84,72031,6,0,P|116:88|80:156,1,142.5,6|2,1:2|0:2,0:0:0:0:
132,156,72475,1,0,0:0:0:0:
340,156,72697,1,2,0:2:0:0:
380,184,72808,1,0,1:2:0:0:
340,212,72919,1,8,0:2:0:0:
236,212,73142,1,0,0:0:0:0:
444,212,73364,1,2,1:2:0:0:
392,220,73475,1,2,0:2:0:0:
340,228,73586,1,2,0:2:0:0:
132,228,73808,5,2,1:3:0:0:
80,220,73919,1,2,3:3:0:0:
84,168,74031,1,2,3:3:0:0:
136,160,74142,1,2,3:3:0:0:
192,164,74253,2,0,L|292:164,1,95,2|2,3:3|3:3,0:0:0:0:
80,164,74697,5,10,0:2:0:0:
184,164,74919,1,8,0:3:0:0:
192,112,75031,1,0,0:0:0:0:
172,64,75142,1,8,1:3:0:0:
124,40,75253,1,0,0:0:0:0:
72,40,75364,1,8,1:3:0:0:
356,36,75586,6,0,P|416:64|352:136,1,190,6|10,1:2|0:2,0:0:0:0:
252,136,76253,1,2,0:2:0:0:
460,136,76475,1,2,1:2:0:0:
464,188,76586,1,8,3:2:0:0:
360,188,76808,1,2,1:2:0:0:
356,240,76919,1,8,0:2:0:0:
460,240,77142,1,2,1:2:0:0:
252,240,77364,6,0,P|176:232|152:132,1,190,2|10,1:2|0:2,0:0:0:0:
256,132,78031,1,2,0:2:0:0:
48,132,78253,1,2,1:2:0:0:
44,184,78364,1,8,1:2:0:0:
148,184,78586,1,2,1:2:0:0:
152,236,78697,1,8,0:2:0:0:
48,236,78919,1,2,1:2:0:0:
332,236,79142,6,0,L|432:236,1,95,2|0,1:2|3:2,0:0:0:0:
320,236,79586,1,2,1:2:0:0:
180,236,79919,1,0,1:2:0:0:
316,236,80031,2,0,P|356:184|312:160,1,126.666666666667,14|2,0:2|0:2,0:0:0:0:
168,160,80475,1,2,0:2:0:0:
100,160,80623,1,2,0:2:0:0:
168,160,80771,1,2,0:2:0:0:
384,160,80919,6,0,P|432:112|356:52,1,190,4|8,1:2|0:2,0:0:0:0:
252,52,81586,1,0,1:2:0:0:
460,52,81808,2,0,L|296:52,2,142.5,2|2|2,1:2|3:2|3:2,0:0:0:0:
176,52,82697,6,0,P|128:88|184:132,1,142.5,6|0,1:2|1:2,0:0:0:0:
308,136,83142,1,8,0:2:0:0:
412,136,83364,2,0,L|216:136,1,190,0|2,0:2|1:2,0:0:0:0:
432,136,84031,2,0,L|436:232,1,95,10|2,0:2|0:2,0:0:0:0:
152,228,84475,5,8,0:2:0:0:
100,224,84586,1,0,1:2:0:0:
256,192,85364,12,0,85808,0:0:0:0:
128,300,86253,6,0,P|88:252|140:204,1,142.5,6|2,1:2|1:2,0:0:0:0:
188,204,86697,1,8,0:2:0:0:
396,208,86919,2,0,P|432:160|376:112,1,142.5,2|10,0:2|0:2,0:0:0:0:
328,112,87364,1,0,1:2:0:0:
140,112,87586,1,10,1:2:0:0:
328,112,87808,5,2,1:2:0:0:
