osu file format v14

[General]
AudioFilename: audio.mp3
AudioLeadIn: 0
PreviewTime: 59919
Countdown: 0
SampleSet: Soft
StackLeniency: 0.7
Mode: 2
LetterboxInBreaks: 0
WidescreenStoryboard: 0

[Editor]
DistanceSpacing: 1.6
BeatDivisor: 4
GridSize: 32
TimelineZoom: 3

[Metadata]
Title:Gurenge feat. Un3h [ dj-Jo Remix ] TV Size
TitleUnicode:紅蓮華 feat. Un3h [ dj-Jo Remix ] TV Size
Artist:LiSA
ArtistUnicode:LiSA
Creator:Jemzuu
Version:Du5t's Overdose
Source:鬼滅の刃
Tags:ajamez dust du5t idust idu5t rew0825 greaper [_-Kukkai-_] demon slayer kimetsu no yaiba 通常盤 anime japanese op electronic opening edit tech dnb drum and bass n d&b dubstep trap hardcore
BeatmapID:2901447
BeatmapSetID:1400050

[Difficulty]
HPDrainRate:6
CircleSize:4.2
OverallDifficulty:9.3
ApproachRate:9.3
SliderMultiplier:2.35
SliderTickRate:2

[Events]
//Background and Video events
0,0,"bg661.jpg",0,0
//Break Periods
//Storyboard Layer 0 (Background)
//Storyboard Layer 1 (Fail)
//Storyboard Layer 2 (Pass)
//Storyboard Layer 3 (Foreground)
//Storyboard Layer 4 (Overlay)
//Storyboard Sound Samples

[TimingPoints]
920,444.444444444444,4,2,1,52,1,0
920,-100,4,2,1,52,0,0
11586,-100,4,2,1,52,0,0
12253,-100,4,2,1,52,0,0
13364,-100,4,2,1,52,0,0
14031,-100,4,2,1,52,0,0
14697,-100,4,2,1,52,0,0
15142,-100,4,2,1,52,0,0
15808,-100,4,2,1,52,0,0
17586,-100,4,2,1,52,0,0
18253,-100,4,2,1,52,0,0
18697,-100,4,2,1,52,0,0
24919,-100,4,2,1,52,0,0
25364,-100,4,2,1,52,0,0
28031,-100,4,2,1,52,0,0
28364,-100,4,2,1,52,0,0
31142,-100,4,2,1,52,0,0
32031,-100,4,2,1,52,0,0
32919,-100,4,2,1,52,0,0
33364,-100,4,2,1,52,0,0
33808,-100,4,2,1,52,0,0
34697,-100,4,2,1,52,0,0
36031,-100,4,2,1,52,0,0
36475,-100,4,2,1,52,0,0
36919,-100,4,2,1,52,0,0
37364,-100,4,2,1,52,0,0
37586,-100,4,2,1,52,0,0
37808,-66.6666666666667,4,2,1,52,0,0
38030,-100,4,2,1,52,0,0
38253,-100,4,2,1,52,0,0
40031,-100,4,2,1,52,0,0
40475,-100,4,2,1,52,0,0
41031,-100,4,2,1,52,0,0
41364,-100,4,2,1,52,0,0
41808,-100,4,2,1,52,0,0
43142,-100,4,2,1,52,0,0
43586,-100,4,2,1,52,0,0
44031,-100,4,2,1,52,0,0
45364,-100,4,2,1,52,0,0
47142,-100,4,2,4,52,0,0
47475,-100,4,2,1,52,0,0
49586,-100,4,2,1,52,0,0
54253,-100,4,2,1,52,0,0
54697,-100,4,2,1,52,0,0
54919,-100,4,2,1,52,0,0
55364,-100,4,2,1,52,0,0
56031,-100,4,2,1,52,0,0
56475,-100,4,2,1,52,0,0
56697,-100,4,2,1,52,0,0
57142,-100,4,2,1,52,0,0
57808,-100,4,2,1,60,0,0
59586,-100,4,2,1,60,0,0
60031,-100,4,2,1,60,0,0
60919,-100,4,2,1,60,0,0
61364,-100,4,2,1,70,0,1
62475,-100,4,2,1,70,0,1
62642,-100,4,2,1,70,0,1
62697,-100,4,2,1,70,0,1
62753,-100,4,2,1,70,0,1
62808,-100,4,2,1,70,0,1
63086,-100,4,2,1,70,0,1
63142,-100,4,2,1,70,0,1
64253,-100,4,2,1,70,0,1
64419,-100,4,2,1,70,0,1
64475,-100,4,2,1,70,0,1
64531,-100,4,2,1,70,0,1
64586,-100,4,2,1,70,0,1
64919,-100,4,2,1,70,0,1
64975,-100,4,2,1,70,0,1
65031,-100,4,2,1,70,0,1
65086,-100,4,2,1,70,0,1
65142,-100,4,2,1,70,0,1
65197,-100,4,2,1,70,0,1
65253,-100,4,2,1,70,0,1
65308,-100,4,2,1,70,0,1
65364,-100,4,2,1,70,0,1
65697,-100,4,2,1,70,0,1
66253,-100,4,2,1,70,0,1
66419,-100,4,2,1,70,0,1
66475,-100,4,2,1,70,0,1
66642,-100,4,2,1,70,0,1
66697,-100,4,2,1,70,0,1
67142,-100,4,2,1,70,0,1
67586,-100,4,2,1,70,0,1
68475,-100,4,2,1,52,0,0
70253,-100,4,2,1,52,0,0
72031,-100,4,2,1,52,0,0
73808,-100,4,2,1,52,0,0
75142,-100,4,2,1,52,0,0
75586,-100,4,2,1,70,0,1
79142,-100,4,2,1,70,0,1
80031,-100,4,2,1,70,0,0
80549,-100,4,2,1,70,0,0
80623,-100,4,2,1,70,0,0
80697,-100,4,2,1,70,0,0
80771,-100,4,2,1,70,0,0
80845,-100,4,2,1,70,0,0
80919,-100,4,2,1,70,0,1
82697,-100,4,2,1,70,0,1
83364,-100,4,2,1,70,0,1
84031,-100,4,2,1,70,0,1
84586,-100,4,2,1,52,0,0
86253,-100,4,2,1,52,0,0
87586,-100,4,2,1,52,0,0

[Colours]
Combo1 : 94,255,255
Combo2 : 255,128,128
Combo3 : 83,255,169

[HitObjects]
389,261,920,6,0,L|185:249,2,176.25,2|2|2,0:2|0:2|0:2,0:0:0:0:
123,261,2697,6,0,L|327:249,2,176.25,2|2|2,0:2|0:2|0:2,0:0:0:0:
389,261,4475,2,0,L|390:57,1,176.25,2|2,0:2|0:2,0:0:0:0:
212,92,5142,6,0,P|147:99|245:342,1,470,2|0,0:2|0:2,0:0:0:0:
355,262,6253,6,0,L|169:248,2,176.25,2|2|2,0:2|0:2|0:2,0:0:0:0:
355,262,7364,1,2,0:2:0:0:
237,252,7586,1,2,0:2:0:0:
120,242,7808,1,2,0:2:0:0:
297,136,8031,6,0,L|299:267,1,117.5,2|0,0:2|0:0,0:0:0:0:
122,264,8475,2,0,L|119:139,1,117.5,0|0,0:0|0:2,0:0:0:0:
297,136,8919,2,0,L|427:135,1,117.5,0|0,0:0|0:2,0:0:0:0:
239,263,9364,2,0,L|121:263,1,117.5,0|0,0:0|0:0,0:0:0:0:
299,342,9808,6,0,P|218:343|154:37,1,470,2|0,0:2|0:0,0:0:0:0:
435,267,11586,6,0,L|282:257,1,117.5,6|0,1:2|0:0,0:0:0:0:
146,181,11919,1,2,1:2:0:0:
69,174,12031,1,8,0:2:0:0:
146,181,12142,1,0,0:0:0:0:
319,175,12253,2,0,L|448:167,1,117.5,2|0,0:2|0:0,0:0:0:0:
253,86,12586,1,10,0:2:0:0:
329,81,12697,1,0,1:2:0:0:
405,77,12808,1,0,0:0:0:0:
195,329,12919,6,0,L|262:325,1,58.75,10|2,0:2|0:2,0:0:0:0:
157,260,13142,2,0,L|231:255,1,58.75,2|10,0:2|0:2,0:0:0:0:
397,229,13364,2,0,L|315:219,1,58.75,6|8,1:2|1:2,0:0:0:0:
168,158,13586,1,0,1:2:0:0:
349,125,13697,1,0,0:0:0:0:
426,118,13809,1,8,0:2:0:0:
349,125,13920,1,0,0:0:0:0:
168,158,14031,6,0,L|41:150,1,117.5,2|0,0:2|0:2,0:0:0:0:
231,299,14364,1,10,0:2:0:0:
154,294,14475,1,0,1:2:0:0:
78,287,14586,1,0,1:2:0:0:
267,242,14697,1,10,0:2:0:0:
322,212,14771,1,0,0:0:0:0:
338,151,14845,1,2,0:0:0:0:
300,101,14919,1,2,0:0:0:0:
109,90,14994,2,0,L|63:84,1,39.1666666666667,2|0,0:0|0:0,0:0:0:0:
269,314,15142,6,0,L|394:306,1,117.5,6|0,1:2|0:0,0:0:0:0:
134,177,15475,1,2,1:2:0:0:
126,235,15586,1,8,0:2:0:0:
118,293,15697,1,0,0:0:0:0:
295,89,15808,2,0,L|295:231,1,117.5,2|0,0:2|0:0,0:0:0:0:
484,199,16142,1,10,0:2:0:0:
492,257,16253,1,0,1:2:0:0:
500,315,16364,1,0,0:0:0:0:
321,260,16475,6,0,L|315:327,1,58.75,10|2,0:2|0:2,0:0:0:0:
136,299,16697,2,0,L|129:370,1,58.75,2|10,0:2|0:2,0:0:0:0:
376,127,16919,5,2,1:2:0:0:
203,118,17031,1,8,0:2:0:0:
31,109,17142,1,0,1:2:0:0:
203,118,17253,1,0,0:0:0:0:
279,123,17364,1,8,0:2:0:0:
203,118,17475,1,0,0:0:0:0:
384,321,17586,2,0,L|508:319,1,117.5,2|0,0:2|0:2,0:0:0:0:
315,205,17919,1,10,0:2:0:0:
398,210,18031,1,0,1:2:0:0:
315,205,18142,1,0,1:2:0:0:
142,342,18253,5,10,0:2:0:0:
136,342,18281,1,0,0:0:0:0:
92,325,18308,1,0,0:0:0:0:
83,325,18336,1,0,0:0:0:0:
56,285,18364,1,0,0:0:0:0:
44,284,18392,1,0,0:0:0:0:
40,235,18419,1,0,0:0:0:0:
25,234,18447,1,0,0:0:0:0:
40,181,18475,1,0,0:0:0:0:
25,178,18503,1,0,0:0:0:0:
57,130,18531,1,0,0:0:0:0:
41,128,18558,1,0,0:0:0:0:
92,91,18586,1,0,0:2:0:0:
74,89,18614,1,0,0:0:0:0:
137,76,18642,1,0,0:0:0:0:
282,320,18697,6,0,P|355:274|275:183,1,235,6|0,1:2|3:2,0:0:0:0:
78,128,19364,2,0,L|70:377,1,235,2|0,0:2|1:2,0:0:0:0:
278,198,20031,2,0,L|281:69,1,117.5,0|0,3:2|0:0,0:0:0:0:
200,82,20364,1,0,3:2:0:0:
376,317,20475,5,2,1:2:0:0:
470,268,20697,1,0,1:2:0:0:
376,226,20919,2,0,L|385:29,1,176.25,0|0,3:2|3:2,0:0:0:0:
276,277,21364,2,0,L|272:353,1,58.75,0|0,3:2|3:2,0:0:0:0:
167,211,21586,2,0,L|101:208,1,58.75,0|0,1:2|1:2,0:0:0:0:
208,151,21808,2,0,L|289:154,1,58.75,0|0,3:2|1:2,0:0:0:0:
85,74,22031,2,0,L|160:72,1,58.75,0|0,3:2|3:2,0:0:0:0:
325,311,22253,5,2,1:2:0:0:
231,251,22475,1,0,1:2:0:0:
325,212,22697,2,0,P|389:193|307:105,1,235,0|0,3:2|0:2,0:0:0:0:
197,107,23364,1,0,1:2:0:0:
316,99,23586,1,0,3:2:0:0:
436,93,23808,1,0,0:2:0:0:
154,313,24031,6,0,L|149:186,1,117.5,2|0,1:2|1:2,0:0:0:0:
328,172,24475,1,0,3:2:0:0:
209,167,24586,2,0,L|199:90,2,58.75,0|0|0,0:2|0:0|0:2,0:0:0:0:
444,305,24919,5,0,3:2:0:0:
280,296,25142,1,0,0:0:0:0:
444,305,25364,2,0,L|369:301,1,58.75,0|0,1:2|1:2,0:0:0:0:
195,285,25586,1,0,3:2:0:0:
477,246,25808,6,0,L|487:104,1,117.5,6|0,1:2|3:2,0:0:0:0:
373,102,26142,2,0,L|440:94,2,58.75,0|0|0,3:2|3:2|0:0,0:0:0:0:
255,279,26475,2,0,L|107:264,2,117.5,2|0|0,0:2|0:2|1:2,0:0:0:0:
453,258,27142,2,0,L|462:125,1,117.5,0|0,3:2|1:2,0:0:0:0:
402,137,27475,1,0,3:2:0:0:
214,140,27586,5,2,1:2:0:0:
96,134,27808,1,0,3:2:0:0:
92,172,27882,1,0,3:2:0:0:
88,211,27957,1,0,3:2:0:0:
255,313,28031,2,0,L|266:113,1,176.25,0|0,3:2|3:2,0:0:0:0:
84,57,28475,6,0,L|160:57,1,58.75,0|0,0:2|3:2,0:0:0:0:
330,64,28697,2,0,L|404:62,1,58.75,0|0,1:2|0:2,0:0:0:0:
144,261,28919,2,0,L|89:258,2,29.375,0|0|0,3:2|0:0|3:2,0:0:0:0:
338,272,29142,2,0,L|400:273,1,58.75,0|0,1:2|3:2,0:0:0:0:
139,331,29364,6,0,L|16:328,1,117.5,2|0,1:2|1:2,0:0:0:0:
214,217,29808,2,0,L|456:212,1,235,0|0,3:2|0:2,0:0:0:0:
319,177,30475,1,0,1:2:0:0:
486,99,30697,2,0,L|488:247,1,117.5,0|0,3:2|0:2,0:0:0:0:
201,248,31142,6,0,L|197:316,1,58.75,2|2,1:3|3:3,0:0:0:0:
24,110,31364,2,0,L|21:180,1,58.75,2|2,1:3|3:3,0:0:0:0:
202,247,31586,2,0,L|207:322,1,58.75,2|2,3:3|3:3,0:0:0:0:
378,102,31808,2,0,L|386:173,1,58.75,2|2,3:3|3:3,0:0:0:0:
153,76,32031,5,2,3:3:0:0:
103,99,32105,1,2,3:3:0:0:
79,148,32179,1,2,3:3:0:0:
78,202,32253,1,2,3:3:0:0:
110,246,32327,1,2,3:3:0:0:
160,267,32401,1,2,3:3:0:0:
321,303,32475,2,0,L|371:301,2,39.1666666666667,2|2|2,1:3|0:3|0:3,0:0:0:0:
130,332,32697,2,0,L|80:330,2,39.1666666666667,2|0|0,3:3|0:0|0:0,0:0:0:0:
392,338,32919,6,0,P|460:323|465:215,1,176.25,0|0,1:0|0:0,0:0:0:0:
262,222,33364,2,0,L|117:217,1,117.5,4|0,1:3|0:0,0:0:0:0:
324,276,33808,2,0,P|387:259|370:143,1,176.25,0|0,1:0|0:0,0:0:0:0:
162,90,34253,1,8,1:0:0:0:
127,90,34308,1,0,0:0:0:0:
91,90,34364,1,0,0:0:0:0:
127,90,34419,1,0,0:0:0:0:
162,90,34475,1,0,0:0:0:0:
351,93,34586,1,0,0:0:0:0:
163,320,34697,6,0,P|96:297|146:208,1,176.25,0|0,1:0|0:0,0:0:0:0:
342,210,35142,2,0,L|467:207,1,117.5,8|2,1:0|0:0,0:0:0:0:
275,332,35586,2,0,L|202:336,1,58.75,0|0,1:0|3:0,0:0:0:0:
275,269,35808,2,0,L|205:273,1,58.75,0|0,0:0|3:0,0:0:0:0:
394,175,36031,1,8,1:0:0:0:
443,77,36253,1,0,1:0:0:0:
154,342,36475,6,0,P|92:321|89:218,1,176.25,0|0,1:0|0:0,0:0:0:0:
264,226,36919,2,0,L|331:231,1,58.75,8|0,1:0|3:0,0:0:0:0:
267,165,37142,2,0,L|334:167,1,58.75,0|0,0:0|3:0,0:0:0:0:
138,239,37364,6,0,L|19:232,1,117.5,0|2,1:0|0:0,0:0:0:0:
15,204,37642,1,0,0:0:0:0:
21,166,37697,1,0,0:0:0:0:
259,152,37808,2,0,L|79:139,1,176.250006723404,8|2,1:0|0:0,0:0:0:0:
78,98,38086,1,0,0:0:0:0:
84,66,38141,1,0,0:0:0:0:
288,269,38253,6,0,L|364:272,1,58.75,0|2,1:0|0:0,0:0:0:0:
252,198,38475,2,0,L|172:194,1,58.75,0|0,0:0|1:0,0:0:0:0:
380,96,38697,2,0,L|314:94,1,58.75,8|0,1:0|0:0,0:0:0:0:
146,95,38919,2,0,L|61:92,1,58.75,0|0,1:0|0:0,0:0:0:0:
270,307,39142,5,0,1:0:0:0:
349,310,39253,1,0,1:0:0:0:
270,307,39364,1,0,0:0:0:0:
93,243,39475,1,0,0:0:0:0:
23,240,39586,2,0,L|133:236,1,102.8125,8|0,1:0|0:0,0:0:0:0:
462,288,40031,5,0,1:0:0:0:
456,287,40058,1,0,0:0:0:0:
462,264,40086,1,0,0:0:0:0:
451,263,40114,1,0,0:0:0:0:
462,240,40142,1,0,0:0:0:0:
447,239,40169,1,0,0:0:0:0:
462,216,40197,1,0,0:0:0:0:
442,215,40225,1,0,0:0:0:0:
462,192,40253,1,0,0:0:0:0:
438,191,40281,1,0,0:0:0:0:
462,168,40308,1,0,0:0:0:0:
433,169,40336,1,0,0:0:0:0:
462,144,40364,1,0,0:0:0:0:
282,99,40475,2,0,L|217:99,1,58.75,8|0,1:0|0:0,0:0:0:0:
413,323,40697,2,0,L|498:322,1,58.75,0|0,0:0|0:0,0:0:0:0:
209,294,40919,5,0,1:0:0:0:
114,293,41031,2,0,L|107:157,1,117.5,2|0,0:0|0:0,0:0:0:0:
318,217,41364,2,0,L|443:207,1,117.5,8|2,1:0|0:0,0:0:0:0:
406,201,41642,1,2,0:0:0:0:
377,195,41697,1,0,0:0:0:0:
191,311,41808,6,0,P|125:299|116:191,1,176.25,0|0,1:0|0:0,0:0:0:0:
315,134,42253,1,8,1:0:0:0:
208,128,42401,1,2,0:0:0:0:
262,134,42475,1,0,0:0:0:0:
315,134,42549,1,2,0:0:0:0:
185,240,42697,2,0,L|132:242,2,39.1666666666667,2|2|2,1:2|0:0|0:0,0:0:0:0:
340,291,42919,2,0,L|393:293,2,39.1666666666667,2|2|2,0:0|0:0|0:0,0:0:0:0:
177,142,43142,1,8,1:0:0:0:
331,134,43364,1,0,0:0:0:0:
49,197,43586,6,0,L|44:330,1,117.5,0|0,1:0|0:0,0:0:0:0:
334,233,44031,2,0,L|392:234,1,58.75,8|0,1:0|0:0,0:0:0:0:
135,66,44253,2,0,L|128:193,1,117.5,0|0,3:0|1:0,0:0:0:0:
414,211,44697,2,0,L|424:338,1,117.5,0|8,3:0|1:0,0:0:0:0:
126,294,45142,2,0,L|55:289,1,58.75,0|0,3:0|0:0,0:0:0:0:
306,177,45364,5,4,1:2:0:0:
424,163,45586,1,8,0:2:0:0:
239,273,45697,1,8,0:2:0:0:
118,207,45919,1,8,0:2:0:0:
298,170,46142,1,8,0:2:0:0:
113,86,46253,2,0,L|201:85,1,58.75,8|0,0:3|0:3,0:0:0:0:
288,83,46475,1,8,0:3:0:0:
327,85,46549,1,8,0:3:0:0:
288,83,46623,1,8,0:3:0:0:
146,289,46697,1,8,0:2:0:0:
25,290,46919,1,8,0:3:0:0:
19,250,46994,1,8,1:3:0:0:
13,211,47068,1,8,0:3:0:0:
276,295,47142,6,0,L|461:283,1,176.25,6|2,1:2|0:2,0:0:0:0:
195,85,47808,2,0,P|175:154|385:293,1,352.5,2|0,0:2|0:0,0:0:0:0:
136,348,48919,6,0,P|69:349|49:238,1,176.25,2|2,0:2|0:2,0:0:0:0:
297,89,49586,2,0,P|317:158|107:297,1,352.5,2|0,0:2|0:0,0:0:0:0:
362,213,50697,6,0,L|160:205,1,176.25,2|2,0:2|0:2,0:0:0:0:
442,356,51364,2,0,P|484:305|302:19,1,470,2|0,0:2|0:2,0:0:0:0:
143,257,52475,6,0,L|346:243,2,176.25,2|2|2,0:2|0:2|0:2,0:0:0:0:
256,192,53364,12,0,54031,0:2:0:0:
356,249,54253,6,0,L|372:209,2,29.375,2|0|0,0:2|0:0|0:0,0:0:0:0:
186,199,54475,2,0,L|171:182,4,14.6875,2|0|0|0|0,0:2|0:0|0:0|0:0|0:2,0:0:0:0:
387,144,54697,1,0,3:2:0:0:
405,132,54725,1,0,0:0:0:0:
414,111,54753,1,0,0:0:0:0:
407,89,54781,1,0,0:0:0:0:
384,76,54808,1,0,0:2:0:0:
296,202,54919,5,2,0:2:0:0:
331,206,54975,1,0,0:0:0:0:
366,209,55031,1,0,0:0:0:0:
139,298,55142,1,2,0:2:0:0:
121,298,55169,1,0,0:0:0:0:
104,294,55197,1,0,0:0:0:0:
86,293,55225,1,0,0:0:0:0:
68,290,55253,1,0,0:2:0:0:
252,149,55364,1,0,3:2:0:0:
270,137,55392,1,0,0:0:0:0:
279,116,55420,1,0,0:0:0:0:
272,94,55448,1,0,0:0:0:0:
249,81,55475,1,0,0:0:0:0:
249,81,56031,6,0,L|239:127,6,29.375,6|0|0|0|2|0|0,1:2|0:0|0:0|0:0|0:2|0:0|0:0,0:0:0:0:
426,208,56475,2,0,L|432:233,4,14.6875,0|0|0|0|0,3:2|0:0|0:0|0:0|0:0,0:0:0:0:
208,290,56697,5,2,0:2:0:0:
227,290,56725,1,0,0:0:0:0:
246,289,56753,1,0,0:0:0:0:
265,288,56781,1,0,0:0:0:0:
283,286,56808,1,0,0:2:0:0:
302,284,56836,1,0,0:0:0:0:
325,284,56864,1,0,0:0:0:0:
290,281,56919,1,2,0:2:0:0:
254,277,56975,1,0,0:0:0:0:
218,274,57031,1,0,0:2:0:0:
436,132,57142,5,0,3:0:0:0:
449,150,57169,1,0,0:0:0:0:
436,132,57197,1,0,0:0:0:0:
449,150,57224,1,0,0:0:0:0:
436,132,57253,1,0,0:0:0:0:
449,150,57280,1,0,0:0:0:0:
436,132,57308,1,0,0:0:0:0:
449,150,57335,1,0,0:0:0:0:
436,132,57364,1,0,0:0:0:0:
383,215,57808,5,2,1:3:0:0:
306,212,57919,1,2,3:3:0:0:
229,201,58031,1,2,3:3:0:0:
410,127,58142,2,0,L|462:122,1,29.375,2|0,3:3|0:0,0:0:0:0:
229,201,58253,5,2,3:3:0:0:
138,165,58364,1,2,3:3:0:0:
228,120,58475,1,2,3:3:0:0:
410,127,58586,1,2,3:3:0:0:
325,108,58697,1,2,3:3:0:0:
413,45,58808,2,0,L|372:41,1,29.375,0|0,0:0|0:0,0:0:0:0:
178,328,58919,5,2,3:3:0:0:
100,317,59031,1,2,3:3:0:0:
368,268,59142,1,2,3:3:0:0:
446,257,59254,1,2,3:3:0:0:
89,78,59364,1,2,3:3:0:0:
11,67,59476,1,2,3:3:0:0:
291,125,59586,6,0,P|373:134|388:220,1,176.25,2|0,2:2|0:0,0:0:0:0:
302,222,60031,6,0,L|92:211,1,176.25,2|0,0:2|0:0,0:0:0:0:
220,312,60475,6,0,L|427:316,1,176.25,0|0,0:0|0:2,0:0:0:0:
36,341,60919,6,0,P|43:266|146:204,1,176.25,8|0,0:1|0:2,0:0:0:0:
414,208,61364,6,0,L|479:211,2,58.75,6|0|2,1:2|0:0|0:2,0:0:0:0:
176,202,61697,1,0,1:2:0:0:
409,124,61808,2,0,L|473:120,1,58.75,10|0,0:2|0:2,0:0:0:0:
383,53,62031,2,0,L|457:48,1,58.75,2|0,0:2|0:2,0:0:0:0:
204,281,62253,2,0,L|132:274,1,58.75,2|0,0:2|0:2,0:0:0:0:
332,219,62475,5,2,1:2:0:0:
152,205,62586,1,0,0:0:0:0:
330,147,62697,2,0,L|395:145,1,58.75,8|2,0:2|1:2,0:0:0:0:
192,102,62919,2,0,L|120:98,1,58.75,0|0,0:0|0:0,0:0:0:0:
370,300,63142,5,2,1:2:0:0:
382,224,63253,1,0,0:2:0:0:
394,151,63364,1,2,0:2:0:0:
161,309,63475,1,0,1:2:0:0:
394,151,63586,2,0,L|399:217,1,58.75,10|0,0:2|0:0,0:0:0:0:
496,205,63808,2,0,L|492:284,1,58.75,0|0,0:2|1:2,0:0:0:0:
251,317,64031,2,0,L|245:258,1,58.75,2|2,0:2|0:2,0:0:0:0:
429,204,64253,5,2,1:2:0:0:
246,171,64364,1,0,0:0:0:0:
429,204,64475,2,0,L|358:202,1,58.75,10|2,0:2|0:2,0:0:0:0:
185,201,64697,2,0,L|125:200,1,58.75,0|0,0:0|0:0,0:0:0:0:
367,102,64919,5,2,1:2:0:0:
276,96,65031,1,2,1:2:0:0:
367,102,65142,1,2,1:2:0:0:
130,85,65253,1,2,1:2:0:0:
365,283,65364,2,0,L|290:278,1,58.75,10|0,0:2|0:0,0:0:0:0:
126,215,65586,2,0,L|202:209,1,58.75,0|2,0:2|0:2,0:0:0:0:
424,97,65808,6,0,L|426:165,1,58.75,0|0,0:0|0:2,0:0:0:0:
338,180,66031,2,0,L|334:249,1,58.75,2|0,1:2|0:2,0:0:0:0:
156,299,66253,2,0,L|93:303,1,58.75,10|0,0:2|0:0,0:0:0:0:
282,339,66475,2,0,L|352:342,1,58.75,2|0,1:2|0:0,0:0:0:0:
94,161,66697,5,2,1:2:0:0:
272,152,66808,1,0,0:0:0:0:
448,134,66919,1,2,1:2:0:0:
453,185,66994,1,0,1:2:0:0:
458,235,67068,1,0,1:2:0:0:
280,265,67142,2,0,L|204:259,1,58.75,10|0,0:2|0:0,0:0:0:0:
400,68,67364,2,0,L|311:60,1,58.75,0|0,0:0|0:2,0:0:0:0:
105,330,67586,5,2,1:2:0:0:
188,303,67697,1,0,0:0:0:0:
107,247,67808,1,0,1:2:0:0:
358,141,67919,2,0,L|432:136,1,58.75,10|0,0:2|0:2,0:0:0:0:
107,247,68142,1,8,0:2:0:0:
25,201,68253,1,2,1:2:0:0:
111,161,68364,1,0,0:0:0:0:
314,261,68475,6,0,L|394:262,1,58.75,6|0,1:2|0:0,0:0:0:0:
288,181,68697,2,0,L|227:179,1,58.75,2|2,3:2|0:3,0:0:0:0:
411,116,68919,2,0,L|479:113,1,58.75,10|0,0:2|0:0,0:0:0:0:
262,97,69142,5,2,3:2:0:0:
168,97,69253,1,0,0:0:0:0:
161,173,69364,1,2,1:2:0:0:
154,248,69475,1,2,0:3:0:0:
325,280,69586,2,0,L|331:347,1,58.75,2|0,3:2|0:2,0:0:0:0:
500,196,69808,2,0,L|417:191,1,58.75,10|0,0:2|0:2,0:0:0:0:
249,194,70031,2,0,L|178:192,1,58.75,2|2,3:2|3:3,0:0:0:0:
401,93,70253,6,0,L|485:79,1,78.3333333333333,2|0,1:2|0:0,0:0:0:0:
315,291,70475,2,0,L|208:278,1,78.3333333333333,2|0,3:2|0:0,0:0:0:0:
383,205,70697,2,0,L|450:197,1,58.75,10|2,0:2|0:3,0:0:0:0:
252,143,70919,2,0,L|354:132,1,78.3333333333333,2|0,3:2|0:0,0:0:0:0:
133,179,71142,6,0,L|122:276,1,78.3333333333333,2|0,1:2|0:0,0:0:0:0:
379,179,71364,2,0,L|390:276,1,78.3333333333333,2|0,3:2|0:0,0:0:0:0:
133,180,71586,2,0,L|46:184,1,78.3333333333333,10|0,0:2|0:0,0:0:0:0:
379,180,71808,2,0,L|457:182,1,58.75,2|0,3:2|3:0,0:0:0:0:
135,341,72031,6,0,P|77:329|112:235,1,176.25,6|2,1:2|0:2,0:0:0:0:
348,230,72697,2,0,L|416:227,1,58.75,2|0,0:2|1:2,0:0:0:0:
228,140,72919,2,0,L|159:137,1,58.75,8|2,0:2|0:2,0:0:0:0:
228,140,73142,2,0,L|294:142,1,58.75,0|0,0:0|0:2,0:0:0:0:
470,316,73364,1,2,1:2:0:0:
291,309,73475,1,2,0:2:0:0:
110,298,73586,1,2,0:2:0:0:
35,291,73697,1,2,0:2:0:0:
284,257,73808,5,2,1:3:0:0:
353,226,73919,1,2,3:3:0:0:
376,181,74031,1,2,3:3:0:0:
351,143,74142,1,2,3:3:0:0:
264,104,74253,2,0,L|327:105,1,58.75,2|2,3:3|3:3,0:0:0:0:
381,56,74475,2,0,L|310:54,1,58.75,2|2,3:3|3:3,0:0:0:0:
130,243,74697,6,0,L|195:244,1,58.75,10|2,0:2|3:2,0:0:0:0:
281,242,74919,1,8,0:3:0:0:
320,242,74994,1,8,0:3:0:0:
359,240,75068,1,8,0:3:0:0:
115,131,75142,1,8,1:3:0:0:
60,131,75216,2,0,L|55:185,1,39.1666666666667,0|0,1:2|1:2,0:0:0:0:
397,131,75364,1,8,1:3:0:0:
452,131,75438,2,0,L|457:185,1,39.1666666666667,0|0,1:0|1:0,0:0:0:0:
162,331,75586,6,0,L|29:319,1,117.5,6|2,1:2|0:2,0:0:0:0:
226,255,75919,1,0,0:2:0:0:
52,171,76031,2,0,L|116:168,1,58.75,10|0,0:2|0:2,0:0:0:0:
287,154,76253,2,0,L|357:150,1,58.75,2|0,0:2|0:2,0:0:0:0:
166,85,76475,1,2,1:2:0:0:
339,72,76586,2,0,L|410:70,1,58.75,8|0,3:2|0:0,0:0:0:0:
212,328,76808,2,0,L|76:331,1,117.5,2|0,1:2|0:0,0:0:0:0:
189,210,77142,2,0,L|193:276,1,58.75,2|2,1:2|0:2,0:0:0:0:
397,306,77364,6,0,L|404:180,1,117.5,2|2,1:2|0:2,0:0:0:0:
216,167,77697,1,0,0:2:0:0:
403,188,77808,2,0,L|408:122,1,58.75,10|0,0:2|0:2,0:0:0:0:
216,167,78031,2,0,L|210:237,1,58.75,2|0,0:2|0:2,0:0:0:0:
408,129,78253,1,2,1:2:0:0:
216,167,78364,2,0,L|210:248,1,58.75,8|0,1:2|0:0,0:0:0:0:
397,306,78586,2,0,L|404:180,1,117.5,2|0,1:2|0:0,0:0:0:0:
312,212,78919,2,0,L|306:283,1,58.75,2|0,1:2|0:0,0:0:0:0:
126,115,79142,5,2,1:2:0:0:
90,127,79197,1,0,0:0:0:0:
55,150,79253,1,0,0:0:0:0:
37,186,79308,1,0,0:0:0:0:
36,227,79364,1,0,3:2:0:0:
57,261,79419,1,0,0:0:0:0:
93,280,79475,1,0,0:0:0:0:
279,316,79586,2,0,L|207:310,1,58.75,2|0,1:2|3:2,0:0:0:0:
131,257,79808,2,0,L|199:251,1,58.75,2|0,3:2|1:2,0:0:0:0:
411,183,80031,5,14,0:2:0:0:
313,147,80179,1,2,0:2:0:0:
412,108,80327,1,2,0:2:0:0:
170,94,80475,2,0,L|116:90,2,39.1666666666667,2|0|2,0:2|0:2|0:2,0:0:0:0:
342,94,80697,2,0,L|396:90,2,39.1666666666667,0|2|0,0:2|0:2|0:2,0:0:0:0:
148,293,80919,6,0,L|16:282,1,117.5,4|0,1:2|0:2,0:0:0:0:
88,269,81253,1,0,1:2:0:0:
280,205,81364,2,0,L|148:194,1,117.5,8|0,0:2|1:2,0:0:0:0:
220,181,81698,1,0,1:2:0:0:
422,320,81808,2,0,P|465:283|408:247,1,117.5,2|0,1:2|3:2,0:0:0:0:
375,238,82142,1,2,3:2:0:0:
178,137,82253,2,0,L|316:131,1,117.5,8|2,3:2|3:2,0:0:0:0:
234,135,82586,1,0,3:2:0:0:
46,339,82697,6,0,P|24:272|104:198,1,176.25,6|0,1:2|1:2,0:0:0:0:
281,202,83142,2,0,L|351:204,1,58.75,8|0,0:2|0:0,0:0:0:0:
159,89,83364,1,0,0:2:0:0:
88,84,83475,1,0,0:0:0:0:
159,89,83586,1,0,0:2:0:0:
354,93,83697,1,8,0:2:0:0:
159,89,83808,6,0,L|87:85,1,58.75,2|0,1:2|0:0,0:0:0:0:
297,299,84031,2,0,L|377:304,1,58.75,10|0,0:2|0:0,0:0:0:0:
100,85,84253,2,0,L|171:88,1,58.75,2|0,0:2|0:0,0:0:0:0:
453,105,84475,1,8,0:2:0:0:
158,87,84586,1,0,1:2:0:0:
73,311,86253,6,0,L|213:302,1,117.5,6|0,1:2|0:0,0:0:0:0:
379,234,86586,1,2,1:2:0:0:
449,226,86697,2,0,L|454:158,1,58.75,8|0,0:2|0:0,0:0:0:0:
256,161,86919,6,0,L|121:152,1,117.5,2|0,0:2|0:2,0:0:0:0:
353,321,87253,1,10,0:2:0:0:
423,326,87364,1,0,1:2:0:0:
353,321,87475,1,0,0:0:0:0:
113,240,87586,2,0,P|90:283|117:289,1,78.3333333333333,10|0,1:2|0:0,0:0:0:0:
418,167,87808,2,0,P|453:201|387:244,1,117.5,2|0,1:2|0:0,0:0:0:0:
