osu file format v14

[General]
AudioFilename: audio.mp3
AudioLeadIn: 0
PreviewTime: 59919
Countdown: 0
SampleSet: Soft
StackLeniency: 0.7
Mode: 2
LetterboxInBreaks: 0
WidescreenStoryboard: 1

[Editor]
Bookmarks: 920,11586,32919
DistanceSpacing: 1.6
BeatDivisor: 4
GridSize: 32
TimelineZoom: 1.6

[Metadata]
Title:Gurenge feat. Un3h [ dj-Jo Remix ] TV Size
TitleUnicode:紅蓮華 feat. Un3h [ dj-Jo Remix ] TV Size
Artist:LiSA
ArtistUnicode:LiSA
Creator:Jemzuu
Version:Cup
Source:鬼滅の刃
Tags:ajamez dust du5t idust idu5t rew0825 greaper [_-Kukkai-_] demon slayer kimetsu no yaiba 通常盤 anime japanese op electronic opening edit tech dnb drum and bass n d&b dubstep trap hardcore
BeatmapID:2901446
BeatmapSetID:1400050

[Difficulty]
HPDrainRate:3
CircleSize:2.5
OverallDifficulty:6
ApproachRate:6
SliderMultiplier:1.6
SliderTickRate:1

[Events]
//Background and Video events
0,0,"bg661.jpg",0,0
//Break Periods
2,47342,53203
//Storyboard Layer 0 (Background)
//Storyboard Layer 1 (Fail)
//Storyboard Layer 2 (Pass)
//Storyboard Layer 3 (Foreground)
//Storyboard Layer 4 (Overlay)
//Storyboard Sound Samples

[TimingPoints]
920,444.444444444444,4,2,1,52,1,0
920,-100,4,2,1,52,0,0
11586,-100,4,2,1,52,0,0
12253,-100,4,2,1,52,0,0
13364,-100,4,2,1,52,0,0
14031,-100,4,2,1,52,0,0
14697,-100,4,2,1,52,0,0
15142,-100,4,2,1,52,0,0
15808,-100,4,2,1,52,0,0
17586,-100,4,2,1,52,0,0
18253,-100,4,2,1,52,0,0
18697,-100,4,2,1,52,0,0
24919,-100,4,2,1,52,0,0
25364,-100,4,2,1,52,0,0
28031,-100,4,2,1,52,0,0
28364,-100,4,2,1,52,0,0
31142,-100,4,2,1,52,0,0
32031,-100,4,2,1,52,0,0
32919,-100,4,2,1,52,0,0
33364,-100,4,2,1,52,0,0
33808,-100,4,2,1,52,0,0
34697,-100,4,2,1,52,0,0
36031,-100,4,2,1,52,0,0
36475,-100,4,2,1,52,0,0
36919,-100,4,2,1,52,0,0
37364,-100,4,2,1,52,0,0
37586,-100,4,2,1,52,0,0
37808,-100,4,2,1,52,0,0
38030,-100,4,2,1,52,0,0
38253,-100,4,2,1,52,0,0
40031,-100,4,2,1,52,0,0
40475,-100,4,2,1,52,0,0
41031,-100,4,2,1,52,0,0
41364,-100,4,2,1,52,0,0
41808,-100,4,2,1,52,0,0
43142,-100,4,2,1,52,0,0
43586,-100,4,2,1,52,0,0
44031,-100,4,2,1,52,0,0
45364,-100,4,2,1,52,0,0
47142,-100,4,2,4,52,0,0
47475,-100,4,2,1,52,0,0
49586,-100,4,2,1,52,0,0
54253,-100,4,2,1,52,0,0
54697,-100,4,2,1,52,0,0
54919,-100,4,2,1,52,0,0
55364,-100,4,2,1,52,0,0
56031,-100,4,2,1,52,0,0
56475,-100,4,2,1,52,0,0
56697,-100,4,2,1,52,0,0
57142,-100,4,2,1,52,0,0
57808,-100,4,2,1,60,0,0
59586,-100,4,2,1,60,0,0
60031,-100,4,2,1,60,0,0
60919,-100,4,2,1,60,0,0
61364,-100,4,2,1,70,0,1
62475,-100,4,2,1,70,0,1
62642,-100,4,2,1,70,0,1
62697,-100,4,2,1,70,0,1
62753,-100,4,2,1,70,0,1
62808,-100,4,2,1,70,0,1
63086,-100,4,2,1,70,0,1
63142,-100,4,2,1,70,0,1
64253,-100,4,2,1,70,0,1
64419,-100,4,2,1,70,0,1
64475,-100,4,2,1,70,0,1
64531,-100,4,2,1,70,0,1
64586,-100,4,2,1,70,0,1
64919,-100,4,2,1,70,0,1
64975,-100,4,2,1,70,0,1
65031,-100,4,2,1,70,0,1
65086,-100,4,2,1,70,0,1
65142,-100,4,2,1,70,0,1
65197,-100,4,2,1,70,0,1
65253,-100,4,2,1,70,0,1
65308,-100,4,2,1,70,0,1
65364,-100,4,2,1,70,0,1
65697,-100,4,2,1,70,0,1
66253,-100,4,2,1,70,0,1
66419,-100,4,2,1,70,0,1
66475,-100,4,2,1,70,0,1
66642,-100,4,2,1,70,0,1
66697,-100,4,2,1,70,0,1
67142,-100,4,2,1,70,0,1
67586,-100,4,2,1,70,0,1
68475,-100,4,2,1,52,0,0
70253,-100,4,2,1,52,0,0
72031,-100,4,2,1,52,0,0
73808,-100,4,2,1,52,0,0
75142,-100,4,2,1,52,0,0
75586,-100,4,2,1,70,0,1
79142,-100,4,2,1,70,0,1
80031,-100,4,2,1,70,0,0
80549,-100,4,2,1,70,0,0
80623,-100,4,2,1,70,0,0
80697,-100,4,2,1,70,0,0
80771,-100,4,2,1,70,0,0
80845,-100,4,2,1,70,0,0
80919,-100,4,2,1,70,0,1
82697,-100,4,2,1,70,0,1
83364,-100,4,2,1,70,0,1
84031,-100,4,2,1,70,0,1
84586,-100,4,2,1,52,0,0
86253,-100,4,2,1,52,0,0
87586,-100,4,2,1,52,0,0

[Colours]
Combo1 : 94,255,255
Combo2 : 255,128,128
Combo3 : 83,255,169

[HitObjects]
154,196,920,5,2,0:2:0:0:
277,193,1253,1,2,0:2:0:0:
401,192,1586,1,2,0:2:0:0:
381,329,2697,5,2,0:2:0:0:
259,337,3031,1,2,0:2:0:0:
137,353,3364,1,2,0:2:0:0:
104,151,4475,5,2,0:2:0:0:
235,136,4808,1,2,0:2:0:0:
104,151,5142,1,2,0:2:0:0:
435,265,6253,5,2,0:2:0:0:
304,250,6586,1,2,0:2:0:0:
435,265,6920,1,2,0:2:0:0:
290,346,7364,2,0,L|199:350,1,80,2|2,0:2|0:2,0:0:0:0:
37,257,8031,5,2,0:2:0:0:
144,222,8364,1,0,0:2:0:0:
268,200,8697,2,0,L|413:129,2,160,0|0|0,0:2|0:2|0:0,0:0:0:0:
154,215,9808,6,0,P|102:204|188:35,1,320,2|0,0:2|0:0,0:0:0:0:
448,92,11586,6,0,L|458:222,1,120,6|2,1:2|1:2,0:0:0:0:
331,250,12253,2,0,L|180:273,1,120,2|10,0:2|0:2,0:0:0:0:
346,338,12919,2,0,L|368:289,2,40,10|2|2,0:2|0:2|0:2,0:0:0:0:
235,350,13364,6,0,L|366:324,1,120,6|0,1:2|0:0,0:0:0:0:
246,262,14031,2,0,L|113:251,1,120,2|10,0:2|0:2,0:0:0:0:
18,143,14697,2,0,L|64:145,1,40,10|2,0:2|1:2,0:0:0:0:
221,63,15142,6,0,L|84:64,1,120,6|2,1:2|1:2,0:0:0:0:
219,166,15808,2,0,L|235:300,1,120,2|10,0:2|0:2,0:0:0:0:
369,318,16475,2,0,L|421:323,2,40,10|2|2,0:2|0:2|0:2,0:0:0:0:
256,235,16919,6,0,L|383:217,1,120,2|0,1:2|0:0,0:0:0:0:
495,121,17586,2,0,L|355:110,1,120,2|10,0:2|0:2,0:0:0:0:
250,121,18253,1,10,0:2:0:0:
445,37,18697,6,0,L|465:201,1,160,6|0,1:2|3:2,0:0:0:0:
381,218,19364,1,2,0:2:0:0:
234,246,19808,2,0,L|227:137,1,80,0|0,1:2|3:2,0:0:0:0:
405,62,20475,6,0,L|303:44,1,80,2|0,1:2|1:2,0:0:0:0:
241,52,20919,1,0,3:2:0:0:
72,95,21364,2,0,L|60:186,1,80,0|0,3:2|1:2,0:0:0:0:
150,186,21808,2,0,L|163:271,1,80,0|0,3:2|3:2,0:0:0:0:
267,284,22253,6,0,L|357:291,1,80,2|0,1:2|1:2,0:0:0:0:
258,329,22697,2,0,L|85:346,1,160,0|0,3:2|0:2,0:0:0:0:
57,279,23364,1,0,1:2:0:0:
91,210,23586,1,0,3:2:0:0:
167,203,23808,1,0,0:2:0:0:
251,197,24031,6,0,L|338:188,2,80,2|0|0,1:2|1:2|3:2,0:0:0:0:
419,97,24919,2,0,L|429:201,1,80,0|0,3:2|0:0,0:0:0:0:
343,210,25364,1,0,1:2:0:0:
303,212,25475,1,0,1:2:0:0:
263,214,25586,1,0,3:2:0:0:
372,294,25808,6,0,L|492:318,1,120,6|0,1:2|3:2,0:0:0:0:
348,359,26475,2,0,P|290:349|307:245,1,160,2|0,0:2|1:2,0:0:0:0:
368,210,27142,2,0,L|486:185,1,120,0|0,3:2|3:2,0:0:0:0:
445,165,27586,5,2,1:2:0:0:
358,135,27808,1,0,3:2:0:0:
269,125,28031,1,0,3:2:0:0:
141,154,28364,6,0,L|135:103,1,40,0|0,3:2|0:2,0:0:0:0:
216,84,28697,1,0,1:2:0:0:
297,51,28919,2,0,L|202:50,1,80,0|0,3:2|1:2,0:0:0:0:
118,62,29364,6,0,L|116:160,1,80,2|0,1:2|1:2,0:0:0:0:
203,172,29808,2,0,L|379:205,1,160,0|0,3:2|0:2,0:0:0:0:
289,264,30475,1,0,1:2:0:0:
205,287,30697,1,0,3:2:0:0:
34,179,31142,6,0,L|162:158,2,120,2|2|2,1:3|3:3|3:3,0:0:0:0:
120,239,32031,6,0,L|296:260,1,160,2|2,3:3|1:3,0:0:0:0:
299,278,32586,1,0,0:0:0:0:
278,257,32697,1,2,3:3:0:0:
192,253,32919,1,0,1:0:0:0:
384,310,33364,6,0,L|385:149,1,160,4|0,1:3|1:0,0:0:0:0:
297,125,34031,1,2,0:0:0:0:
207,115,34253,1,8,1:0:0:0:
381,55,34697,6,0,L|497:175,1,160,0|8,1:0|1:0,0:0:0:0:
412,215,35364,1,2,0:0:0:0:
320,226,35586,2,0,L|317:318,1,80,0|0,1:0|0:0,0:0:0:0:
411,333,36031,2,0,L|324:348,1,80,8|0,1:0|1:0,0:0:0:0:
239,357,36475,6,0,L|229:184,1,160,0|8,1:0|1:0,0:0:0:0:
64,109,37364,2,0,L|152:93,1,80,0|2,1:0|0:0,0:0:0:0:
229,44,37808,2,0,L|144:34,1,80,8|2,1:0|0:0,0:0:0:0:
54,59,38253,6,0,L|41:204,1,120,0|0,1:0|1:0,0:0:0:0:
84,195,38697,1,8,1:0:0:0:
173,232,38919,1,0,1:0:0:0:
265,251,39142,6,0,L|264:304,1,40,0|0,1:0|1:0,0:0:0:0:
121,354,39586,2,0,L|114:267,1,80,8|0,1:0|0:0,0:0:0:0:
200,251,40031,1,0,1:0:0:0:
396,146,40475,6,0,L|304:136,1,80,8|0,1:0|0:0,0:0:0:0:
228,134,40919,1,0,1:0:0:0:
408,46,41364,2,0,L|494:37,1,80,8|2,1:0|0:0,0:0:0:0:
386,135,41808,6,0,L|197:166,1,160,0|8,1:0|1:0,0:0:0:0:
189,226,42475,1,0,0:0:0:0:
231,290,42697,1,2,1:2:0:0:
309,292,42919,1,2,0:0:0:0:
228,313,43142,1,8,1:0:0:0:
31,141,43586,6,0,L|202:119,1,160,0|8,1:0|1:0,0:0:0:0:
270,91,44253,1,0,3:0:0:0:
117,62,44697,1,0,3:0:0:0:
279,182,45142,1,0,3:0:0:0:
361,209,45364,6,0,L|490:226,2,120,4|8|0,1:2|0:2|0:2,0:0:0:0:
270,211,46253,2,0,L|248:164,2,40,8|0|8,0:3|0:3|0:3,0:0:0:0:
354,264,46697,1,8,0:2:0:0:
439,270,46919,1,8,0:3:0:0:
312,345,47142,5,6,1:2:0:0:
63,241,54253,6,0,L|56:155,1,80,2|2,0:2|0:2,0:0:0:0:
146,137,54697,2,0,L|240:129,1,80,0|2,3:2|0:2,0:0:0:0:
140,111,55142,1,2,0:2:0:0:
227,133,55364,1,0,3:2:0:0:
452,150,56031,6,0,L|459:236,1,80,6|2,1:2|0:2,0:0:0:0:
369,254,56475,2,0,L|275:262,1,80,0|2,3:2|0:2,0:0:0:0:
375,280,56920,1,2,0:2:0:0:
288,258,57142,1,0,3:2:0:0:
45,282,57808,6,0,L|35:189,1,80,2|2,1:3|3:3,0:0:0:0:
123,179,58253,2,0,L|214:173,1,80,2|2,3:3|3:3,0:0:0:0:
286,117,58697,1,2,3:3:0:0:
197,92,58919,2,0,L|93:95,1,80,2|2,3:3|3:3,0:0:0:0:
201,58,59364,1,2,3:3:0:0:
298,50,59586,5,2,2:2:0:0:
454,77,60031,2,0,P|370:118|486:264,1,320,2|8,0:2|0:1,0:0:0:0:
274,321,61364,6,0,L|137:317,1,120,6|0,1:2|1:2,0:0:0:0:
197,282,61808,1,10,0:2:0:0:
363,262,62253,2,0,L|369:158,1,80,2|2,0:2|1:2,0:0:0:0:
281,132,62697,2,0,L|215:133,1,40,8|2,0:2|1:2,0:0:0:0:
95,187,63142,6,0,L|89:59,1,120,2|0,1:2|1:2,0:0:0:0:
132,54,63586,1,10,0:2:0:0:
265,186,63919,2,0,L|206:180,1,40,0|2,1:2|0:2,0:0:0:0:
141,215,64253,1,2,1:2:0:0:
225,181,64475,2,0,L|285:177,1,40,10|2,0:2|0:2,0:0:0:0:
116,330,64919,6,0,L|86:285,2,40,2|2|2,1:2|1:2|1:2,0:0:0:0:
208,341,65364,2,0,L|347:326,2,120,10|2|2,0:2|0:2|1:2,0:0:0:0:
123,349,66253,2,0,L|116:257,1,80,10|2,0:2|1:2,0:0:0:0:
217,229,66697,6,0,L|316:209,1,80,2|2,1:2|1:2,0:0:0:0:
198,192,67142,1,10,0:2:0:0:
383,106,67586,6,0,L|504:140,2,120,2|10|2,1:2|0:2|1:2,0:0:0:0:
279,113,68475,6,0,L|267:284,1,160,6|10,1:2|0:2,0:0:0:0:
97,357,69364,2,0,L|187:341,1,80,2|2,1:2|3:2,0:0:0:0:
263,280,69808,2,0,L|164:275,1,80,10|2,0:2|3:2,0:0:0:0:
86,275,70253,6,0,L|66:108,1,160,2|10,1:2|0:2,0:0:0:0:
149,89,70919,1,2,3:2:0:0:
241,70,71142,2,0,L|255:162,1,80,2|2,1:2|3:2,0:0:0:0:
160,157,71586,2,0,L|150:253,1,80,10|2,0:2|3:2,0:0:0:0:
260,248,72031,6,0,L|400:252,2,120,6|2|2,1:2|0:2|0:2,0:0:0:0:
175,262,72919,1,8,0:2:0:0:
342,343,73364,1,2,1:2:0:0:
381,344,73475,1,2,0:2:0:0:
421,346,73586,1,2,0:2:0:0:
320,260,73808,6,0,L|180:259,2,120,2|2|2,1:3|3:3|3:3,0:0:0:0:
404,249,74697,2,0,L|408:158,1,80,10|8,0:2|0:3,0:0:0:0:
321,137,75142,1,8,1:3:0:0:
114,67,75586,6,0,L|280:39,1,160,6|10,1:2|0:2,0:0:0:0:
103,216,76475,2,0,L|52:216,1,40,2|8,1:2|3:2,0:0:0:0:
189,317,76919,2,0,L|281:322,1,80,8|2,0:2|1:2,0:0:0:0:
168,345,77364,6,0,L|6:295,1,160,2|10,1:2|0:2,0:0:0:0:
178,215,78253,2,0,L|239:206,1,40,2|8,1:2|1:2,0:0:0:0:
340,135,78697,2,0,L|246:118,1,80,8|2,0:2|1:2,0:0:0:0:
152,206,79142,6,0,P|130:155|207:86,1,160,2|2,1:2|1:2,0:0:0:0:
372,50,80031,2,0,L|281:60,1,80,14|0,0:2|0:0,0:0:0:0:
206,114,80475,2,0,L|306:128,1,80,2|0,0:2|0:2,0:0:0:0:
392,131,80919,6,0,L|404:300,1,160,4|8,1:2|0:2,0:0:0:0:
227,331,81808,2,0,L|85:329,2,120,2|2|2,1:2|3:2|3:2,0:0:0:0:
325,341,82697,6,0,L|343:204,1,120,6|0,1:2|1:2,0:0:0:0:
215,167,83364,2,0,L|70:151,1,120,0|8,0:2|0:2,0:0:0:0:
228,77,84031,2,0,L|315:60,1,80,10|2,0:2|0:2,0:0:0:0:
197,40,84475,6,0,L|141:40,1,40,8|0,0:2|1:2,0:0:0:0:
256,192,85364,12,0,85808,0:0:0:0:
270,80,86253,6,0,L|280:229,1,120,6|2,1:2|1:2,0:0:0:0:
151,240,86919,2,0,L|15:261,1,120,2|10,0:2|0:2,0:0:0:0:
200,345,87586,6,0,L|209:259,1,80,10|2,1:2|1:2,0:0:0:0:
