osu file format v14

[General]
AudioFilename: audio.mp3
AudioLeadIn: 0
PreviewTime: 60031
Countdown: 0
SampleSet: Normal
StackLeniency: 0.7
Mode: 1
LetterboxInBreaks: 0
WidescreenStoryboard: 1

[Editor]
DistanceSpacing: 1.1
BeatDivisor: 4
GridSize: 32
TimelineZoom: 1

[Metadata]
Title:Gurenge feat. Un3h [ dj-Jo Remix ] TV Size
TitleUnicode:紅蓮華 feat. Un3h [ dj-Jo Remix ] TV Size
Artist:LiSA
ArtistUnicode:LiSA
Creator:Chromoxx
Version:Oni
Source:鬼滅の刃
Tags:demon slayer kimetsu no yaiba きめつのやいば 通常盤 anime japanese op opening edit tech dnb drum n bass
BeatmapID:2393992
BeatmapSetID:1146285

[Difficulty]
HPDrainRate:5
CircleSize:5
OverallDifficulty:6
ApproachRate:5
SliderMultiplier:1.4
SliderTickRate:1

[Events]
//Background and Video events
0,0,"bg.jpg",0,-100
//Break Periods
//Storyboard Layer 0 (Background)
//Storyboard Layer 1 (Fail)
//Storyboard Layer 2 (Pass)
//Storyboard Layer 3 (Foreground)
//Storyboard Layer 4 (Overlay)
//Storyboard Sound Samples

[TimingPoints]
920,444.444444444444,4,1,0,60,1,0
11475,-100,4,1,0,80,0,0
18586,-100,4,1,0,70,0,0
47253,-100,4,1,0,60,0,0
54142,-100,4,1,0,70,0,0
60808,-100,4,1,0,80,0,0
61253,-100,4,1,0,90,0,0
61364,-100,4,1,0,90,0,1
84586,-100,4,1,0,90,0,0
86253,-100,4,1,0,80,0,1
87586,-100,4,1,0,80,0,1
87808,-100,4,1,0,80,0,0

[HitObjects]
262,141,920,5,0,0:0:0:0:
262,141,1253,1,0,0:0:0:0:
262,141,1586,1,8,0:0:0:0:
261,141,2697,1,8,0:0:0:0:
261,141,3031,1,0,0:0:0:0:
261,141,3364,1,8,0:0:0:0:
249,189,4253,1,0,0:0:0:0:
249,189,4475,1,8,0:0:0:0:
249,189,4808,1,8,0:0:0:0:
170,230,5142,1,0,0:0:0:0:
170,230,6253,1,0,0:0:0:0:
237,243,6586,1,8,0:0:0:0:
237,243,6919,1,0,0:0:0:0:
237,243,7364,1,8,0:0:0:0:
256,192,8031,12,0,9586,0:0:0:0:
256,192,9808,12,0,10697,0:0:0:0:
266,199,11586,5,12,0:0:0:0:
215,262,11919,1,0,0:0:0:0:
286,271,12031,1,8,0:0:0:0:
286,271,12253,1,0,0:0:0:0:
274,230,12586,1,8,0:0:0:0:
148,112,12697,1,0,0:0:0:0:
195,251,12919,1,8,0:0:0:0:
91,114,13031,1,8,0:0:0:0:
91,121,13142,1,8,0:0:0:0:
91,121,13253,1,8,0:0:0:0:
63,157,13364,1,0,0:0:0:0:
339,146,13586,1,0,0:0:0:0:
339,146,13660,1,0,0:0:0:0:
339,146,13734,1,0,0:0:0:0:
339,146,13808,1,8,0:0:0:0:
339,146,14031,1,0,0:0:0:0:
309,276,14364,1,8,0:0:0:0:
254,259,14475,1,0,0:0:0:0:
387,104,14697,1,8,0:0:0:0:
387,104,14771,1,8,0:0:0:0:
381,111,14845,1,8,0:0:0:0:
381,111,14919,1,8,0:0:0:0:
220,274,15142,1,4,0:0:0:0:
209,292,15475,1,8,0:0:0:0:
200,268,15586,1,0,0:0:0:0:
263,194,15808,1,8,0:0:0:0:
263,194,16142,1,0,0:0:0:0:
199,243,16253,1,8,0:0:0:0:
193,227,16475,1,0,0:0:0:0:
175,235,16586,1,0,0:0:0:0:
127,261,16697,1,0,0:0:0:0:
175,235,16808,1,0,0:0:0:0:
124,272,16919,1,8,0:0:0:0:
355,181,17142,1,8,0:0:0:0:
355,181,17216,1,8,0:0:0:0:
355,181,17290,1,8,0:0:0:0:
355,181,17364,1,0,0:0:0:0:
290,231,17586,1,8,0:0:0:0:
204,293,17919,1,8,0:0:0:0:
251,173,18031,1,0,0:0:0:0:
215,259,18142,1,0,0:0:0:0:
194,247,18253,1,8,0:0:0:0:
221,243,18697,1,4,0:0:0:0:
203,208,19142,1,8,0:0:0:0:
360,112,19364,1,0,0:0:0:0:
203,208,19808,1,0,0:0:0:0:
203,208,20031,1,8,0:0:0:0:
150,127,20364,1,8,0:0:0:0:
203,208,20475,1,0,0:0:0:0:
203,208,20697,1,0,0:0:0:0:
263,177,20919,1,8,0:0:0:0:
232,227,21364,1,0,0:0:0:0:
210,253,21475,1,8,0:0:0:0:
205,264,21586,1,0,0:0:0:0:
205,264,21808,1,8,0:0:0:0:
198,243,22031,1,8,0:0:0:0:
194,282,22142,1,8,0:0:0:0:
205,240,22253,1,0,0:0:0:0:
238,208,22475,1,0,0:0:0:0:
295,128,22697,1,8,0:0:0:0:
271,258,23142,1,8,0:0:0:0:
440,271,23364,1,0,0:0:0:0:
196,255,23586,1,8,0:0:0:0:
196,255,24031,1,0,0:0:0:0:
222,155,24253,1,0,0:0:0:0:
196,255,24475,1,8,0:0:0:0:
198,155,24697,1,8,0:0:0:0:
46,119,24808,1,8,0:0:0:0:
46,119,24919,1,8,0:0:0:0:
55,120,25142,1,0,0:0:0:0:
55,122,25364,1,0,0:0:0:0:
288,229,25475,1,8,0:0:0:0:
288,229,25586,1,8,0:0:0:0:
256,251,25808,1,0,0:0:0:0:
220,250,26253,1,8,0:0:0:0:
253,203,26475,1,0,0:0:0:0:
198,229,26919,1,0,0:0:0:0:
198,229,27142,1,8,0:0:0:0:
330,243,27475,1,8,0:0:0:0:
181,264,27586,1,0,0:0:0:0:
202,220,27808,1,0,0:0:0:0:
198,279,28031,1,8,0:0:0:0:
208,233,28253,1,0,0:0:0:0:
208,233,28364,1,0,0:0:0:0:
158,99,28475,1,8,0:0:0:0:
268,275,28697,1,0,0:0:0:0:
238,299,28919,1,8,0:0:0:0:
237,262,29031,1,0,0:0:0:0:
204,255,29142,1,8,0:0:0:0:
204,255,29364,1,0,0:0:0:0:
198,251,29586,1,0,0:0:0:0:
204,255,29808,1,8,0:0:0:0:
315,126,30253,1,8,0:0:0:0:
315,126,30475,1,0,0:0:0:0:
315,126,30697,1,8,0:0:0:0:
241,187,30919,1,8,0:0:0:0:
270,238,31142,1,0,0:0:0:0:
270,238,31253,1,0,0:0:0:0:
253,282,31364,1,0,0:0:0:0:
253,282,31475,1,0,0:0:0:0:
221,304,31586,1,8,0:0:0:0:
220,295,31808,1,0,0:0:0:0:
399,194,32031,1,8,0:0:0:0:
399,194,32105,1,8,0:0:0:0:
399,194,32179,1,8,0:0:0:0:
399,194,32253,1,8,0:0:0:0:
399,194,32475,1,0,0:0:0:0:
396,201,32549,1,0,0:0:0:0:
396,201,32623,1,0,0:0:0:0:
396,201,32697,1,8,0:0:0:0:
121,122,32919,1,0,0:0:0:0:
219,218,33364,1,8,0:0:0:0:
219,218,33808,1,0,0:0:0:0:
235,248,34031,1,0,0:0:0:0:
238,259,34142,1,0,0:0:0:0:
116,93,34253,1,8,0:0:0:0:
116,93,34475,1,8,0:0:0:0:
116,93,34586,1,8,0:0:0:0:
116,93,34697,1,0,0:0:0:0:
260,195,35142,1,8,0:0:0:0:
185,207,35364,1,8,0:0:0:0:
185,207,35586,1,0,0:0:0:0:
205,299,35697,1,0,0:0:0:0:
185,207,35919,1,8,0:0:0:0:
206,306,36031,1,8,0:0:0:0:
110,121,36253,1,0,0:0:0:0:
267,272,36475,1,8,0:0:0:0:
267,272,36919,1,0,0:0:0:0:
180,260,37031,1,8,0:0:0:0:
143,296,37253,1,8,0:0:0:0:
165,303,37364,1,0,0:0:0:0:
206,305,37586,1,0,0:0:0:0:
273,253,37808,1,8,0:0:0:0:
249,289,38253,1,0,0:0:0:0:
236,285,38364,1,8,0:0:0:0:
161,248,38586,1,8,0:0:0:0:
161,248,38697,1,8,0:0:0:0:
180,294,38919,1,0,0:0:0:0:
191,303,39142,1,8,0:0:0:0:
292,134,39253,1,0,0:0:0:0:
143,125,39364,1,0,0:0:0:0:
292,134,39586,1,8,0:0:0:0:
280,188,40031,1,0,0:0:0:0:
302,239,40475,1,12,0:0:0:0:
302,239,40697,1,12,0:0:0:0:
235,244,40919,1,0,0:0:0:0:
235,244,41031,1,0,0:0:0:0:
235,244,41142,1,0,0:0:0:0:
208,230,41364,1,12,0:0:0:0:
208,230,41808,1,4,0:0:0:0:
347,143,42253,1,8,0:0:0:0:
347,143,42401,1,8,0:0:0:0:
347,143,42549,1,8,0:0:0:0:
304,154,42697,1,0,0:0:0:0:
271,126,42919,1,8,0:0:0:0:
271,126,42994,1,8,0:0:0:0:
271,126,43068,1,8,0:0:0:0:
271,126,43142,1,8,0:0:0:0:
271,126,43586,1,4,0:0:0:0:
239,181,44031,1,8,0:0:0:0:
206,297,44253,1,8,0:0:0:0:
291,261,44364,1,8,0:0:0:0:
237,251,44475,1,0,0:0:0:0:
199,245,44697,1,8,0:0:0:0:
206,297,44919,1,0,0:0:0:0:
200,287,45031,1,0,0:0:0:0:
195,285,45142,1,8,0:0:0:0:
285,228,45364,1,4,0:0:0:0:
293,266,45586,1,8,0:0:0:0:
293,266,45697,1,8,0:0:0:0:
293,266,45919,1,8,0:0:0:0:
293,266,46142,1,8,0:0:0:0:
213,265,46253,1,0,0:0:0:0:
444,202,46475,1,0,0:0:0:0:
444,202,46549,1,0,0:0:0:0:
444,202,46623,1,0,0:0:0:0:
444,202,46697,1,8,0:0:0:0:
328,168,46919,1,8,0:0:0:0:
315,177,47142,1,4,0:0:0:0:
198,212,47475,1,0,0:0:0:0:
198,212,47808,1,8,0:0:0:0:
268,226,48919,1,8,0:0:0:0:
268,226,49253,1,0,0:0:0:0:
268,226,49586,1,8,0:0:0:0:
210,271,50475,1,0,0:0:0:0:
210,271,50697,1,8,0:0:0:0:
212,294,51031,1,8,0:0:0:0:
212,294,51364,1,0,0:0:0:0:
335,210,52475,1,0,0:0:0:0:
335,210,52808,1,8,0:0:0:0:
335,210,53142,1,0,0:0:0:0:
335,210,53586,1,8,0:0:0:0:
249,158,54253,1,4,0:0:0:0:
239,154,56031,1,12,0:0:0:0:
230,159,57808,1,0,0:0:0:0:
201,191,57919,1,0,0:0:0:0:
230,159,58031,1,8,0:0:0:0:
230,159,58142,1,8,0:0:0:0:
197,230,58253,1,8,0:0:0:0:
197,230,58475,1,0,0:0:0:0:
277,211,58586,1,0,0:0:0:0:
197,230,58697,1,8,0:0:0:0:
183,232,58808,1,8,0:0:0:0:
197,230,58919,1,8,0:0:0:0:
183,232,59142,1,4,0:0:0:0:
183,232,59364,1,12,0:0:0:0:
360,251,60031,1,0,0:0:0:0:
255,232,60475,1,8,0:0:0:0:
224,210,60919,1,12,0:0:0:0:
245,191,61364,1,4,0:0:0:0:
216,203,61586,1,0,0:0:0:0:
216,203,61697,1,0,0:0:0:0:
167,233,61808,1,8,0:0:0:0:
167,233,62031,1,0,0:0:0:0:
202,247,62142,1,0,0:0:0:0:
191,268,62253,1,8,0:0:0:0:
191,268,62364,1,8,0:0:0:0:
187,261,62475,1,0,0:0:0:0:
187,261,62697,1,8,0:0:0:0:
263,249,62808,1,0,0:0:0:0:
267,230,62919,1,0,0:0:0:0:
283,209,63142,1,12,0:0:0:0:
144,253,63364,1,8,0:0:0:0:
144,253,63475,1,8,0:0:0:0:
144,253,63586,1,0,0:0:0:0:
144,253,63808,1,8,0:0:0:0:
144,253,63919,1,8,0:0:0:0:
159,233,64031,1,0,0:0:0:0:
159,233,64142,1,0,0:0:0:0:
156,226,64253,1,8,0:0:0:0:
158,225,64475,1,0,0:0:0:0:
158,225,64586,1,8,0:0:0:0:
158,225,64697,1,8,0:0:0:0:
211,229,64919,1,0,0:0:0:0:
211,229,65031,1,0,0:0:0:0:
194,243,65142,1,0,0:0:0:0:
185,252,65253,1,0,0:0:0:0:
194,243,65364,1,8,0:0:0:0:
256,267,65586,1,0,0:0:0:0:
256,267,65697,1,8,0:0:0:0:
306,246,65919,1,8,0:0:0:0:
266,230,66031,1,0,0:0:0:0:
306,246,66253,1,8,0:0:0:0:
152,133,66475,1,8,0:0:0:0:
149,139,66697,1,4,0:0:0:0:
310,177,66919,1,0,0:0:0:0:
310,177,66994,1,0,0:0:0:0:
310,177,67068,1,0,0:0:0:0:
310,177,67142,1,8,0:0:0:0:
315,151,67364,1,0,0:0:0:0:
215,126,67586,1,8,0:0:0:0:
212,118,67697,1,0,0:0:0:0:
210,120,67919,1,0,0:0:0:0:
210,120,68031,1,8,0:0:0:0:
210,121,68142,1,8,0:0:0:0:
210,121,68253,1,0,0:0:0:0:
198,117,68475,1,12,0:0:0:0:
279,201,68919,1,0,0:0:0:0:
279,201,69142,1,8,0:0:0:0:
279,201,69253,1,8,0:0:0:0:
204,230,69364,1,0,0:0:0:0:
204,230,69586,1,0,0:0:0:0:
204,230,69808,1,8,0:0:0:0:
187,248,70031,1,0,0:0:0:0:
187,248,70142,1,0,0:0:0:0:
187,276,70253,1,8,0:0:0:0:
261,260,70475,1,0,0:0:0:0:
261,260,70697,1,8,0:0:0:0:
239,241,70808,1,8,0:0:0:0:
279,260,70919,1,0,0:0:0:0:
217,262,71031,1,8,0:0:0:0:
262,223,71142,1,0,0:0:0:0:
262,223,71364,1,0,0:0:0:0:
262,223,71586,1,8,0:0:0:0:
238,225,71697,1,8,0:0:0:0:
200,263,71808,1,0,0:0:0:0:
188,243,72031,1,12,0:0:0:0:
299,198,72364,1,0,0:0:0:0:
278,186,72475,1,0,0:0:0:0:
227,190,72697,1,8,0:0:0:0:
227,190,72808,1,8,0:0:0:0:
226,181,72919,1,0,0:0:0:0:
226,181,73142,1,0,0:0:0:0:
226,181,73364,1,8,0:0:0:0:
220,190,73475,1,0,0:0:0:0:
220,190,73586,1,0,0:0:0:0:
160,258,73697,1,0,0:0:0:0:
220,190,73808,1,8,0:0:0:0:
240,218,74031,1,0,0:0:0:0:
227,213,74142,1,0,0:0:0:0:
227,213,74253,1,8,0:0:0:0:
243,200,74364,1,8,0:0:0:0:
242,199,74475,1,0,0:0:0:0:
144,144,74586,1,0,0:0:0:0:
215,212,74697,1,8,0:0:0:0:
368,190,74919,1,0,0:0:0:0:
368,190,74994,1,0,0:0:0:0:
368,190,75068,1,0,0:0:0:0:
367,184,75142,1,8,0:0:0:0:
292,140,75364,1,8,0:0:0:0:
239,182,75586,1,4,0:0:0:0:
170,234,76031,1,8,0:0:0:0:
297,234,76142,1,8,0:0:0:0:
236,208,76253,1,8,0:0:0:0:
240,238,76475,1,0,0:0:0:0:
240,238,76586,1,8,0:0:0:0:
246,235,76808,1,8,0:0:0:0:
240,238,76919,1,0,0:0:0:0:
217,183,77142,1,0,0:0:0:0:
211,241,77253,1,8,0:0:0:0:
152,224,77364,1,0,0:0:0:0:
175,205,77586,1,0,0:0:0:0:
264,220,77808,1,8,0:0:0:0:
292,215,77919,1,8,0:0:0:0:
314,230,78031,1,0,0:0:0:0:
303,225,78253,1,8,0:0:0:0:
303,225,78364,1,8,0:0:0:0:
298,285,78586,1,0,0:0:0:0:
238,273,78697,1,8,0:0:0:0:
218,252,78808,1,0,0:0:0:0:
210,241,78919,1,8,0:0:0:0:
174,263,79142,1,4,0:0:0:0:
175,236,79586,1,8,0:0:0:0:
204,257,79808,1,0,0:0:0:0:
204,257,79919,1,0,0:0:0:0:
171,275,80031,1,8,0:0:0:0:
248,180,80253,1,0,0:0:0:0:
308,229,80475,1,8,0:0:0:0:
308,229,80623,1,8,0:0:0:0:
308,229,80771,1,8,0:0:0:0:
259,242,80919,1,0,0:0:0:0:
310,213,81253,1,0,0:0:0:0:
310,213,81364,1,8,0:0:0:0:
228,270,81586,1,0,0:0:0:0:
219,255,81697,1,0,0:0:0:0:
196,241,81808,1,8,0:0:0:0:
187,262,81919,1,8,0:0:0:0:
187,262,82142,1,8,0:0:0:0:
187,262,82253,1,0,0:0:0:0:
187,262,82475,1,0,0:0:0:0:
187,257,82697,1,12,0:0:0:0:
276,225,83031,1,0,0:0:0:0:
258,237,83142,1,8,0:0:0:0:
258,237,83364,1,0,0:0:0:0:
258,237,83586,1,8,0:0:0:0:
258,237,83697,1,0,0:0:0:0:
217,232,83808,1,0,0:0:0:0:
217,232,84031,1,8,0:0:0:0:
217,232,84253,1,8,0:0:0:0:
207,218,84475,1,0,0:0:0:0:
207,218,84586,1,0,0:0:0:0:
322,214,86253,1,12,0:0:0:0:
264,233,86586,1,0,0:0:0:0:
264,233,86697,1,0,0:0:0:0:
206,240,86919,1,8,0:0:0:0:
206,240,87031,1,8,0:0:0:0:
239,218,87253,1,0,0:0:0:0:
239,218,87364,1,0,0:0:0:0:
223,221,87586,1,12,0:0:0:0:
221,220,87808,1,12,0:0:0:0:
