osu file format v14

[General]
AudioFilename: audio.mp3
AudioLeadIn: 0
PreviewTime: 60031
Countdown: 0
SampleSet: Normal
StackLeniency: 0.7
Mode: 1
LetterboxInBreaks: 0
WidescreenStoryboard: 1

[Editor]
DistanceSpacing: 1.1
BeatDivisor: 4
GridSize: 32
TimelineZoom: 1

[Metadata]
Title:Gurenge feat. Un3h [ dj-Jo Remix ] TV Size
TitleUnicode:紅蓮華 feat. Un3h [ dj-Jo Remix ] TV Size
Artist:LiSA
ArtistUnicode:LiSA
Creator:Chromoxx
Version:Muzukashii
Source:鬼滅の刃
Tags:demon slayer kimetsu no yaiba きめつのやいば 通常盤 anime japanese op opening edit tech dnb drum n bass
BeatmapID:2393991
BeatmapSetID:1146285

[Difficulty]
HPDrainRate:6
CircleSize:5
OverallDifficulty:5
ApproachRate:5
SliderMultiplier:1.4
SliderTickRate:1

[Events]
//Background and Video events
0,0,"bg.jpg",0,-100
//Break Periods
//Storyboard Layer 0 (Background)
//Storyboard Layer 1 (Fail)
//Storyboard Layer 2 (Pass)
//Storyboard Layer 3 (Foreground)
//Storyboard Layer 4 (Overlay)
//Storyboard Sound Samples

[TimingPoints]
920,444.444444444444,4,1,0,60,1,0
11475,-100,4,1,0,80,0,0
18586,-100,4,1,0,70,0,0
47253,-100,4,1,0,60,0,0
54142,-100,4,1,0,70,0,0
60808,-100,4,1,0,80,0,0
61253,-100,4,1,0,90,0,0
61364,-100,4,1,0,90,0,1
84586,-100,4,1,0,90,0,0
86253,-100,4,1,0,80,0,1
87586,-100,4,1,0,80,0,1
87808,-100,4,1,0,80,0,0

[HitObjects]
259,154,920,5,0,0:0:0:0:
259,154,1253,1,0,0:0:0:0:
259,154,1586,1,8,0:0:0:0:
276,161,2697,1,8,0:0:0:0:
276,161,3031,1,0,0:0:0:0:
276,161,3364,1,8,0:0:0:0:
270,277,4475,1,8,0:0:0:0:
270,277,4808,1,8,0:0:0:0:
270,277,5142,1,0,0:0:0:0:
358,219,6253,1,0,0:0:0:0:
358,219,6586,1,8,0:0:0:0:
161,200,6919,1,0,0:0:0:0:
256,192,8031,12,0,9586,0:0:0:0:
256,192,9808,12,0,10697,0:0:0:0:
187,191,11586,5,4,0:0:0:0:
187,191,11919,1,0,0:0:0:0:
184,176,12253,1,8,0:0:0:0:
195,105,12697,1,0,0:0:0:0:
195,105,12919,1,8,0:0:0:0:
259,120,13031,1,8,0:0:0:0:
259,120,13142,1,8,0:0:0:0:
245,246,13364,1,0,0:0:0:0:
239,218,13586,1,0,0:0:0:0:
239,218,13697,1,0,0:0:0:0:
171,248,13808,1,0,0:0:0:0:
171,248,14031,1,8,0:0:0:0:
171,248,14475,1,0,0:0:0:0:
178,225,14697,1,8,0:0:0:0:
178,225,14808,1,8,0:0:0:0:
178,225,14919,1,8,0:0:0:0:
330,220,15142,1,0,0:0:0:0:
215,218,15475,1,8,0:0:0:0:
89,154,15808,1,0,0:0:0:0:
237,244,16253,1,8,0:0:0:0:
237,244,16475,1,0,0:0:0:0:
237,244,16586,1,0,0:0:0:0:
228,287,16697,1,0,0:0:0:0:
228,287,16919,1,8,0:0:0:0:
228,287,17142,1,8,0:0:0:0:
228,287,17253,1,8,0:0:0:0:
176,231,17364,1,8,0:0:0:0:
271,153,17586,1,0,0:0:0:0:
220,154,18031,1,8,0:0:0:0:
131,132,18142,1,8,0:0:0:0:
229,195,18253,1,8,0:0:0:0:
226,160,18697,1,4,0:0:0:0:
312,278,19142,1,8,0:0:0:0:
312,278,19808,1,0,0:0:0:0:
312,278,20031,1,8,0:0:0:0:
312,278,20475,1,0,0:0:0:0:
312,278,20697,1,0,0:0:0:0:
312,278,20919,1,8,0:0:0:0:
260,182,21364,1,0,0:0:0:0:
222,181,22253,1,8,0:0:0:0:
222,181,22697,1,0,0:0:0:0:
191,154,23364,1,8,0:0:0:0:
191,154,23586,1,0,0:0:0:0:
187,175,24031,1,8,0:0:0:0:
187,175,24253,1,8,0:0:0:0:
187,175,24475,1,0,0:0:0:0:
196,178,24919,1,8,0:0:0:0:
196,178,25808,1,0,0:0:0:0:
254,209,26253,1,8,0:0:0:0:
254,209,26919,1,0,0:0:0:0:
254,209,27142,1,8,0:0:0:0:
255,236,27586,1,0,0:0:0:0:
255,236,27808,1,0,0:0:0:0:
255,236,28031,1,8,0:0:0:0:
228,247,28475,1,0,0:0:0:0:
228,247,28919,1,8,0:0:0:0:
229,193,29031,1,8,0:0:0:0:
229,193,29142,1,8,0:0:0:0:
243,225,29364,1,0,0:0:0:0:
243,225,29586,1,0,0:0:0:0:
120,131,29808,1,8,0:0:0:0:
182,100,30475,1,0,0:0:0:0:
182,100,30697,1,8,0:0:0:0:
261,105,31142,2,0,L|298:105,14,35
299,227,32919,1,4,0:0:0:0:
251,171,33364,1,8,0:0:0:0:
251,171,33808,1,0,0:0:0:0:
251,171,34253,1,8,0:0:0:0:
220,212,34475,1,0,0:0:0:0:
244,258,34697,1,8,0:0:0:0:
188,125,35142,1,8,0:0:0:0:
183,194,35586,1,0,0:0:0:0:
181,181,36475,1,8,0:0:0:0:
181,181,36919,1,0,0:0:0:0:
181,181,37364,1,8,0:0:0:0:
227,186,37586,1,8,0:0:0:0:
227,186,37808,1,0,0:0:0:0:
227,186,38253,1,8,0:0:0:0:
227,186,38697,1,0,0:0:0:0:
218,223,38919,1,0,0:0:0:0:
218,223,39142,1,8,0:0:0:0:
329,208,40031,1,0,0:0:0:0:
329,208,40475,1,12,0:0:0:0:
233,226,40697,1,12,0:0:0:0:
329,208,40919,1,0,0:0:0:0:
336,216,41364,1,12,0:0:0:0:
336,216,41808,1,4,0:0:0:0:
392,106,42253,1,8,0:0:0:0:
392,106,42401,1,8,0:0:0:0:
392,106,42549,1,8,0:0:0:0:
390,94,42697,1,8,0:0:0:0:
221,99,43142,1,12,0:0:0:0:
272,76,43586,1,4,0:0:0:0:
275,192,44475,1,0,0:0:0:0:
272,182,44919,1,8,0:0:0:0:
272,182,45142,1,8,0:0:0:0:
258,179,45364,1,0,0:0:0:0:
258,179,45697,1,8,0:0:0:0:
258,179,46031,1,8,0:0:0:0:
284,202,46253,1,0,0:0:0:0:
284,202,46364,1,0,0:0:0:0:
225,218,46475,1,0,0:0:0:0:
225,218,46697,1,8,0:0:0:0:
266,169,47142,1,4,0:0:0:0:
267,176,47475,1,0,0:0:0:0:
267,176,47808,1,8,0:0:0:0:
267,176,48919,1,8,0:0:0:0:
147,162,49253,1,0,0:0:0:0:
148,119,49586,1,8,0:0:0:0:
368,104,50697,1,8,0:0:0:0:
368,104,51031,1,8,0:0:0:0:
368,104,51364,1,0,0:0:0:0:
260,141,52475,1,0,0:0:0:0:
260,141,52808,1,8,0:0:0:0:
260,141,53142,1,0,0:0:0:0:
271,244,54253,1,12,0:0:0:0:
271,244,56031,1,12,0:0:0:0:
34,212,57808,2,4,L|82:218,14,35
294,179,60031,1,0,0:0:0:0:
232,185,60475,1,8,0:0:0:0:
233,162,60919,1,12,0:0:0:0:
325,252,61364,1,4,0:0:0:0:
320,262,61808,1,8,0:0:0:0:
264,232,62031,1,0,0:0:0:0:
264,232,62142,1,0,0:0:0:0:
219,265,62253,1,0,0:0:0:0:
219,265,62475,1,0,0:0:0:0:
219,265,62697,1,8,0:0:0:0:
219,207,62808,1,8,0:0:0:0:
227,99,63142,1,0,0:0:0:0:
252,230,63364,1,0,0:0:0:0:
227,99,63586,1,8,0:0:0:0:
252,230,63808,1,0,0:0:0:0:
310,194,64031,1,8,0:0:0:0:
310,194,64142,1,8,0:0:0:0:
248,239,64253,1,8,0:0:0:0:
248,239,64475,1,0,0:0:0:0:
248,239,64586,1,0,0:0:0:0:
351,207,64919,1,8,0:0:0:0:
351,207,65142,1,8,0:0:0:0:
351,207,65253,1,8,0:0:0:0:
312,203,65364,1,8,0:0:0:0:
312,203,65586,1,0,0:0:0:0:
233,242,65697,1,0,0:0:0:0:
158,249,65808,1,0,0:0:0:0:
158,249,66031,1,0,0:0:0:0:
158,249,66253,1,8,0:0:0:0:
267,158,66697,1,4,0:0:0:0:
256,263,67142,1,8,0:0:0:0:
243,190,67364,1,0,0:0:0:0:
243,190,67475,1,0,0:0:0:0:
235,181,67586,1,0,0:0:0:0:
183,155,67808,1,8,0:0:0:0:
183,155,67919,1,8,0:0:0:0:
175,150,68142,1,8,0:0:0:0:
183,155,68253,1,8,0:0:0:0:
178,139,68475,1,4,0:0:0:0:
304,192,68919,1,8,0:0:0:0:
304,192,69142,1,0,0:0:0:0:
304,192,69364,1,0,0:0:0:0:
304,192,69586,1,0,0:0:0:0:
304,192,69808,1,8,0:0:0:0:
174,150,70031,1,8,0:0:0:0:
174,150,70253,1,0,0:0:0:0:
174,150,70697,1,8,0:0:0:0:
174,150,70919,1,0,0:0:0:0:
135,191,71142,1,8,0:0:0:0:
201,214,71364,1,8,0:0:0:0:
200,203,71586,1,0,0:0:0:0:
202,177,72031,1,12,0:0:0:0:
283,107,72475,1,0,0:0:0:0:
283,107,72808,1,8,0:0:0:0:
283,107,72919,1,8,0:0:0:0:
231,276,73142,1,0,0:0:0:0:
263,225,73364,1,8,0:0:0:0:
263,225,73475,1,8,0:0:0:0:
229,251,73586,1,8,0:0:0:0:
228,232,73808,1,0,0:0:0:0:
228,232,74697,1,8,0:0:0:0:
231,220,74919,1,8,0:0:0:0:
230,220,75031,1,8,0:0:0:0:
226,219,75142,1,8,0:0:0:0:
226,219,75364,1,8,0:0:0:0:
224,223,75586,1,4,0:0:0:0:
217,227,76031,1,8,0:0:0:0:
278,247,76253,1,8,0:0:0:0:
217,227,76475,1,0,0:0:0:0:
159,126,76586,1,0,0:0:0:0:
278,247,76808,1,8,0:0:0:0:
278,247,76919,1,8,0:0:0:0:
276,284,77142,1,8,0:0:0:0:
276,284,77364,1,0,0:0:0:0:
333,252,77808,1,8,0:0:0:0:
333,252,78031,1,0,0:0:0:0:
221,217,78253,1,8,0:0:0:0:
258,225,78364,1,8,0:0:0:0:
333,252,78586,1,0,0:0:0:0:
319,248,78697,1,0,0:0:0:0:
319,248,78919,1,0,0:0:0:0:
318,250,79142,1,12,0:0:0:0:
318,250,79586,1,0,0:0:0:0:
319,248,79919,1,8,0:0:0:0:
318,250,80031,1,8,0:0:0:0:
318,250,80253,1,0,0:0:0:0:
428,151,80475,1,8,0:0:0:0:
428,151,80623,1,8,0:0:0:0:
428,151,80771,1,8,0:0:0:0:
428,151,80919,1,8,0:0:0:0:
363,246,81364,1,0,0:0:0:0:
193,171,81697,1,8,0:0:0:0:
193,171,81808,1,8,0:0:0:0:
256,194,82031,1,0,0:0:0:0:
256,194,82142,1,0,0:0:0:0:
256,194,82253,1,0,0:0:0:0:
250,206,82475,1,8,0:0:0:0:
250,207,82697,1,4,0:0:0:0:
240,214,83142,1,8,0:0:0:0:
240,214,83364,1,0,0:0:0:0:
240,215,83475,1,0,0:0:0:0:
318,203,83697,1,8,0:0:0:0:
318,203,83808,1,8,0:0:0:0:
318,203,84031,1,0,0:0:0:0:
266,248,84253,1,0,0:0:0:0:
318,203,84475,1,8,0:0:0:0:
318,203,84586,1,8,0:0:0:0:
267,247,86253,1,4,0:0:0:0:
267,247,86697,1,8,0:0:0:0:
269,242,86919,1,0,0:0:0:0:
266,241,87031,1,0,0:0:0:0:
267,240,87253,1,8,0:0:0:0:
260,244,87364,1,8,0:0:0:0:
172,122,87586,1,4,0:0:0:0:
172,122,87808,1,4,0:0:0:0:
