osu file format v14

[General]
AudioFilename: audio.mp3
AudioLeadIn: 0
PreviewTime: 60031
Countdown: 0
SampleSet: Normal
StackLeniency: 0.7
Mode: 1
LetterboxInBreaks: 0
WidescreenStoryboard: 1

[Editor]
DistanceSpacing: 1.1
BeatDivisor: 4
GridSize: 32
TimelineZoom: 1

[Metadata]
Title:Gurenge feat. Un3h [ dj-Jo Remix ] TV Size
TitleUnicode:紅蓮華 feat. Un3h [ dj-Jo Remix ] TV Size
Artist:LiSA
ArtistUnicode:LiSA
Creator:Chromoxx
Version:Kantan
Source:鬼滅の刃
Tags:demon slayer kimetsu no yaiba きめつのやいば 通常盤 anime japanese op opening edit tech dnb drum n bass
BeatmapID:2393990
BeatmapSetID:1146285

[Difficulty]
HPDrainRate:8
CircleSize:5
OverallDifficulty:3
ApproachRate:5
SliderMultiplier:1.4
SliderTickRate:1

[Events]
//Background and Video events
0,0,"bg.jpg",0,-100
//Break Periods
//Storyboard Layer 0 (Background)
//Storyboard Layer 1 (Fail)
//Storyboard Layer 2 (Pass)
//Storyboard Layer 3 (Foreground)
//Storyboard Layer 4 (Overlay)
//Storyboard Sound Samples

[TimingPoints]
920,444.444444444444,4,1,0,60,1,0
11475,-100,4,1,0,80,0,0
18586,-100,4,1,0,70,0,0
47253,-100,4,1,0,60,0,0
54142,-100,4,1,0,70,0,0
60808,-100,4,1,0,80,0,0
61253,-100,4,1,0,90,0,0
61364,-100,4,1,0,90,0,1
84586,-100,4,1,0,90,0,0
86253,-100,4,1,0,80,0,1
87586,-100,4,1,0,80,0,1
87808,-100,4,1,0,80,0,0

[HitObjects]
247,226,920,5,0,0:0:0:0:
252,240,2697,1,8,0:0:0:0:
252,240,4475,1,8,0:0:0:0:
194,169,5364,1,0,0:0:0:0:
250,236,6253,1,0,0:0:0:0:
250,236,8031,1,8,0:0:0:0:
187,210,9808,1,8,0:0:0:0:
249,222,11586,1,4,0:0:0:0:
257,185,12919,1,8,0:0:0:0:
257,185,13364,1,0,0:0:0:0:
277,110,14253,1,8,0:0:0:0:
249,150,15142,1,0,0:0:0:0:
226,149,15586,1,0,0:0:0:0:
226,149,16475,1,8,0:0:0:0:
237,200,16919,1,8,0:0:0:0:
237,200,17364,1,0,0:0:0:0:
227,263,18253,1,8,0:0:0:0:
84,184,18697,1,0,0:0:0:0:
249,120,20031,1,8,0:0:0:0:
249,120,20475,1,0,0:0:0:0:
249,120,21364,1,8,0:0:0:0:
249,120,22253,1,0,0:0:0:0:
228,174,24031,1,0,0:0:0:0:
235,221,25808,1,8,0:0:0:0:
284,210,27142,1,0,0:0:0:0:
284,210,27586,1,8,0:0:0:0:
274,220,28475,1,0,0:0:0:0:
274,220,29364,1,8,0:0:0:0:
93,170,31142,2,0,L|146:176,12,35
264,196,32919,1,0,0:0:0:0:
331,216,33364,1,8,0:0:0:0:
331,216,33808,1,0,0:0:0:0:
290,226,34697,1,8,0:0:0:0:
218,193,36475,1,8,0:0:0:0:
218,193,36919,1,0,0:0:0:0:
218,193,37364,1,8,0:0:0:0:
218,193,38253,1,0,0:0:0:0:
275,118,40031,1,0,0:0:0:0:
282,184,40475,1,12,0:0:0:0:
282,184,41364,1,12,0:0:0:0:
174,110,41808,1,12,0:0:0:0:
174,103,43142,1,4,0:0:0:0:
174,103,43586,1,4,0:0:0:0:
283,171,45364,1,8,0:0:0:0:
249,167,46253,1,0,0:0:0:0:
265,153,47142,1,4,0:0:0:0:
260,145,48919,1,8,0:0:0:0:
259,288,50697,1,8,0:0:0:0:
243,280,51586,1,0,0:0:0:0:
258,260,52475,1,0,0:0:0:0:
324,195,54253,1,12,0:0:0:0:
291,240,56031,1,12,0:0:0:0:
350,189,57808,2,4,L|413:193,14,35
234,244,61364,1,4,0:0:0:0:
166,210,62253,1,8,0:0:0:0:
316,182,63142,1,0,0:0:0:0:
316,182,63586,1,0,0:0:0:0:
316,182,64031,1,8,0:0:0:0:
316,182,64919,1,0,0:0:0:0:
240,149,65364,1,8,0:0:0:0:
240,149,66253,1,8,0:0:0:0:
240,149,66697,1,0,0:0:0:0:
240,149,67586,1,8,0:0:0:0:
264,233,68475,1,4,0:0:0:0:
225,225,70253,1,8,0:0:0:0:
225,225,71142,1,0,0:0:0:0:
225,225,72031,1,8,0:0:0:0:
304,179,72475,1,0,0:0:0:0:
304,179,72920,1,8,0:0:0:0:
304,179,73808,1,0,0:0:0:0:
215,177,75586,1,4,0:0:0:0:
272,204,76475,1,8,0:0:0:0:
268,234,77364,1,0,0:0:0:0:
268,234,77808,1,8,0:0:0:0:
268,234,78253,1,0,0:0:0:0:
268,234,79142,1,8,0:0:0:0:
268,234,80031,1,8,0:0:0:0:
293,270,80475,1,0,0:0:0:0:
293,270,80919,1,8,0:0:0:0:
293,270,81808,1,8,0:0:0:0:
293,270,82253,1,8,0:0:0:0:
293,270,82697,1,0,0:0:0:0:
292,275,83586,1,8,0:0:0:0:
208,233,84475,1,4,0:0:0:0:
208,229,86253,1,8,0:0:0:0:
365,203,86919,1,0,0:0:0:0:
365,203,87586,1,8,0:0:0:0:
365,203,87808,1,8,0:0:0:0:
