osu file format v14

[General]
AudioFilename: audio.mp3
AudioLeadIn: 0
PreviewTime: 60031
Countdown: 0
SampleSet: Normal
StackLeniency: 0.7
Mode: 1
LetterboxInBreaks: 0
WidescreenStoryboard: 1

[Editor]
DistanceSpacing: 1.1
BeatDivisor: 4
GridSize: 32
TimelineZoom: 1

[Metadata]
Title:Gurenge feat. Un3h [ dj-Jo Remix ] TV Size
TitleUnicode:紅蓮華 feat. Un3h [ dj-Jo Remix ] TV Size
Artist:LiSA
ArtistUnicode:LiSA
Creator:Chromoxx
Version:Inner Oni
Source:鬼滅の刃
Tags:demon slayer kimetsu no yaiba きめつのやいば 通常盤 anime japanese op opening edit tech dnb drum n bass
BeatmapID:2393844
BeatmapSetID:1146285

[Difficulty]
HPDrainRate:6
CircleSize:5
OverallDifficulty:7
ApproachRate:5
SliderMultiplier:1.4
SliderTickRate:1

[Events]
//Background and Video events
0,0,"bg.jpg",0,-100
//Break Periods
//Storyboard Layer 0 (Background)
//Storyboard Layer 1 (Fail)
//Storyboard Layer 2 (Pass)
//Storyboard Layer 3 (Foreground)
//Storyboard Layer 4 (Overlay)
//Storyboard Sound Samples

[TimingPoints]
920,444.444444444444,4,1,0,60,1,0
11475,-100,4,1,0,80,0,0
18586,-100,4,1,0,70,0,0
47253,-100,4,1,0,60,0,0
54142,-100,4,1,0,70,0,0
60808,-40,4,1,0,80,0,0
61253,-100,4,1,0,90,0,0
61364,-66.6666666666667,4,1,0,90,0,1
84586,-66.6666666666667,4,1,0,90,0,0
86253,-100,4,1,0,80,0,1
87586,-40,4,1,0,80,0,1
87808,-40,4,1,0,80,0,0

[HitObjects]
284,225,920,5,8,0:0:0:0:
205,275,1253,1,8,0:0:0:0:
205,275,1586,1,0,0:0:0:0:
236,219,2697,1,8,0:0:0:0:
205,275,3031,1,0,0:0:0:0:
205,275,3364,1,8,0:0:0:0:
255,245,4253,1,8,0:0:0:0:
350,303,4475,1,0,0:0:0:0:
187,186,4808,1,8,0:0:0:0:
232,140,5142,1,8,0:0:0:0:
329,268,6253,1,8,0:0:0:0:
215,270,6586,1,0,0:0:0:0:
212,227,6919,1,0,0:0:0:0:
238,254,7364,1,8,0:0:0:0:
248,256,7808,1,8,0:0:0:0:
256,192,8031,12,0,9586,0:0:0:0:
256,192,9808,12,0,10697,0:0:0:0:
320,256,11586,5,12,0:0:0:0:
224,224,11919,1,0,0:0:0:0:
192,224,12031,1,8,0:0:0:0:
128,288,12253,1,0,0:0:0:0:
224,288,12364,1,0,0:0:0:0:
224,288,12586,1,8,0:0:0:0:
192,256,12697,1,0,0:0:0:0:
256,224,12919,1,8,0:0:0:0:
256,224,13031,1,8,0:0:0:0:
224,256,13142,1,8,0:0:0:0:
224,256,13253,1,8,0:0:0:0:
320,288,13364,1,0,0:0:0:0:
256,128,13475,1,0,0:0:0:0:
448,128,13586,1,0,0:0:0:0:
352,160,13660,1,0,0:0:0:0:
352,160,13734,1,0,0:0:0:0:
352,160,13808,1,8,0:0:0:0:
288,288,14031,1,0,0:0:0:0:
288,288,14142,1,0,0:0:0:0:
256,160,14364,1,0,0:0:0:0:
224,160,14475,1,8,0:0:0:0:
224,192,14586,1,8,0:0:0:0:
416,256,14697,1,0,0:0:0:0:
416,256,14771,1,8,0:0:0:0:
288,256,14845,1,8,0:0:0:0:
256,256,14919,1,0,0:0:0:0:
192,192,15031,1,8,0:0:0:0:
192,224,15142,1,4,0:0:0:0:
320,256,15475,1,8,0:0:0:0:
256,288,15586,1,0,0:0:0:0:
192,256,15808,1,8,0:0:0:0:
256,256,15919,1,8,0:0:0:0:
192,256,16142,1,0,0:0:0:0:
128,224,16253,1,8,0:0:0:0:
160,224,16475,1,0,0:0:0:0:
160,224,16586,1,0,0:0:0:0:
160,224,16697,1,0,0:0:0:0:
160,224,16808,1,0,0:0:0:0:
192,224,16919,1,8,0:0:0:0:
192,224,17031,1,8,0:0:0:0:
320,192,17142,1,8,0:0:0:0:
320,192,17216,1,8,0:0:0:0:
320,192,17290,1,8,0:0:0:0:
288,224,17364,1,0,0:0:0:0:
288,224,17586,1,8,0:0:0:0:
96,224,17697,1,8,0:0:0:0:
288,256,17919,1,0,0:0:0:0:
81,145,18031,1,8,0:0:0:0:
141,132,18105,1,0,0:0:0:0:
267,141,18179,1,0,0:0:0:0:
129,99,18253,1,8,0:0:0:0:
224,224,18697,1,4,0:0:0:0:
256,256,19142,1,8,0:0:0:0:
256,256,19475,1,0,0:0:0:0:
288,256,19586,1,0,0:0:0:0:
288,256,19808,1,0,0:0:0:0:
288,256,20031,1,8,0:0:0:0:
256,288,20253,1,0,0:0:0:0:
192,256,20364,1,8,0:0:0:0:
192,288,20475,1,0,0:0:0:0:
192,288,20697,1,0,0:0:0:0:
192,288,20919,1,8,0:0:0:0:
256,288,21142,1,0,0:0:0:0:
256,128,21253,1,8,0:0:0:0:
256,160,21364,1,0,0:0:0:0:
256,160,21475,1,8,0:0:0:0:
256,160,21586,1,0,0:0:0:0:
160,256,21697,1,0,0:0:0:0:
192,320,21808,1,8,0:0:0:0:
288,96,21882,1,8,0:0:0:0:
288,96,21957,1,0,0:0:0:0:
288,96,22031,1,8,0:0:0:0:
224,224,22142,1,8,0:0:0:0:
192,160,22253,1,0,0:0:0:0:
384,224,22475,1,0,0:0:0:0:
384,224,22697,1,8,0:0:0:0:
288,256,23142,1,8,0:0:0:0:
288,224,23364,1,0,0:0:0:0:
288,224,23586,1,8,0:0:0:0:
288,224,23808,1,8,0:0:0:0:
192,256,23919,1,8,0:0:0:0:
224,224,24031,1,0,0:0:0:0:
288,256,24253,1,0,0:0:0:0:
256,288,24475,1,8,0:0:0:0:
256,288,24586,1,0,0:0:0:0:
160,160,24808,1,0,0:0:0:0:
160,160,24919,1,8,0:0:0:0:
256,96,25031,1,8,0:0:0:0:
192,288,25142,1,0,0:0:0:0:
192,288,25364,1,0,0:0:0:0:
224,256,25475,1,0,0:0:0:0:
224,256,25586,1,8,0:0:0:0:
288,256,25808,1,4,0:0:0:0:
224,288,26253,1,8,0:0:0:0:
288,288,26586,1,0,0:0:0:0:
320,288,26697,1,0,0:0:0:0:
320,288,26919,1,0,0:0:0:0:
320,288,27142,1,8,0:0:0:0:
288,224,27364,1,0,0:0:0:0:
192,128,27475,1,8,0:0:0:0:
160,160,27586,1,0,0:0:0:0:
160,160,27808,1,0,0:0:0:0:
224,64,27882,1,0,0:0:0:0:
224,64,27957,1,0,0:0:0:0:
224,64,28031,1,8,0:0:0:0:
320,96,28253,1,0,0:0:0:0:
224,192,28364,1,0,0:0:0:0:
224,224,28475,1,8,0:0:0:0:
320,256,28586,1,0,0:0:0:0:
320,256,28697,1,8,0:0:0:0:
320,256,28808,1,0,0:0:0:0:
320,256,28919,1,8,0:0:0:0:
320,96,28994,1,8,0:0:0:0:
320,96,29068,1,8,0:0:0:0:
320,96,29142,1,0,0:0:0:0:
160,128,29253,1,0,0:0:0:0:
160,128,29364,1,8,0:0:0:0:
256,288,29586,1,0,0:0:0:0:
288,288,29697,1,0,0:0:0:0:
224,256,29808,1,8,0:0:0:0:
224,288,30031,1,0,0:0:0:0:
320,256,30253,1,8,0:0:0:0:
224,288,30364,1,8,0:0:0:0:
320,256,30475,1,0,0:0:0:0:
320,256,30697,1,8,0:0:0:0:
256,224,30919,1,0,0:0:0:0:
448,160,31142,1,8,0:0:0:0:
448,160,31253,1,0,0:0:0:0:
448,160,31364,1,8,0:0:0:0:
448,160,31475,1,0,0:0:0:0:
448,160,31586,1,8,0:0:0:0:
448,160,31697,1,8,0:0:0:0:
448,160,31808,1,8,0:0:0:0:
448,160,31919,1,8,0:0:0:0:
256,128,32031,1,8,0:0:0:0:
256,128,32105,1,8,0:0:0:0:
256,128,32179,1,8,0:0:0:0:
256,128,32253,1,8,0:0:0:0:
256,128,32327,1,8,0:0:0:0:
256,128,32401,1,8,0:0:0:0:
256,128,32475,1,0,0:0:0:0:
256,128,32549,1,0,0:0:0:0:
256,128,32623,1,0,0:0:0:0:
256,128,32697,1,8,0:0:0:0:
352,224,32919,1,4,0:0:0:0:
320,160,33364,1,8,0:0:0:0:
192,224,33808,1,0,0:0:0:0:
224,224,34031,1,0,0:0:0:0:
256,256,34142,1,0,0:0:0:0:
320,224,34253,1,8,0:0:0:0:
320,224,34327,1,8,0:0:0:0:
288,256,34401,1,8,0:0:0:0:
256,288,34475,1,0,0:0:0:0:
256,192,34697,1,8,0:0:0:0:
352,256,34919,1,8,0:0:0:0:
224,288,35031,1,8,0:0:0:0:
352,288,35142,1,0,0:0:0:0:
224,288,35364,1,0,0:0:0:0:
288,96,35475,1,0,0:0:0:0:
288,96,35586,1,8,0:0:0:0:
288,128,35697,1,0,0:0:0:0:
256,160,35919,1,0,0:0:0:0:
288,160,36031,1,8,0:0:0:0:
320,288,36253,1,0,0:0:0:0:
358,236,36327,1,0,0:0:0:0:
358,236,36401,1,0,0:0:0:0:
320,288,36475,1,8,0:0:0:0:
256,288,36919,1,8,0:0:0:0:
224,256,37031,1,8,0:0:0:0:
224,256,37253,1,8,0:0:0:0:
224,256,37364,1,0,0:0:0:0:
320,160,37586,1,0,0:0:0:0:
320,160,37660,1,0,0:0:0:0:
320,160,37734,1,8,0:0:0:0:
320,160,37808,1,8,0:0:0:0:
320,160,38031,1,8,0:0:0:0:
320,160,38105,1,8,0:0:0:0:
320,160,38179,1,0,0:0:0:0:
320,160,38253,1,0,0:0:0:0:
224,256,38475,1,8,0:0:0:0:
224,256,38586,1,8,0:0:0:0:
192,256,38697,1,8,0:0:0:0:
192,256,38919,1,8,0:0:0:0:
384,288,39142,1,0,0:0:0:0:
384,288,39253,1,0,0:0:0:0:
288,320,39475,1,0,0:0:0:0:
192,256,39586,1,8,0:0:0:0:
352,192,40031,1,0,0:0:0:0:
288,288,40475,1,12,0:0:0:0:
288,288,40697,1,12,0:0:0:0:
256,224,40919,1,0,0:0:0:0:
192,288,41031,1,0,0:0:0:0:
192,256,41142,1,0,0:0:0:0:
256,256,41364,1,12,0:0:0:0:
320,320,41586,1,0,0:0:0:0:
288,224,41660,1,0,0:0:0:0:
320,320,41734,1,0,0:0:0:0:
192,288,41808,1,8,0:0:0:0:
256,256,42031,1,0,0:0:0:0:
320,128,42253,1,8,0:0:0:0:
320,128,42401,1,0,0:0:0:0:
320,128,42549,1,0,0:0:0:0:
320,128,42697,1,8,0:0:0:0:
320,128,42808,1,8,0:0:0:0:
160,160,42919,1,0,0:0:0:0:
160,160,42994,1,0,0:0:0:0:
160,160,43068,1,0,0:0:0:0:
160,160,43142,1,8,0:0:0:0:
288,224,43364,1,8,0:0:0:0:
224,192,43586,1,4,0:0:0:0:
224,256,44031,1,8,0:0:0:0:
224,256,44253,1,0,0:0:0:0:
320,288,44364,1,0,0:0:0:0:
192,128,44475,1,8,0:0:0:0:
192,128,44586,1,0,0:0:0:0:
320,128,44808,1,0,0:0:0:0:
320,128,44919,1,8,0:0:0:0:
384,192,45142,1,8,0:0:0:0:
224,256,45364,1,4,0:0:0:0:
352,224,45586,1,0,0:0:0:0:
352,224,45697,1,8,0:0:0:0:
224,256,45919,1,8,0:0:0:0:
224,256,46142,1,8,0:0:0:0:
224,256,46253,1,0,0:0:0:0:
224,256,46364,1,0,0:0:0:0:
288,160,46475,1,0,0:0:0:0:
288,160,46549,1,0,0:0:0:0:
288,160,46623,1,0,0:0:0:0:
288,160,46697,1,8,0:0:0:0:
416,192,46919,1,8,0:0:0:0:
416,192,46975,1,8,0:0:0:0:
416,192,47031,1,8,0:0:0:0:
416,192,47142,1,4,0:0:0:0:
256,288,47475,1,0,0:0:0:0:
160,192,47808,1,8,0:0:0:0:
320,256,48919,1,0,0:0:0:0:
320,256,49253,1,8,0:0:0:0:
320,256,49586,1,0,0:0:0:0:
224,320,50475,1,0,0:0:0:0:
224,288,50697,1,8,0:0:0:0:
224,320,51031,1,0,0:0:0:0:
224,320,51364,1,0,0:0:0:0:
224,320,52475,1,0,0:0:0:0:
224,320,52808,1,8,0:0:0:0:
224,320,53142,1,8,0:0:0:0:
256,288,54253,1,4,0:0:0:0:
352,192,54697,1,8,0:0:0:0:
352,192,54753,1,8,0:0:0:0:
352,192,54808,1,8,0:0:0:0:
352,192,54919,1,0,0:0:0:0:
224,256,55364,1,0,0:0:0:0:
224,256,56031,1,12,0:0:0:0:
192,128,56475,1,0,0:0:0:0:
192,128,56531,1,0,0:0:0:0:
192,128,56586,1,0,0:0:0:0:
192,128,56697,1,8,0:0:0:0:
256,96,57142,1,8,0:0:0:0:
384,192,57808,1,0,0:0:0:0:
384,160,57919,1,8,0:0:0:0:
256,160,58031,1,8,0:0:0:0:
256,160,58142,1,0,0:0:0:0:
256,160,58253,1,8,0:0:0:0:
256,160,58364,1,8,0:0:0:0:
256,160,58475,1,0,0:0:0:0:
256,160,58586,1,0,0:0:0:0:
256,160,58697,1,8,0:0:0:0:
256,160,58808,1,0,0:0:0:0:
256,160,58919,1,8,0:0:0:0:
128,160,59142,1,4,0:0:0:0:
128,160,59364,1,12,0:0:0:0:
384,192,59808,1,0,0:0:0:0:
384,192,59882,1,0,0:0:0:0:
384,192,59957,1,0,0:0:0:0:
384,192,60031,1,0,0:0:0:0:
224,192,60475,1,8,0:0:0:0:
224,256,60919,1,12,0:0:0:0:
288,256,61364,1,4,0:0:0:0:
162,43,61586,1,0,0:0:0:0:
192,192,61697,1,0,0:0:0:0:
192,192,61808,1,8,0:0:0:0:
160,192,61919,1,8,0:0:0:0:
160,224,62031,1,0,0:0:0:0:
256,224,62253,1,8,0:0:0:0:
235,88,62364,1,8,0:0:0:0:
160,256,62475,1,0,0:0:0:0:
256,224,62586,1,8,0:0:0:0:
224,256,62808,1,8,0:0:0:0:
224,256,62919,1,0,0:0:0:0:
224,256,63031,1,0,0:0:0:0:
224,256,63142,1,8,0:0:0:0:
256,256,63364,1,0,0:0:0:0:
160,192,63475,1,0,0:0:0:0:
128,128,63586,1,8,0:0:0:0:
128,128,63697,1,0,0:0:0:0:
352,192,63808,1,0,0:0:0:0:
224,256,64031,1,8,0:0:0:0:
224,96,64142,1,0,0:0:0:0:
192,96,64253,1,8,0:0:0:0:
251,98,64364,1,8,0:0:0:0:
251,98,64475,1,0,0:0:0:0:
251,98,64586,1,8,0:0:0:0:
149,262,64697,1,0,0:0:0:0:
320,256,64919,1,8,0:0:0:0:
320,256,65031,1,8,0:0:0:0:
320,256,65142,1,8,0:0:0:0:
320,256,65253,1,8,0:0:0:0:
320,256,65364,1,8,0:0:0:0:
320,256,65586,1,0,0:0:0:0:
256,224,65697,1,8,0:0:0:0:
224,256,65919,1,8,0:0:0:0:
192,256,66031,1,0,0:0:0:0:
224,256,66253,1,8,0:0:0:0:
224,256,66475,1,8,0:0:0:0:
128,192,66697,1,4,0:0:0:0:
384,256,66919,1,0,0:0:0:0:
288,256,66994,1,0,0:0:0:0:
384,256,67068,1,0,0:0:0:0:
256,288,67142,1,8,0:0:0:0:
224,224,67364,1,0,0:0:0:0:
224,224,67475,1,0,0:0:0:0:
160,288,67586,1,8,0:0:0:0:
160,288,67697,1,8,0:0:0:0:
192,256,67808,1,0,0:0:0:0:
256,192,67919,1,8,0:0:0:0:
288,256,68142,1,8,0:0:0:0:
256,256,68253,1,0,0:0:0:0:
352,256,68475,1,12,0:0:0:0:
367,272,68697,1,8,0:0:0:0:
373,262,68808,1,8,0:0:0:0:
288,288,68919,1,0,0:0:0:0:
288,288,69142,1,8,0:0:0:0:
256,256,69253,1,8,0:0:0:0:
224,256,69364,1,0,0:0:0:0:
192,224,69475,1,0,0:0:0:0:
224,256,69586,1,0,0:0:0:0:
320,224,69808,1,8,0:0:0:0:
320,224,70031,1,0,0:0:0:0:
160,160,70142,1,8,0:0:0:0:
160,160,70253,1,0,0:0:0:0:
192,256,70475,1,0,0:0:0:0:
336,267,70586,1,8,0:0:0:0:
192,256,70697,1,8,0:0:0:0:
314,266,70808,1,8,0:0:0:0:
224,256,70919,1,0,0:0:0:0:
256,224,71142,1,8,0:0:0:0:
224,256,71364,1,0,0:0:0:0:
192,256,71586,1,8,0:0:0:0:
192,256,71697,1,8,0:0:0:0:
224,256,71808,1,8,0:0:0:0:
224,256,72031,1,4,0:0:0:0:
333,283,72253,1,0,0:0:0:0:
352,256,72364,1,8,0:0:0:0:
171,136,72586,1,8,0:0:0:0:
171,136,72697,1,0,0:0:0:0:
256,288,72808,1,0,0:0:0:0:
256,288,72919,1,8,0:0:0:0:
256,224,73142,1,0,0:0:0:0:
256,224,73364,1,8,0:0:0:0:
192,224,73475,1,8,0:0:0:0:
192,224,73586,1,8,0:0:0:0:
192,224,73697,1,8,0:0:0:0:
288,224,73808,1,0,0:0:0:0:
393,151,73919,1,8,0:0:0:0:
395,158,74031,1,8,0:0:0:0:
256,256,74142,1,0,0:0:0:0:
224,256,74253,1,8,0:0:0:0:
380,211,74364,1,8,0:0:0:0:
340,242,74475,1,0,0:0:0:0:
141,198,74586,1,8,0:0:0:0:
167,88,74697,1,0,0:0:0:0:
224,256,74808,1,0,0:0:0:0:
320,160,74919,1,8,0:0:0:0:
320,160,74994,1,8,0:0:0:0:
320,160,75068,1,8,0:0:0:0:
320,160,75142,1,0,0:0:0:0:
320,160,75216,1,0,0:0:0:0:
320,160,75290,1,0,0:0:0:0:
320,160,75364,1,8,0:0:0:0:
320,256,75475,1,8,0:0:0:0:
320,256,75586,1,4,0:0:0:0:
362,213,75808,1,0,0:0:0:0:
288,256,75919,1,0,0:0:0:0:
288,256,76031,1,8,0:0:0:0:
337,272,76142,1,8,0:0:0:0:
224,288,76253,1,0,0:0:0:0:
224,160,76475,1,8,0:0:0:0:
192,192,76586,1,8,0:0:0:0:
192,224,76697,1,0,0:0:0:0:
192,192,76808,1,8,0:0:0:0:
224,256,77031,1,0,0:0:0:0:
192,224,77142,1,0,0:0:0:0:
192,224,77253,1,8,0:0:0:0:
128,288,77364,1,0,0:0:0:0:
224,256,77586,1,0,0:0:0:0:
366,175,77697,1,0,0:0:0:0:
224,256,77808,1,8,0:0:0:0:
331,166,77919,1,0,0:0:0:0:
331,166,78031,1,8,0:0:0:0:
331,166,78142,1,8,0:0:0:0:
331,166,78253,1,0,0:0:0:0:
368,267,78364,1,8,0:0:0:0:
256,256,78475,1,8,0:0:0:0:
331,166,78586,1,0,0:0:0:0:
224,288,78808,1,0,0:0:0:0:
224,288,78919,1,0,0:0:0:0:
256,256,79142,1,12,0:0:0:0:
256,256,79364,1,0,0:0:0:0:
96,224,79475,1,8,0:0:0:0:
160,288,79586,1,0,0:0:0:0:
192,288,79697,1,0,0:0:0:0:
288,288,79808,1,8,0:0:0:0:
288,288,79919,1,0,0:0:0:0:
416,192,80031,1,8,0:0:0:0:
416,192,80068,1,8,0:0:0:0:
320,192,80179,1,0,0:0:0:0:
320,192,80216,1,0,0:0:0:0:
320,192,80327,1,0,0:0:0:0:
320,192,80364,1,0,0:0:0:0:
224,128,80475,1,8,0:0:0:0:
224,128,80512,1,8,0:0:0:0:
192,192,80623,1,8,0:0:0:0:
192,192,80660,1,8,0:0:0:0:
64,128,80771,1,8,0:0:0:0:
64,128,80808,1,8,0:0:0:0:
64,128,80919,1,0,0:0:0:0:
256,288,81253,1,0,0:0:0:0:
224,256,81364,1,8,0:0:0:0:
256,256,81586,1,0,0:0:0:0:
256,256,81697,1,8,0:0:0:0:
320,256,81808,1,8,0:0:0:0:
192,256,81919,1,0,0:0:0:0:
192,288,82142,1,0,0:0:0:0:
192,288,82253,1,8,0:0:0:0:
256,256,82364,1,0,0:0:0:0:
288,192,82475,1,8,0:0:0:0:
256,256,82697,1,4,0:0:0:0:
288,256,83031,1,0,0:0:0:0:
288,256,83142,1,8,0:0:0:0:
224,288,83364,1,0,0:0:0:0:
224,288,83586,1,8,0:0:0:0:
192,288,83697,1,0,0:0:0:0:
192,288,83808,1,0,0:0:0:0:
224,288,84031,1,8,0:0:0:0:
224,288,84253,1,8,0:0:0:0:
256,224,84475,1,4,0:0:0:0:
256,224,84586,1,4,0:0:0:0:
256,224,86253,1,12,0:0:0:0:
256,288,86586,1,0,0:0:0:0:
96,288,86697,1,8,0:0:0:0:
320,256,86919,1,8,0:0:0:0:
320,256,87031,1,8,0:0:0:0:
96,288,87253,1,8,0:0:0:0:
256,256,87364,1,0,0:0:0:0:
256,288,87586,1,12,0:0:0:0:
256,288,87808,1,12,0:0:0:0:
