osu file format v14

[General]
AudioFilename: audio.mp3
AudioLeadIn: 0
PreviewTime: 60031
Countdown: 0
SampleSet: Normal
StackLeniency: 0.7
Mode: 1
LetterboxInBreaks: 0
WidescreenStoryboard: 1

[Editor]
DistanceSpacing: 1.1
BeatDivisor: 4
GridSize: 32
TimelineZoom: 1

[Metadata]
Title:Gurenge feat. Un3h [ dj-Jo Remix ] TV Size
TitleUnicode:紅蓮華 feat. Un3h [ dj-Jo Remix ] TV Size
Artist:LiSA
ArtistUnicode:LiSA
Creator:Chromoxx
Version:Futsuu
Source:鬼滅の刃
Tags:demon slayer kimetsu no yaiba きめつのやいば 通常盤 anime japanese op opening edit tech dnb drum n bass
BeatmapID:2393989
BeatmapSetID:1146285

[Difficulty]
HPDrainRate:7
CircleSize:5
OverallDifficulty:4
ApproachRate:5
SliderMultiplier:1.4
SliderTickRate:1

[Events]
//Background and Video events
0,0,"bg.jpg",0,-100
//Break Periods
//Storyboard Layer 0 (Background)
//Storyboard Layer 1 (Fail)
//Storyboard Layer 2 (Pass)
//Storyboard Layer 3 (Foreground)
//Storyboard Layer 4 (Overlay)
//Storyboard Sound Samples

[TimingPoints]
920,444.444444444444,4,1,0,60,1,0
11475,-100,4,1,0,80,0,0
18586,-100,4,1,0,70,0,0
47253,-100,4,1,0,60,0,0
54142,-100,4,1,0,70,0,0
60808,-100,4,1,0,80,0,0
61253,-100,4,1,0,90,0,0
61364,-100,4,1,0,90,0,1
84586,-100,4,1,0,90,0,0
86253,-100,4,1,0,80,0,1
87586,-100,4,1,0,80,0,1
87808,-100,4,1,0,80,0,0

[HitObjects]
204,140,920,5,0,0:0:0:0:
190,124,1586,1,8,0:0:0:0:
289,215,2697,1,8,0:0:0:0:
289,215,3364,1,0,0:0:0:0:
257,199,4475,1,8,0:0:0:0:
257,199,5142,1,8,0:0:0:0:
252,196,6253,1,0,0:0:0:0:
210,194,8031,1,8,0:0:0:0:
210,194,9808,1,8,0:0:0:0:
228,155,11586,1,4,0:0:0:0:
250,140,12031,1,8,0:0:0:0:
204,130,12697,1,0,0:0:0:0:
204,130,12919,1,8,0:0:0:0:
204,130,13364,1,0,0:0:0:0:
204,130,13808,1,8,0:0:0:0:
204,130,14031,1,0,0:0:0:0:
201,125,14697,1,8,0:0:0:0:
198,118,15142,1,0,0:0:0:0:
196,119,15586,1,8,0:0:0:0:
56,128,16253,1,0,0:0:0:0:
56,128,16475,1,0,0:0:0:0:
203,160,16919,1,8,0:0:0:0:
172,144,17142,1,8,0:0:0:0:
203,160,17364,1,0,0:0:0:0:
155,123,18253,1,8,0:0:0:0:
230,166,18697,1,0,0:0:0:0:
132,145,19142,1,8,0:0:0:0:
132,145,20031,1,8,0:0:0:0:
132,145,20475,1,0,0:0:0:0:
128,141,20697,1,0,0:0:0:0:
128,141,20919,1,8,0:0:0:0:
125,140,22253,1,0,0:0:0:0:
125,140,22697,1,8,0:0:0:0:
107,107,23586,1,0,0:0:0:0:
107,107,24031,1,8,0:0:0:0:
196,122,24253,1,0,0:0:0:0:
196,122,24475,1,8,0:0:0:0:
337,270,24919,1,8,0:0:0:0:
267,154,25808,1,0,0:0:0:0:
267,154,26253,1,8,0:0:0:0:
190,174,26919,1,0,0:0:0:0:
190,174,27142,1,8,0:0:0:0:
190,174,27586,1,0,0:0:0:0:
190,174,27808,1,0,0:0:0:0:
190,174,28031,1,8,0:0:0:0:
293,112,29364,1,0,0:0:0:0:
293,112,29808,1,8,0:0:0:0:
293,112,30475,1,0,0:0:0:0:
293,112,30697,1,0,0:0:0:0:
293,112,31142,1,8,0:0:0:0:
293,112,31364,1,0,0:0:0:0:
293,112,31586,1,8,0:0:0:0:
233,110,32031,1,0,0:0:0:0:
233,110,32253,1,0,0:0:0:0:
233,110,32475,1,8,0:0:0:0:
205,164,32919,1,0,0:0:0:0:
278,154,33808,1,0,0:0:0:0:
278,154,34253,1,8,0:0:0:0:
278,154,34697,1,0,0:0:0:0:
268,101,36475,1,8,0:0:0:0:
188,92,37364,1,8,0:0:0:0:
188,92,37808,1,0,0:0:0:0:
188,92,38253,1,8,0:0:0:0:
125,158,40031,1,0,0:0:0:0:
238,139,40475,1,12,0:0:0:0:
209,120,41364,1,12,0:0:0:0:
209,112,41808,1,12,0:0:0:0:
241,108,43142,1,4,0:0:0:0:
241,108,43586,1,4,0:0:0:0:
257,185,45364,1,0,0:0:0:0:
253,205,45697,1,8,0:0:0:0:
257,185,46031,1,8,0:0:0:0:
113,128,46253,1,0,0:0:0:0:
240,174,46697,1,8,0:0:0:0:
222,125,47142,1,4,0:0:0:0:
187,107,47808,1,8,0:0:0:0:
187,107,48919,1,8,0:0:0:0:
187,107,49586,1,0,0:0:0:0:
187,107,50697,1,8,0:0:0:0:
187,107,51364,1,8,0:0:0:0:
187,107,52475,1,0,0:0:0:0:
322,85,54253,1,12,0:0:0:0:
256,180,56031,1,12,0:0:0:0:
136,138,57808,2,4,L|198:144,14,35
177,189,60919,1,8,0:0:0:0:
221,170,61364,1,4,0:0:0:0:
354,192,61808,1,8,0:0:0:0:
354,192,62031,1,8,0:0:0:0:
354,192,62253,1,0,0:0:0:0:
354,192,62697,1,8,0:0:0:0:
229,117,63142,1,0,0:0:0:0:
229,117,63364,1,0,0:0:0:0:
229,117,63586,1,8,0:0:0:0:
229,117,64031,1,0,0:0:0:0:
284,185,64475,1,8,0:0:0:0:
191,205,64697,1,0,0:0:0:0:
284,185,64919,1,0,0:0:0:0:
261,179,65808,1,8,0:0:0:0:
321,213,66031,1,0,0:0:0:0:
261,179,66253,1,8,0:0:0:0:
227,150,66697,1,4,0:0:0:0:
140,170,67142,1,8,0:0:0:0:
312,203,67586,1,8,0:0:0:0:
312,203,67919,1,8,0:0:0:0:
296,155,68253,1,8,0:0:0:0:
201,145,68475,1,0,0:0:0:0:
201,185,69364,1,0,0:0:0:0:
201,185,69586,1,0,0:0:0:0:
201,185,69808,1,8,0:0:0:0:
208,219,70253,1,0,0:0:0:0:
344,228,70697,1,8,0:0:0:0:
344,228,71142,1,0,0:0:0:0:
268,203,71364,1,8,0:0:0:0:
301,65,71586,1,0,0:0:0:0:
267,219,72031,1,12,0:0:0:0:
347,266,73808,1,0,0:0:0:0:
347,266,74253,1,0,0:0:0:0:
347,266,74697,1,8,0:0:0:0:
241,192,75586,1,4,0:0:0:0:
205,221,76031,1,8,0:0:0:0:
205,221,76475,1,0,0:0:0:0:
205,221,76808,1,8,0:0:0:0:
273,170,77142,1,8,0:0:0:0:
205,221,77364,1,0,0:0:0:0:
265,173,77808,1,8,0:0:0:0:
215,210,78253,1,0,0:0:0:0:
212,214,78586,1,0,0:0:0:0:
342,235,78919,1,8,0:0:0:0:
212,214,79142,1,8,0:0:0:0:
242,185,80031,1,0,0:0:0:0:
242,185,80475,1,8,0:0:0:0:
296,245,80697,1,8,0:0:0:0:
242,185,80919,1,8,0:0:0:0:
296,245,81364,1,0,0:0:0:0:
296,245,81808,1,8,0:0:0:0:
283,225,82142,1,8,0:0:0:0:
282,225,82475,1,8,0:0:0:0:
282,225,82697,1,0,0:0:0:0:
283,225,83142,1,8,0:0:0:0:
278,221,83808,1,0,0:0:0:0:
281,219,84031,1,8,0:0:0:0:
256,206,84475,1,4,0:0:0:0:
293,277,86253,1,8,0:0:0:0:
293,277,86586,1,0,0:0:0:0:
293,277,86919,1,8,0:0:0:0:
311,252,87253,1,0,0:0:0:0:
295,258,87586,1,12,0:0:0:0:
295,259,87808,1,12,0:0:0:0:
