osu file format v14

[General]
AudioFilename: optc.ogg
AudioLeadIn: 0
PreviewTime:61493
Countdown: 0
SampleSet: Soft
StackLeniency: 0.7
Mode: 0
LetterboxInBreaks: 0
WidescreenStoryboard: 1

[Editor]
Bookmarks: 1160,11826,18937,33159,47382,61604,75826
DistanceSpacing: 1
BeatDivisor: 4
GridSize: 32
TimelineZoom: 1

[Metadata]
Title:Gurenge (TV Size)
TitleUnicode:紅蓮華 (TV Size)
Artist:LiSA
ArtistUnicode:LiSA
Creator:Shad0w1and
Version:kunka's Hard
Source:鬼滅の刃
Tags:kimetsu no yaiba blade of demon opening op japanese anime jrock rock kunka kunkakunkakunkakunka Yugu Karen Setu Yogurtt KoldNoodl cjstmdals
BeatmapID:4501807
BeatmapSetID:2139037

[Difficulty]
HPDrainRate:5
CircleSize:4
OverallDifficulty:6
ApproachRate:7
SliderMultiplier:1.4
SliderTickRate:1

[Events]
//Background and Video events
0,0,"BG.jpg",0,0
Video,0,"optc.flv"
//Break Periods
//Storyboard Layer 0 (Background)
//Storyboard Layer 1 (Fail)
//Storyboard Layer 2 (Pass)
//Storyboard Layer 3 (Foreground)
//Storyboard Layer 4 (Overlay)
//Storyboard Sound Samples

[TimingPoints]
1160,444.444444444444,4,2,1,50,1,0
1160,-111.111111111111,4,2,1,50,0,0
10382,-125,4,2,1,50,0,0
11604,-125,4,2,1,20,0,0
11826,-83.3333333333333,4,2,1,60,0,0
18937,-100,4,2,1,40,0,0
33159,-100,4,2,1,45,0,0
45604,-100,4,2,1,55,0,0
47382,-111.111111111111,4,2,1,50,0,0
54493,-100,4,2,1,60,0,0
58048,-95.2380952380952,4,2,1,70,0,0
59826,-105.263157894737,4,2,1,40,0,0
60271,-133.333333333333,4,2,1,50,0,0
61048,-133.333333333333,4,2,1,5,0,0
61159,-166.666666666667,4,2,1,60,0,0
61493,-166.666666666667,4,2,1,15,0,0
61604,-83.3333333333333,4,2,1,80,0,1
72271,-83.3333333333333,4,2,1,70,0,0
75826,-83.3333333333333,4,2,1,80,0,1
84715,-111.111111111111,4,2,1,60,0,0
86493,-83.3333333333333,4,2,1,80,0,0

[Colours]
Combo1 : 218,164,135
Combo2 : 255,170,185
Combo3 : 130,115,200
Combo4 : 164,251,164
Combo5 : 185,185,185

[HitObjects]
52,302,1160,6,0,P|82:295|115:299,1,62.9999980773926,2|0,0:0|0:0,0:0:0:0:
155,311,1493,2,0,P|185:318|218:314,1,62.9999980773926
257,298,1826,1,2,0:0:0:0:
462,85,2937,6,0,P|432:92|399:88,1,62.9999980773926,2|0,0:0|0:0,0:0:0:0:
359,76,3270,2,0,P|329:69|296:73,1,62.9999980773926
257,89,3603,1,2,0:0:0:0:
40,203,4493,1,0,0:0:0:0:
40,203,4715,6,0,P|32:176|36:140,1,62.9999980773926,2|0,0:0|0:0,0:0:0:0:
49,99,5048,1,0,0:0:0:0:
186,162,5382,2,0,P|269:201|356:172,1,188.999994232178,2|0,0:0|0:0,0:0:0:0:
430,123,6271,1,0,0:0:0:0:
498,196,6493,6,0,L|490:258,1,62.9999980773926,2|0,0:0|0:0,0:0:0:0:
447,270,6826,2,0,L|439:332,1,62.9999980773926
400,353,7159,1,2,0:0:0:0:
227,247,7604,2,0,P|219:202|229:154,1,94.499997116089,2|0,0:0|0:0,0:0:0:0:
250,108,8048,1,2,0:0:0:0:
108,86,8271,6,0,P|113:118|106:152,1,62.9999980773926,2|0,0:0|0:0,0:0:0:0:
88,187,8604,2,0,P|83:219|90:253,1,62.9999980773926
104,289,8937,1,2,0:0:0:0:
296,351,9382,2,0,P|341:342|391:339,1,94.499997116089,2|0,0:0|0:0,0:0:0:0:
433,344,9826,1,2,0:0:0:0:
477,253,10048,6,0,P|482:221|475:192,1,62.9999980773926,2|0,0:0|0:0,0:0:0:0:
457,156,10382,2,0,B|385:116|321:156|321:156|233:208|165:156,1,308,0|2,0:0|0:0,0:0:0:0:
166,157,11826,6,0,P|180:219|189:281,1,125.999996154785,6|0,0:0|0:0,0:0:0:0:
172,338,12271,1,8,0:0:0:0:
306,333,12493,2,0,P|365:353|421:325,1,125.999996154785,2|8,0:0|0:0,0:0:0:0:
462,286,12937,1,2,0:0:0:0:
405,182,13159,2,0,P|406:161|410:135,3,41.9999987182618,10|2|2|10,0:0|0:0|0:0|0:0,0:0:0:0:
416,81,13604,6,0,P|360:54|302:74,1,125.999996154785,2|0,0:0|0:0,0:0:0:0:
257,111,14048,1,8,0:0:0:0:
270,245,14271,2,0,P|208:238|145:238,1,125.999996154785,2|8,0:0|0:0,0:0:0:0:
85,236,14715,1,2,0:0:0:0:
64,120,14937,2,0,P|64:99|67:78,3,41.9999987182618,10|2|10|10,0:0|0:0|0:0|0:0,0:0:0:0:
106,33,15382,6,0,P|167:24|231:26,1,125.999996154785,6|0,0:0|0:0,0:0:0:0:
289,29,15826,1,8,0:0:0:0:
412,82,16048,2,0,P|438:137|418:195,1,125.999996154785,2|8,0:0|0:0,0:0:0:0:
382,241,16492,1,2,0:0:0:0:
297,323,16715,2,0,P|276:320|255:319,3,41.9999987182618,10|2|2|2,0:0|0:0|0:0|0:0,0:0:0:0:
196,313,17159,5,10,0:0:0:0:
196,313,17271,2,0,B|156:327|156:327|115:316,1,83.9999974365235,0|2,0:0|0:0,0:0:0:0:
59,301,17604,1,0,0:0:0:0:
29,169,17826,1,14,0:0:0:0:
143,98,18048,2,0,L|186:106,3,41.9999987182618,8|8|8|8,0:0|0:3|0:3|0:3,0:0:0:0:
232,139,18493,2,0,L|273:131,3,41.9999987182618,10|2|2|2,0:0|0:0|0:0|0:0,0:0:0:0:
318,150,18937,6,0,P|342:193|341:250,1,105,6|2,0:0|0:0,0:0:0:0:
310,285,19382,2,0,P|274:282|235:287,1,70,0|2,0:0|0:0,0:0:0:0:
146,312,19826,1,0,0:0:0:0:
146,312,20048,1,2,1:0:0:0:
70,249,20271,2,0,P|62:217|70:179,1,70,2|2,0:0|0:0,0:0:0:0:
67,69,20715,5,2,1:0:0:0:
160,96,20937,1,2,1:0:0:0:
233,31,21159,1,2,0:0:0:0:
160,96,21382,1,2,0:0:0:0:
190,189,21604,2,0,L|185:230,3,35,2|2|2|2,0:0|0:0|1:0|0:0,0:0:0:0:
206,268,22048,2,0,P|240:264|277:264,1,70,2|2,0:0|0:0,0:0:0:0:
359,338,22493,6,0,P|409:350|459:336,1,105,2|0,1:0|0:0,0:0:0:0:
496,304,22937,1,2,0:0:0:0:
492,206,23159,2,0,P|490:172|484:137,1,70,2|0,0:0|0:0,0:0:0:0:
414,67,23604,1,2,1:0:0:0:
360,149,23826,2,0,P|361:182|368:218,1,70
341,327,24271,5,2,1:0:0:0:
243,319,24493,1,2,1:0:0:0:
243,319,24604,1,2,1:0:0:0:
243,319,24715,2,0,P|225:319|204:323,1,35,2|0,0:0|0:0,0:0:0:0:
110,313,25048,1,2,0:0:0:0:
83,290,25159,2,0,P|76:255|74:220,1,70,0|2,0:0|1:0,0:0:0:0:
139,147,25604,2,0,P|145:112|147:77,1,70,2|0,1:0|1:0,0:0:0:0:
256,54,26048,6,0,P|265:105|267:158,1,105,2|2,1:0|0:0,0:0:0:0:
252,205,26493,2,0,P|245:238|244:273,1,70,0|2,0:0|0:0,0:0:0:0:
316,340,26937,1,0,0:0:0:0:
316,340,27159,1,2,1:0:0:0:
407,303,27382,2,0,P|405:268|398:233,1,70,2|2,0:0|0:0,0:0:0:0:
385,123,27826,5,2,1:0:0:0:
289,146,28048,1,2,1:0:0:0:
202,99,28271,1,0,0:0:0:0:
133,187,28493,1,2,0:0:0:0:
133,187,28604,1,2,1:0:0:0:
133,187,28715,2,0,P|139:221|141:256,1,70,2|2,0:0|1:0,0:0:0:0:
43,266,29159,2,0,P|36:231|34:196,1,70,2|2,0:0|0:0,0:0:0:0:
74,91,29604,5,2,1:0:0:0:
74,91,29826,2,0,L|144:98,1,70
225,153,30271,2,0,L|295:146,1,70,2|0,0:0|0:0,0:0:0:0:
367,80,30715,1,2,1:0:0:0:
453,126,30937,1,0,0:0:0:0:
436,222,31159,1,0,0:0:0:0:
356,300,31382,6,0,P|321:293|286:291,1,70,2|2,1:0|1:0,0:0:0:0:
240,307,31715,1,2,1:0:0:0:
240,307,31826,2,0,P|205:313|170:315,1,70
159,217,32271,2,0,P|193:210|228:208,1,70,0|0,0:0|1:0,0:0:0:0:
325,217,32715,1,0,0:0:0:0:
382,138,32937,1,0,1:0:0:0:
334,36,33159,6,0,B|265:26|265:26|245:30|228:42,1,105,2|2,1:0|0:0,0:0:0:0:
192,67,33604,1,0,0:0:0:0:
232,157,33826,1,2,0:0:0:0:
232,157,33937,1,0,0:0:0:0:
232,157,34048,2,0,P|231:191|225:237,1,70,0|2,0:0|1:0,0:0:0:0:
154,294,34493,2,0,P|154:328|161:374,1,70,2|2,0:0|0:0,0:0:0:0:
271,371,34937,5,2,1:0:0:0:
360,331,35159,1,2,1:0:0:0:
455,355,35382,1,2,0:0:0:0:
360,331,35604,1,2,1:0:0:0:
345,234,35826,1,2,0:0:0:0:
345,234,35937,1,2,1:0:0:0:
345,234,36048,1,2,1:0:0:0:
397,150,36271,2,0,P|400:112|388:80,1,70,0|2,0:0|0:0,0:0:0:0:
286,38,36715,6,0,P|232:39|180:49,1,105,2|2,1:0|0:0,0:0:0:0:
136,66,37159,1,0,0:0:0:0:
97,156,37382,2,0,P|95:191|106:226,1,70,2|0,0:0|0:0,0:0:0:0:
199,249,37826,1,2,1:0:0:0:
294,227,38048,2,0,P|330:223|365:230,1,70,2|2,0:0|0:0,0:0:0:0:
462,281,38493,5,2,1:0:0:0:
383,340,38715,1,2,1:0:0:0:
286,324,38937,1,0,0:0:0:0:
383,340,39159,1,2,0:0:0:0:
362,229,39382,2,0,P|364:194|358:159,1,70,0|2,0:0|1:0,0:0:0:0:
351,61,39826,1,0,0:0:0:0:
259,26,40048,1,0,1:0:0:0:
160,79,40271,6,0,P|128:84|91:83,1,70,2|0,1:0|0:0,0:0:0:0:
43,69,40604,1,2,0:0:0:0:
43,69,40715,2,0,L|46:139,1,70,0|2,0:0|0:0,0:0:0:0:
117,206,41159,2,0,L|114:276,1,70,0|2,0:0|1:0,0:0:0:0:
160,362,41604,1,2,0:0:0:0:
253,331,41826,1,0,0:0:0:0:
364,342,42048,6,0,P|397:353|433:346,1,70,2|2,1:0|1:0,0:0:0:0:
478,260,42493,1,2,0:0:0:0:
441,169,42715,1,2,0:0:0:0:
356,218,42937,1,2,0:0:0:0:
271,169,43159,1,2,1:0:0:0:
197,233,43382,2,0,P|158:233|127:241,1,70,2|2,0:0|0:0,0:0:0:0:
38,306,43826,6,0,P|19:254|25:203,1,105,2|2,1:0|0:0,0:0:0:0:
43,160,44271,1,0,0:0:0:0:
118,97,44493,2,0,L|192:101,1,70,2|0,0:0|0:0,0:0:0:0:
269,154,44937,1,2,1:0:0:0:
255,250,45159,2,0,P|250:286|261:323,1,70,0|2,0:0|0:0,0:0:0:0:
377,360,45604,5,4,3:0:0:0:
450,295,45826,1,10,0:0:0:0:
450,295,45937,1,10,0:0:0:0:
450,295,46048,2,0,L|454:253,3,35,2|10|2|8,1:0|0:0|0:0|0:0,0:0:0:0:
423,220,46493,2,0,L|419:178,3,35,4|8|12|8,0:3|0:3|0:3|0:3,0:0:0:0:
430,137,46937,2,0,L|326:146,1,105,6|0,0:0|1:0,0:0:0:0:
276,133,47382,6,0,B|267:88|267:88|284:41,2,94.499997116089,6|2|2,0:0|0:0|0:0,0:0:0:0:
297,218,48271,1,0,0:0:0:0:
130,240,49159,6,0,B|85:231|85:231|38:248,2,94.499997116089,2|2|2,0:0|0:0|0:0,0:0:0:0:
215,261,50048,1,0,0:0:0:0:
373,329,50937,6,0,B|418:338|418:338|465:321,2,94.499997116089,2|2|2,0:0|0:0|0:0,0:0:0:0:
288,308,51826,1,0,0:0:0:0:
276,133,52715,6,0,B|267:88|267:88|284:41,2,94.499997116089,2|2|2,0:0|0:0|0:0,0:0:0:0:
297,218,53604,1,0,0:0:0:0:
297,218,54493,5,8,0:0:0:0:
297,218,54937,1,8,0:0:0:0:
130,322,55382,1,8,0:0:0:0:
130,322,55826,1,8,0:0:0:0:
33,150,56271,5,8,0:0:0:0:
33,150,56715,1,8,0:0:0:0:
200,46,57160,1,8,0:0:0:0:
200,46,57604,1,8,0:0:0:0:
297,218,58048,5,10,0:0:0:0:
395,188,58271,1,8,0:0:0:0:
372,288,58493,1,10,0:0:0:0:
297,218,58715,1,8,0:0:0:0:
319,117,58937,5,10,0:0:0:0:
249,42,59160,1,10,0:0:0:0:
349,19,59382,1,10,0:0:0:0:
319,117,59604,1,10,0:0:0:0:
228,138,59826,6,0,P|192:133|162:134,1,66.4999982242585,2|2,0:0|0:0,0:0:0:0:
88,194,60271,6,2,P|89:232|97:272,1,78.7500030040742,0|0,0:0|0:0,1:1:0:0:
114,291,60715,2,0,P|154:289|194:295,1,78.7500030040742
209,307,61159,6,2,P|239:302|271:303,1,62.9999980773926,2|0,0:0|0:0,1:1:0:0:
345,327,61604,5,6,0:0:0:0:
406,226,61826,1,2,0:0:0:0:
321,144,62048,2,0,P|310:101|321:61,1,83.9999974365235,10|2,0:0|0:0,0:0:0:0:
421,2,62493,2,0,P|442:2|464:8,2,41.9999987182618,2|8|2,0:0|0:0|1:0,0:0:0:0:
426,119,62937,1,8,0:0:0:0:
311,189,63159,1,2,0:0:0:0:
311,189,63271,1,10,0:0:0:0:
311,189,63382,5,2,0:0:0:0:
198,154,63604,1,2,0:0:0:0:
92,205,63826,2,0,P|81:247|92:287,1,83.9999974365235,10|2,0:0|0:0,0:0:0:0:
179,363,64271,2,0,P|199:363|222:357,2,41.9999987182618,2|8|2,0:0|0:0|1:0,0:0:0:0:
188,245,64715,1,8,0:0:0:0:
211,112,64937,1,2,0:0:0:0:
211,112,65048,1,10,0:0:0:0:
211,112,65159,6,0,P|204:71|211:29,1,83.9999974365235,6|2,0:0|0:0,0:0:0:0:
320,73,65604,2,0,P|327:114|320:156,1,83.9999974365235,8|2,0:0|0:0,0:0:0:0:
229,251,66048,2,0,P|208:246|186:245,2,41.9999987182618,2|8|2,0:0|0:0|1:0,0:0:0:0:
316,338,66493,2,0,P|356:346|402:345,1,83.9999974365235,10|2,0:0|0:0,0:0:0:0:
456,333,66826,1,10,0:0:0:0:
456,333,66937,6,0,P|473:269|447:211,1,125.999996154785,6|2,0:0|1:0,0:0:0:0:
422,184,67382,2,0,B|386:172|358:184|358:184|330:196|298:184,1,125.999996154785,10|2,0:0|1:0,0:0:0:0:
259,168,67826,2,0,P|238:163|216:162,2,41.9999987182618,2|8|2,0:0|0:0|1:0,0:0:0:0:
218,278,68271,1,8,0:0:0:0:
99,214,68493,1,10,0:0:0:0:
99,214,68604,1,8,0:0:0:0:
99,214,68715,6,0,P|82:150|108:92,1,125.999996154785,6|2,0:0|1:0,0:0:0:0:
142,52,69159,1,8,0:0:0:0:
258,73,69382,2,0,P|324:65|382:74,1,125.999996154785,2|8,0:0|0:0,0:0:0:0:
436,96,69826,1,2,1:0:0:0:
447,212,70048,2,0,L|440:296,1,83.9999974365235,10|2,0:0|0:0,0:0:0:0:
308,326,70493,6,0,L|301:242,1,83.9999974365235,4|0,0:0|0:0,0:0:0:0:
169,253,70937,1,10,0:0:0:0:
169,253,71159,2,0,P|110:273|54:245,1,125.999996154785,2|8,0:0|0:0,0:0:0:0:
18,200,71604,1,2,1:0:0:0:
63,91,71826,1,10,0:0:0:0:
180,100,72048,1,2,0:0:0:0:
301,40,72271,6,0,L|294:124,1,83.9999974365235,14|2,0:0|1:0,0:0:0:0:
288,182,72604,1,4,0:3:0:0:
120,293,72937,2,0,P|158:282|201:297,1,83.9999974365235,14|2,0:0|1:0,0:0:0:0:
246,330,73271,1,4,0:3:0:0:
421,317,73604,1,10,0:0:0:0:
421,317,73826,1,10,0:0:0:0:
410,183,74048,6,0,P|406:136|400:96,1,83.9999974365235,12|8,0:0|0:0,0:0:0:0:
365,52,74382,1,8,0:0:0:0:
365,52,74493,2,0,P|341:48|322:45,3,41.9999987182618,10|8|8|8,0:0|0:0|0:0|0:0,0:0:0:0:
271,71,74937,2,0,P|250:74|229:77,3,41.9999987182618,10|8|8|8,0:0|0:0|0:0|0:0,0:0:0:0:
176,103,75382,2,0,P|155:99|134:96,3,41.9999987182618,10|8|8|8,0:0|0:0|0:0|0:0,0:0:0:0:
75,93,75826,5,6,0:0:0:0:
27,200,76048,1,2,0:0:0:0:
70,309,76271,2,0,P|109:322|151:320,1,83.9999974365235,10|2,0:0|0:0,0:0:0:0:
267,333,76715,2,0,P|272:353|271:373,2,41.9999987182618,2|8|2,0:0|0:0|1:0,0:0:0:0:
220,225,77159,1,8,0:0:0:0:
235,88,77382,1,2,0:0:0:0:
235,88,77493,1,10,0:0:0:0:
235,88,77604,5,2,0:0:0:0:
348,58,77826,1,2,0:0:0:0:
447,121,78048,2,0,P|444:165|447:206,1,83.9999974365235,10|2,0:0|0:0,0:0:0:0:
455,322,78493,2,0,P|460:342|460:363,2,41.9999987182618,2|8|2,0:0|0:0|1:0,0:0:0:0:
348,271,78937,1,8,0:0:0:0:
226,328,79159,1,2,0:0:0:0:
226,328,79271,1,10,0:0:0:0:
226,328,79382,6,0,P|167:348|111:320,1,125.999996154785,6|2,0:0|1:0,0:0:0:0:
75,275,79826,2,0,P|75:230|80:192,1,83.9999974365235,8|2,0:0|0:0,0:0:0:0:
94,74,80271,2,0,P|94:53|88:32,2,41.9999987182618,0|8|2,0:0|0:0|0:0,0:0:0:0:
196,131,80715,2,0,P|237:143|277:134,1,83.9999974365235,10|0,0:0|0:0,0:0:0:0:
329,109,81048,1,8,0:0:0:0:
329,109,81159,6,0,P|369:100|409:112,1,83.9999974365235,6|0,0:0|0:0,0:0:0:0:
428,245,81604,2,0,P|367:258|307:240,1,125.999996154785,10|2,0:0|1:0,0:0:0:0:
250,224,82048,2,0,P|229:223|208:229,2,41.9999987182618,2|8|2,0:0|0:0|1:0,0:0:0:0:
319,128,82493,2,0,P|319:107|313:86,3,41.9999987182618,8|0|10|10,0:0|0:0|0:0|0:0,0:0:0:0:
282,37,82937,6,0,P|215:36|154:53,1,125.999996154785,6|2,0:0|1:0,0:0:0:0:
105,77,83382,1,8,0:0:0:0:
69,189,83604,1,10,0:0:0:0:
69,189,83715,1,8,0:0:0:0:
69,189,83826,2,0,L|79:230,3,41.9999987182618,10|8|10|8,0:0|0:0|0:0|0:0,0:0:0:0:
126,264,84271,2,0,L|120:305,3,41.9999987182618,10|8|10|8,0:0|0:0|0:0|0:0,0:0:0:0:
83,349,84715,5,14,0:0:0:0:
201,317,86493,6,0,P|243:312|286:322,1,83.9999974365235,14|2,0:0|1:0,0:0:0:0:
340,336,86826,1,4,0:3:0:0:
471,183,87159,2,0,P|464:142|453:97,1,83.9999974365235,14|0,0:0|0:0,0:0:0:0:
435,44,87493,1,4,0:3:0:0:
268,157,87826,1,14,0:0:0:0:
154,125,88048,1,4,0:0:0:0:
