osu file format v14

[General]
AudioFilename: optc.ogg
AudioLeadIn: 0
PreviewTime:61493
Countdown: 0
SampleSet: Soft
StackLeniency: 0.7
Mode: 0
LetterboxInBreaks: 0
WidescreenStoryboard: 1

[Editor]
Bookmarks: 1160,11826,18937,33159,47382,61604,75826
DistanceSpacing: 1.5
BeatDivisor: 4
GridSize: 32
TimelineZoom: 3.499999

[Metadata]
Title:Gurenge (TV Size)
TitleUnicode:紅蓮華 (TV Size)
Artist:LiSA
ArtistUnicode:LiSA
Creator:Shad0w1and
Version:Yugu's Extra
Source:鬼滅の刃
Tags:kimetsu no yaiba blade of demon opening op japanese anime jrock rock kunka kunkakunkakunkakunka Yugu Karen Setu Yogurtt KoldNoodl cjstmdals
BeatmapID:4507199
BeatmapSetID:2139037

[Difficulty]
HPDrainRate:6
CircleSize:4.3
OverallDifficulty:8.6
ApproachRate:9.5
SliderMultiplier:3
SliderTickRate:1

[Events]
//Background and Video events
0,0,"BG.jpg",0,0
Video,0,"optc.flv"
//Break Periods
2,47582,53968
//Storyboard Layer 0 (Background)
//Storyboard Layer 1 (Fail)
//Storyboard Layer 2 (Pass)
//Storyboard Layer 3 (Foreground)
//Storyboard Layer 4 (Overlay)
//Storyboard Sound Samples

[TimingPoints]
1160,444.444444444444,4,2,1,40,1,0
1160,-200,4,2,1,40,0,0
7937,-200,4,2,1,10,0,0
8048,-200,4,2,1,40,0,0
8271,-200,4,2,1,50,0,0
10048,-500,4,2,1,50,0,0
11159,-250,4,2,1,50,0,0
11826,-100,4,2,1,80,0,0
18937,-133.333333333333,4,2,1,50,0,0
25382,-100,4,2,1,50,0,0
25604,-80,4,2,1,50,0,0
25826,-66.6666666666667,4,2,1,50,0,0
26048,-133.333333333333,4,2,1,50,0,0
45604,-133.333333333333,4,2,1,60,0,0
46937,-66.6666666666667,4,2,1,70,0,0
54493,-250,4,2,1,50,0,0
54826,-250,4,2,1,10,0,0
54937,-250,4,2,1,50,0,0
55271,-250,4,2,1,10,0,0
55382,-222.222222222222,4,2,1,50,0,0
55715,-222.222222222222,4,2,1,10,0,0
55826,-222.222222222222,4,2,1,50,0,0
56159,-222.222222222222,4,2,1,10,0,0
56271,-200,4,2,1,60,0,0
56604,-200,4,2,1,10,0,0
56715,-200,4,2,1,60,0,0
57048,-200,4,2,1,10,0,0
57159,-181.818181818182,4,2,1,60,0,0
57493,-181.818181818182,4,2,1,10,0,0
57604,-181.818181818182,4,2,1,60,0,0
57937,-181.818181818182,4,2,1,10,0,0
58048,-83.3333333333333,4,2,1,70,0,0
58604,-83.3333333333333,4,2,1,10,0,0
58715,-83.3333333333333,4,2,1,70,0,0
58826,-83.3333333333333,4,2,1,10,0,0
58937,-76.9230769230769,4,2,1,70,0,0
59271,-76.9230769230769,4,2,1,10,0,0
59382,-76.9230769230769,4,2,1,70,0,0
59715,-76.9230769230769,4,2,1,10,0,0
59826,-500,4,2,1,50,0,0
60271,-666.666666666667,4,2,1,50,0,0
61548,-666.666666666667,4,2,1,10,0,0
61604,-83.3333333333333,4,2,1,90,0,1
70493,-100,4,2,1,90,0,1
70937,-83.3333333333333,4,2,1,90,0,1
72271,-100,4,2,1,70,0,0
72604,-125,4,2,1,70,0,0
72937,-100,4,2,1,70,0,0
73270,-125,4,2,1,70,0,0
73604,-100,4,2,1,50,0,0
74048,-100,4,2,1,60,0,0
74493,-100,4,2,1,70,0,0
74937,-100,4,2,1,80,0,0
75382,-100,4,2,1,90,0,0
75826,-83.3333333333333,4,2,1,90,0,1
84715,-100,4,2,1,90,0,0
84826,-100,4,2,1,90,0,0
84937,-100,4,2,1,20,0,0
85159,-100,4,2,1,30,0,0
85382,-100,4,2,1,40,0,0
85604,-100,4,2,1,50,0,0
85826,-100,4,2,1,60,0,0
86048,-100,4,2,1,70,0,0
86493,-66.6666666666667,4,2,1,90,0,0
86771,-66.6666666666667,4,2,1,10,0,0
86826,-83.3333333333333,4,2,1,90,0,0
87048,-83.3333333333333,4,2,1,10,0,0
87159,-66.6666666666667,4,2,1,90,0,0
87437,-66.6666666666667,4,2,1,10,0,0
87492,-83.3333333333333,4,2,1,90,0,0
87715,-83.3333333333333,4,2,1,10,0,0
87826,-83.3333333333333,4,2,1,90,0,0

[Colours]
Combo1 : 218,164,135
Combo2 : 255,170,185
Combo3 : 130,115,200
Combo4 : 164,251,164
Combo5 : 185,185,185

[HitObjects]
205,62,1160,6,0,B|191:116|191:116|205:170,2,112.5,2|0|2,0:0|0:0|0:0,0:0:0:0:
307,213,2937,2,0,B|320:267|320:267|307:322,2,112.5,2|0|2,0:0|0:0|0:0,0:0:0:0:
256,124,4493,1,0,0:0:0:0:
205,213,4715,6,0,B|191:267|191:267|205:322,1,112.5,2|0,0:0|0:0,0:0:0:0:
402,368,5382,2,0,B|256:331|256:331|110:368,1,300,2|0,0:0|0:0,0:0:0:0:
33,296,6493,2,0,B|142:268,2,112.5,2|0|2,0:0|0:0|0:0,0:0:0:0:
142,115,7604,2,0,B|33:88,1,112.5,2|0,0:0|0:0,0:0:0:0:
22,64,8048,1,2,0:0:0:0:
114,13,8271,5,2,0:0:0:0:
256,128,8604,1,0,0:0:0:0:
398,13,8937,1,2,0:0:0:0:
256,152,9382,6,0,B|238:188|250:218|256:224|261:230|274:260|256:296,1,150,2|2,0:0|0:0,0:0:0:0:
152,358,10048,6,0,B|35:333,1,120,2|0,0:0|0:0,0:0:0:0:
76,235,11159,6,0,B|193:260,1,120,2|2,0:0|0:0,0:0:0:0:
360,358,11826,6,0,B|516:324,1,150,6|0,0:0|0:0,0:0:0:0:
498,252,12159,1,0,0:0:0:0:
498,252,12271,2,0,B|351:283,1,150,8|2,0:0|0:0,0:0:0:0:
293,330,12604,1,0,0:0:0:0:
256,192,12826,1,8,0:0:0:0:
236,272,12937,1,2,0:0:0:0:
293,54,13159,5,10,0:0:0:0:
313,134,13270,1,2,0:0:0:0:
395,139,13382,1,2,0:0:0:0:
425,62,13493,1,10,0:0:0:0:
361,9,13604,6,0,B|306:26|306:26|290:140,1,150,2|0,0:0|0:0,0:0:0:0:
218,117,13937,1,0,0:0:0:0:
218,117,14048,2,0,B|206:26|206:26|151:9,1,150,8|2,0:0|0:0,0:0:0:0:
87,62,14382,1,0,0:0:0:0:
86,192,14604,1,8,0:0:0:0:
137,127,14715,1,2,0:0:0:0:
35,257,14937,5,10,0:0:0:0:
116,268,15048,1,2,0:0:0:0:
197,279,15159,1,10,0:0:0:0:
278,290,15271,1,10,0:0:0:0:
359,301,15382,6,0,B|364:250|364:250|375:241|375:241|355:239|355:239|366:230|366:230|371:180,1,150,6|0,0:0|0:0,0:0:0:0:
457,151,15715,1,0,0:0:0:0:
457,151,15826,2,0,B|451:201|451:201|440:210|440:210|460:212|460:212|449:221|449:221|444:271,1,150,8|2,0:0|0:0,0:0:0:0:
359,301,16159,1,0,0:0:0:0:
291,165,16382,1,8,0:0:0:0:
374,158,16493,1,2,0:0:0:0:
280,23,16715,5,10,0:0:0:0:
244,97,16826,1,2,0:0:0:0:
291,165,16937,1,2,0:0:0:0:
374,158,17048,1,2,0:0:0:0:
409,88,17159,5,10,0:0:0:0:
363,18,17271,1,0,0:0:0:0:
209,172,17493,2,0,B|209:233|209:233|196:258|196:258|196:319,1,150,2|0,0:0|0:0,0:0:0:0:
315,319,17826,2,0,B|315:258|315:258|303:233|303:233|303:172,1,150,14|8,0:0|0:0,0:0:0:0:
256,104,18159,5,8,0:3:0:0:
241,101,18271,1,8,0:3:0:0:
226,98,18382,1,8,0:3:0:0:
265,79,18493,5,10,0:0:0:0:
192,43,18604,1,2,0:0:0:0:
116,69,18715,1,2,0:0:0:0:
81,141,18826,1,2,0:0:0:0:
106,217,18937,6,0,P|130:278|130:337,1,112.500004291535,6|0,0:0|0:0,0:0:0:0:
244,324,19382,2,0,L|127:324,1,112.500004291535,0|2,0:0|0:0,0:0:0:0:
256,234,19826,1,0,0:0:0:0:
328,290,20048,1,2,1:0:0:0:
316,380,20271,1,2,0:0:0:0:
400,346,20493,1,2,0:0:0:0:
410,342,20604,1,2,0:0:0:0:
421,342,20715,6,0,L|501:356,1,56.2500021457673,2|0,1:0|0:0,0:0:0:0:
467,246,20937,2,0,L|387:260,1,56.2500021457673,2|0,1:0|0:0,0:0:0:0:
421,150,21159,2,0,L|501:164,1,56.2500021457673,2|0,0:0|0:0,0:0:0:0:
342,192,21382,1,2,0:0:0:0:
313,192,21493,1,2,1:0:0:0:
284,192,21604,6,0,B|257:200|257:200|231:192,1,56.2500021457673,2|2,0:0|0:0,0:0:0:0:
131,114,21826,1,2,1:0:0:0:
131,114,21937,2,0,B|158:106|158:106|184:114,1,56.2500021457673,2|2,0:0|0:0,0:0:0:0:
84,191,22159,1,0,0:0:0:0:
84,191,22271,2,0,B|58:199|58:199|31:191,1,56.2500021457673,2|0,0:0|0:0,0:0:0:0:
131,270,22493,6,0,B|145:324|145:324|131:378,1,112.500004291535,2|0,1:0|0:0,0:0:0:0:
58,324,22937,1,2,0:0:0:0:
242,357,23159,2,0,B|185:139,1,225.000008583069,2|2,0:0|1:0,0:0:0:0:
322,219,23826,2,0,B|214:248,1,112.500004291535
131,270,24271,5,2,1:0:0:0:
193,334,24493,2,0,L|211:402,1,56.2500021457673,2|2,1:0|1:0,0:0:0:0:
319,334,24715,1,2,0:0:0:0:
319,334,24826,2,0,L|301:402,1,56.2500021457673
381,270,25048,1,2,0:0:0:0:
381,270,25159,2,0,L|449:288,1,56.2500021457673
305,212,25382,6,0,L|224:190,1,75,2|0,1:0|0:0,0:0:0:0:
367,148,25604,6,0,L|459:172,1,93.75,2|0,1:0|0:0,0:0:0:0:
291,90,25826,6,0,L|200:66,3,56.2500021457673,0|0|0|0,1:0|1:0|1:0|1:0,0:0:0:0:
339,40,26048,6,0,P|292:69|236:75,1,112.500004291535,2|0,1:0|0:0,0:0:0:0:
83,83,26493,2,0,P|137:95|180:130,1,112.500004291535,0|2,0:0|0:0,0:0:0:0:
100,172,26937,1,0,0:0:0:0:
83,83,27159,1,2,1:0:0:0:
151,24,27382,1,2,0:0:0:0:
83,83,27604,1,2,0:0:0:0:
72,79,27715,1,2,0:0:0:0:
64,71,27826,6,0,L|48:6,1,56.2500021457673,2|0,1:0|0:0,0:0:0:0:
16,189,28048,2,0,L|2:134,1,56.2500021457673,2|2,1:0|0:0,0:0:0:0:
64,306,28271,2,0,L|78:252,1,56.2500021457673
170,192,28493,1,2,0:0:0:0:
199,192,28604,1,2,1:0:0:0:
228,192,28715,6,0,B|255:200|255:200|281:192,1,56.2500021457673,2|2,0:0|0:0,0:0:0:0:
381,114,28937,2,0,B|354:106|354:106|328:114,1,56.2500021457673,2|2,1:0|0:0,0:0:0:0:
428,192,29159,2,0,B|454:200|454:200|481:192,1,56.2500021457673,2|2,0:0|0:0,0:0:0:0:
381,270,29382,2,0,B|407:278,1,28.1250010728836,2|0,0:0|0:0,0:0:0:0:
378,280,29493,2,0,B|404:288,1,28.1250010728836,2|0,0:0|0:0,0:0:0:0:
375,291,29604,6,0,B|322:307|322:307|267:291,1,112.500004291535,2|0,1:0|0:0,0:0:0:0:
256,192,30048,1,0,0:0:0:0:
137,93,30271,2,0,B|190:77|190:77|297:108|297:108|352:92,1,225.000008583069,2|2,0:0|1:0,0:0:0:0:
407,20,30937,1,0,0:0:0:0:
478,75,31159,1,0,0:0:0:0:
423,146,31382,5,2,1:0:0:0:
494,201,31604,1,2,1:0:0:0:
470,215,31715,1,2,1:0:0:0:
455,238,31826,2,0,L|484:350,1,112.500004291535
356,337,32271,1,0,0:0:0:0:
341,314,32382,2,0,L|291:326,1,28.1250010728836,0|0,1:0|1:0,0:0:0:0:
317,300,32493,1,0,1:0:0:0:
195,300,32715,1,0,0:0:0:0:
256,192,32937,2,0,L|256:160,3,28.1250010728836,0|0|0|0,1:0|1:0|1:0|1:0,0:0:0:0:
255,192,33159,6,0,P|173:191|117:131,1,168.750006437302,2|2,1:0|0:0,0:0:0:0:
117,131,33604,1,0,0:0:0:0:
256,192,33826,2,0,P|338:191|394:131,1,168.750006437302,2|0,0:0|0:0,0:0:0:0:
394,131,34271,1,2,1:0:0:0:
256,23,34493,2,0,L|256:192,1,168.750006437302,2|2,0:0|0:0,0:0:0:0:
256,192,34937,5,2,1:0:0:0:
128,256,35159,1,2,1:0:0:0:
0,192,35382,2,0,L|55:206,1,56.2500021457673,2|0,0:0|0:0,0:0:0:0:
128,256,35604,2,0,L|183:242,1,56.2500021457673,2|0,1:0|0:0,0:0:0:0:
256,192,35826,5,2,0:0:0:0:
256,163,35937,1,2,1:0:0:0:
256,134,36048,1,2,1:0:0:0:
256,105,36159,1,0,0:0:0:0:
256,76,36271,1,0,0:0:0:0:
256,192,36493,2,0,L|256:224,3,28.1250010728836,2|0|0|0,0:0|0:0|0:0|0:0,0:0:0:0:
256,192,36715,6,0,P|174:193|118:253,1,168.750006437302,2|2,1:0|0:0,0:0:0:0:
118,253,37159,1,0,0:0:0:0:
256,192,37382,2,0,P|338:193|394:253,1,168.750006437302,2|0,0:0|0:0,0:0:0:0:
394,253,37827,1,2,1:0:0:0:
256,361,38049,2,0,L|256:192,1,168.750006437302,2|2,0:0|0:0,0:0:0:0:
256,192,38493,5,2,1:0:0:0:
384,128,38715,1,2,1:0:0:0:
512,192,38937,2,0,L|457:178,1,56.2500021457673
384,128,39159,2,0,L|329:142,1,56.2500021457673,2|0,0:0|0:0,0:0:0:0:
256,192,39382,5,0,0:0:0:0:
256,221,39493,1,0,1:0:0:0:
256,250,39604,1,2,1:0:0:0:
256,279,39715,1,0,0:0:0:0:
256,308,39826,1,0,0:0:0:0:
108,348,40048,2,0,L|72:360,1,28.1250010728836,0|0,1:0|1:0,0:0:0:0:
82,335,40159,2,0,L|46:347,1,28.1250010728836,0|0,1:0|1:0,0:0:0:0:
55,321,40271,6,0,P|67:240|134:192,1,168.750006437302,2|2,1:0|0:0,0:0:0:0:
134,192,40715,1,0,0:0:0:0:
55,62,40937,2,0,P|67:143|134:191,1,168.750006437302,2|0,0:0|0:0,0:0:0:0:
134,191,41382,1,2,1:0:0:0:
256,192,41604,2,0,L|384:192,1,112.500004291535,2|0,0:0|0:0,0:0:0:0:
416,268,42048,5,2,1:0:0:0:
416,116,42271,1,2,1:0:0:0:
256,192,42493,1,2,0:0:0:0:
376,76,42715,5,2,0:0:0:0:
376,76,42826,2,0,L|421:121,1,56.2500021457673,2|2,1:0|0:0,0:0:0:0:
416,268,43048,1,0,0:0:0:0:
416,268,43159,2,0,L|377:308,1,56.2500021457673,2|0,1:0|0:0,0:0:0:0:
462,192,43382,1,2,0:0:0:0:
493,367,43604,2,0,L|454:348,1,28.1250010728836,2|0,0:0|0:0,0:0:0:0:
499,339,43715,2,0,L|455:342,1,28.1250010728836
489,312,43826,6,0,L|365:307,1,112.500004291535,2|0,1:0|0:0,0:0:0:0:
256,352,44271,1,0,0:0:0:0:
23,312,44493,2,0,L|147:307,1,112.500004291535,2|0,0:0|0:0,0:0:0:0:
256,261,44937,1,2,1:0:0:0:
325,192,45159,1,0,0:0:0:0:
256,123,45382,1,2,0:0:0:0:
187,192,45604,5,4,3:0:0:0:
112,28,45826,1,10,0:0:0:0:
57,40,45937,1,10,0:0:0:0:
124,37,46048,1,2,1:0:0:0:
69,49,46159,2,0,P|73:86|89:118,1,56.2500021457673,10|2,0:0|0:0,0:0:0:0:
187,192,46382,1,8,0:0:0:0:
187,192,46493,5,4,0:3:0:0:
198,217,46604,1,8,0:3:0:0:
203,244,46715,1,12,0:3:0:0:
201,272,46826,1,8,0:3:0:0:
125,247,46937,6,0,P|230:251|256:353,1,225.000008583069,6|0,0:0|1:0,0:0:0:0:
167,384,47215,1,0,1:0:0:0:
161,382,47271,1,0,1:0:0:0:
155,381,47326,1,0,1:0:0:0:
149,380,47382,5,6,0:0:0:0:
297,150,54493,6,0,P|311:192|297:233,1,90,8|0,0:0|0:0,0:0:0:0:
214,234,54937,2,0,P|200:192|214:150,1,90,8|0,0:0|0:0,0:0:0:0:
302,144,55382,6,0,P|318:192|302:238,1,101.249996910095,8|0,0:0|0:0,0:0:0:0:
210,238,55826,2,0,P|193:191|209:144,1,101.249996910095,8|0,0:0|0:0,0:0:0:0:
307,139,56271,6,0,P|324:192|307:243,1,112.5,8|0,0:0|0:0,0:0:0:0:
205,243,56715,2,0,P|187:191|204:139,1,112.5,8|0,0:0|0:0,0:0:0:0:
312,134,57159,6,0,P|331:192|312:248,1,123.75000377655,8|0,0:0|0:0,0:0:0:0:
199,249,57604,2,0,P|180:191|199:134,1,123.75000377655,8|0,0:0|0:0,0:0:0:0:
255,36,58048,5,10,0:0:0:0:
255,36,58271,1,8,0:0:0:0:
297,149,58493,6,0,P|311:192|297:233,1,89.9999972534181,10|0,0:0|0:0,0:0:0:0:
214,149,58715,2,0,P|200:191|214:233,1,89.9999972534181,8|0,0:0|0:0,0:0:0:0:
339,69,58937,5,10,0:0:0:0:
300,236,59159,2,0,P|315:191|300:146,1,97.4999955368044,10|0,0:0|0:0,0:0:0:0:
173,69,59382,5,10,0:0:0:0:
211,236,59604,2,0,P|196:191|211:146,1,97.4999955368044,10|0,0:0|0:0,0:0:0:0:
255,348,59826,6,0,L|255:366,2,15,2|2|2,0:0|0:0|0:0,0:0:0:0:
200,213,60271,6,2,B|196:210|196:210|192:211|192:211|187:209|187:209|184:210|184:210|180:208|180:208|176:208|176:208|173:209|173:209|168:207|168:207|164:205|164:205|160:206|160:206|156:206|156:206|152:204|152:204|149:203|149:203|144:203|144:203|139:203|139:203|138:200|138:200|133:202|133:202|128:201|128:201|126:198|126:198|123:200|123:200|120:198|120:198|116:199|116:199|113:197|113:197|79:191,1,129.374996051788,0|0,0:0|0:0,1:1:0:0:
34,134,61604,6,0,L|86:224,1,89.9999972534181,6|0,0:0|0:0,0:0:0:0:
84,369,61826,2,0,L|39:292,1,89.9999972534181,2|2,0:0|1:0,0:0:0:0:
125,129,62048,2,0,L|177:219,1,89.9999972534181,10|0,0:0|0:0,0:0:0:0:
175,364,62271,2,0,L|129:286,1,89.9999972534181,2|2,0:0|1:0,0:0:0:0:
256,64,62493,6,0,L|256:192,1,89.9999972534181,2|8,0:0|0:0,0:0:0:0:
337,364,62715,1,2,1:0:0:0:
382,286,62826,2,0,L|337:364,1,89.9999972534181,2|8,0:0|0:0,0:0:0:0:
341,206,63048,1,2,1:0:0:0:
387,129,63159,2,0,L|335:219,1,89.9999972534181,2|10,0:0|0:0,0:0:0:0:
427,369,63382,6,0,L|473:292,1,89.9999972534181,2|0,0:0|0:0,0:0:0:0:
478,134,63604,2,0,L|426:224,1,89.9999972534181,2|2,0:0|1:0,0:0:0:0:
337,364,63826,2,0,L|382:286,1,89.9999972534181,10|0,0:0|0:0,0:0:0:0:
387,129,64048,2,0,L|335:219,1,89.9999972534181,2|2,0:0|1:0,0:0:0:0:
256,320,64271,6,0,L|256:230,1,89.9999972534181,2|8,0:0|0:0,0:0:0:0:
341,51,64493,1,2,1:0:0:0:
387,129,64604,2,0,L|335:39,1,89.9999972534181,2|8,0:0|0:0,0:0:0:0:
170,51,64826,1,0,1:0:0:0:
125,129,64937,2,0,L|170:51,1,89.9999972534181,2|10,0:0|0:0,0:0:0:0:
256,192,65159,6,0,B|212:170|176:185|168:192|161:199|125:213|81:192,1,179.999994506836,6|2,0:0|0:0,0:0:0:0:
299,255,65493,1,2,1:0:0:0:
430,192,65604,2,0,B|387:213|351:199|344:192|336:185|300:170|256:192,1,179.999994506836,8|2,0:0|0:0,0:0:0:0:
387,129,65937,1,0,0:0:0:0:
387,129,66048,5,2,0:0:0:0:
372,277,66159,1,8,0:0:0:0:
213,255,66271,6,0,P|199:297|213:338,1,89.9999972534181,2|0,1:0|0:0,0:0:0:0:
299,234,66493,2,0,P|312:192|299:150,1,89.9999972534181,10|2,0:0|1:0,0:0:0:0:
213,45,66715,2,0,P|198:87|213:129,1,89.9999972534181,2|10,0:0|0:0,0:0:0:0:
447,192,66937,6,0,P|452:69|330:60,1,269.999991760254,6|2,0:0|1:0,0:0:0:0:
330,323,67382,2,0,P|452:314|448:192,1,269.999991760254,10|2,0:0|1:0,0:0:0:0:
256,192,67826,1,2,0:0:0:0:
387,255,67937,1,8,0:0:0:0:
387,255,68048,2,0,P|364:218|362:173,1,89.9999972534181,2|2,1:0|0:0,0:0:0:0:
328,65,68271,2,0,P|351:102|353:147,1,89.9999972534181,8|0,0:0|0:0,0:0:0:0:
256,192,68493,1,10,0:0:0:0:
184,65,68604,1,8,0:0:0:0:
138,323,68715,6,0,P|134:200|256:192,1,269.999991760254,6|2,0:0|1:0,0:0:0:0:
200,260,69159,1,8,0:0:0:0:
32,192,69382,1,2,0:0:0:0:
32,192,69493,1,2,1:0:0:0:
32,192,69604,6,0,B|43:148|43:148|32:104,2,89.9999972534181,0|8|2,0:0|0:0|1:0,0:0:0:0:
89,261,69937,1,0,0:0:0:0:
89,261,70048,2,0,B|77:304|77:304|89:348,1,89.9999972534181,10|2,0:0|1:0,0:0:0:0:
146,192,70271,2,0,B|134:148|134:148|146:104,1,89.9999972534181,2|8,0:0|0:0,0:0:0:0:
256,32,70493,6,0,L|256:320,1,225,4|2,0:0|1:0,0:0:0:0:
366,192,70937,6,0,B|377:235|377:235|366:279,1,89.9999972534181,10|0,0:0|0:0,0:0:0:0:
423,123,71159,2,0,B|435:80|435:80|423:36,1,89.9999972534181,2|2,0:0|1:0,0:0:0:0:
480,192,71382,1,0,0:0:0:0:
480,192,71493,1,8,0:0:0:0:
480,192,71604,2,0,B|469:236|469:236|480:280,2,89.9999972534181,2|0|10,1:0|0:0|0:0,0:0:0:0:
256,352,72048,1,2,0:0:0:0:
96,192,72271,6,0,L|96:341,1,150,14|0,0:0|0:0,0:0:0:0:
127,226,72604,2,0,L|96:342,1,120,4|0,0:3|0:0,0:0:0:0:
171,212,72937,6,0,L|96:342,1,150,14|0,0:0|0:0,0:0:0:0:
181,257,73271,2,0,L|96:342,1,120,4|0,0:3|0:0,0:0:0:0:
195,287,73604,5,10,0:0:0:0:
162,305,73715,1,0,0:0:0:0:
129,323,73826,1,10,0:0:0:0:
96,342,73937,1,0,0:0:0:0:
31,265,74048,5,12,0:0:0:0:
82,293,74159,1,8,0:0:0:0:
134,323,74270,1,8,0:0:0:0:
187,353,74381,1,8,0:0:0:0:
187,343,74493,5,10,0:0:0:0:
197,276,74604,1,8,0:0:0:0:
256,243,74715,1,8,0:0:0:0:
315,276,74826,1,8,0:0:0:0:
325,343,74937,5,10,0:0:0:0:
323,268,75048,1,8,0:0:0:0:
256,233,75160,1,8,0:0:0:0:
189,268,75271,1,8,0:0:0:0:
187,343,75382,5,10,0:0:0:0:
182,260,75493,1,8,0:0:0:0:
256,223,75604,1,8,0:0:0:0:
330,260,75715,1,8,0:0:0:0:
325,343,75826,6,0,P|326:298|353:264,1,90,6|0,0:0|0:0,0:0:0:0:
480,192,76048,2,0,P|478:236|451:270,1,90,2|2,0:0|1:0,0:0:0:0:
187,343,76271,2,0,P|185:298|158:264,1,90,10|0,0:0|0:0,0:0:0:0:
32,192,76493,2,0,P|33:236|60:270,1,90,2|2,0:0|1:0,0:0:0:0:
256,128,76715,6,0,P|270:86|256:44,1,90,2|8,0:0|0:0,0:0:0:0:
318,275,76937,1,2,1:0:0:0:
320,192,77048,2,0,P|334:233|319:275,1,90,2|8,0:0|0:0,0:0:0:0:
192,275,77271,1,2,1:0:0:0:
192,192,77382,2,0,P|177:233|192:275,1,90,2|10,0:0|0:0,0:0:0:0:
325,41,77604,6,0,P|326:85|353:119,1,90,2|0,0:0|0:0,0:0:0:0:
480,192,77826,2,0,P|478:147|451:113,1,90,2|2,0:0|1:0,0:0:0:0:
187,41,78048,2,0,P|185:85|158:119,1,90,10|0,0:0|0:0,0:0:0:0:
32,192,78271,2,0,P|33:147|60:113,1,90,2|2,0:0|1:0,0:0:0:0:
256,256,78493,6,0,P|241:297|255:339,1,90,2|8,0:0|0:0,0:0:0:0:
319,108,78715,1,2,1:0:0:0:
320,192,78826,2,0,P|334:150|319:108,1,90,2|8,0:0|0:0,0:0:0:0:
191,108,79048,1,2,1:0:0:0:
192,192,79159,2,0,P|177:150|192:108,1,90,2|10,0:0|0:0,0:0:0:0:
339,208,79382,6,0,B|375:248|375:248|354:390,1,179.999994506836,6|0,0:0|0:0,0:0:0:0:
256,339,79715,1,2,1:0:0:0:
444,297,79826,2,0,B|457:207,1,89.9999972534181,8|0,0:0|0:0,0:0:0:0:
173,208,80048,6,0,B|137:248|137:248|158:390,1,179.999994506836,2|0,0:0|0:0,0:0:0:0:
256,256,80382,1,8,0:0:0:0:
68,297,80493,2,0,B|54:207,1,89.9999972534181,2|0,0:0|0:0,0:0:0:0:
188,92,80715,1,10,0:0:0:0:
188,92,80826,2,0,B|117:147,1,89.9999972534181,2|0,1:0|0:0,0:0:0:0:
54,207,81048,1,8,0:0:0:0:
20,25,81159,6,0,B|207:99,1,179.999994506836,6|0,0:0|0:0,0:0:0:0:
256,19,81493,1,2,1:0:0:0:
492,25,81604,2,0,B|324:91,1,179.999994506836,10|0,0:0|0:0,0:0:0:0:
312,189,81937,2,0,L|299:290,1,89.9999972534181,2|2,1:0|0:0,0:0:0:0:
408,58,82159,1,8,0:0:0:0:
407,157,82271,2,0,L|394:258,1,89.9999972534181,2|2,1:0|0:0,0:0:0:0:
200,189,82493,2,0,L|213:290,1,89.9999972534181,8|0,0:0|0:0,0:0:0:0:
105,157,82715,1,10,0:0:0:0:
104,58,82826,1,10,0:0:0:0:
256,18,82937,6,0,B|299:105|270:177|256:192|243:206|212:279|256:366,1,359.999989013672,6|8,0:0|0:0,0:0:0:0:
96,114,83604,5,10,0:0:0:0:
79,91,83715,1,8,0:0:0:0:
102,75,83826,1,10,0:0:0:0:
118,98,83937,1,8,0:0:0:0:
68,117,84048,5,10,0:0:0:0:
77,64,84159,1,8,0:0:0:0:
130,73,84271,1,10,0:0:0:0:
121,126,84382,1,8,0:0:0:0:
86,170,84493,5,10,0:0:0:0:
112,19,84604,1,8,0:0:0:0:
196,112,84715,5,14,0:0:0:0:
1,78,84826,1,6,0:0:0:0:
256,192,84937,12,0,86048,0:0:0:0:
256,192,86493,6,0,P|335:105|221:78,1,281.250010728836,14|0,0:0|0:0,0:0:0:0:
260,169,86826,6,0,P|310:112|237:95,1,179.999994506836,4|0,0:3|0:0,0:0:0:0:
256,192,87159,6,0,P|177:279|291:306,1,281.250010728836,14|0,0:0|0:0,0:0:0:0:
253,216,87492,6,0,P|202:272|275:289,1,179.999994506836,4|0,0:3|0:0,0:0:0:0:
146,47,87826,5,14,0:0:0:0:
366,337,88048,5,4,0:0:0:0:
