osu file format v14

[General]
AudioFilename: optc.ogg
AudioLeadIn: 0
PreviewTime: 61493
Countdown: 0
SampleSet: Soft
StackLeniency: 0.7
Mode: 0
LetterboxInBreaks: 0
WidescreenStoryboard: 1

[Editor]
DistanceSpacing: 1
BeatDivisor: 4
GridSize: 4
TimelineZoom: 2.5

[Metadata]
Title:Gurenge (TV Size)
TitleUnicode:紅蓮華 (TV Size)
Artist:LiSA
ArtistUnicode:LiSA
Creator:Shad0w1and
Version:YogurttNoodl's Insane
Source:鬼滅の刃
Tags:kimetsu no yaiba blade of demon opening op japanese anime jrock rock kunka kunkakunkakunkakunka Yugu Karen Setu Yogurtt KoldNoodl cjstmdals
BeatmapID:4507528
BeatmapSetID:2139037

[Difficulty]
HPDrainRate:6
CircleSize:4
OverallDifficulty:7.5
ApproachRate:8
SliderMultiplier:1.8
SliderTickRate:1

[Events]
//Background and Video events
0,0,"BG.jpg",0,0
Video,0,"optc.flv"
//Break Periods
//Storyboard Layer 0 (Background)
//Storyboard Layer 1 (Fail)
//Storyboard Layer 2 (Pass)
//Storyboard Layer 3 (Foreground)
//Storyboard Layer 4 (Overlay)
//Storyboard Sound Samples

[TimingPoints]
1160,444.444444444444,4,2,33,50,1,0
1160,-133.333333333333,4,2,33,50,0,0
11159,-250,4,2,33,50,0,0
11826,-83.3333333333333,4,2,33,90,0,0
12271,-100,4,2,33,90,0,0
18937,-100,4,2,33,60,0,0
19382,-125,4,2,33,60,0,0
45604,-100,4,2,33,60,0,0
47382,-100,4,2,33,50,0,0
47826,-133.333333333333,4,2,33,50,0,0
61604,-83.3333333333333,4,2,33,90,0,1
62048,-100,4,2,33,90,0,1
84715,-100,4,2,33,90,0,0
85382,-100,4,2,33,40,0,0
86493,-100,4,2,33,90,0,1
88048,-200,4,2,33,90,0,0
88271,-200,4,2,33,20,0,0

[Colours]
Combo1 : 218,164,135
Combo2 : 255,170,185
Combo3 : 130,115,200
Combo4 : 164,251,164
Combo5 : 185,185,185

[HitObjects]
133,100,1160,6,0,P|66:113|-20:115,1,135.000005149842,2|0,0:0|0:0,0:0:0:0:
175,182,1826,2,0,P|216:153|322:175,1,135.000005149842,2|0,0:0|0:0,0:0:0:0:
297,157,2493,1,0,0:0:0:0:
250,240,2715,1,0,0:0:0:0:
346,377,2937,6,0,L|330:226,1,135.000005149842,2|0,0:0|0:0,0:0:0:0:
213,316,3604,2,0,P|146:308|117:246,1,135.000005149842,2|0,0:0|0:0,0:0:0:0:
116,252,4271,1,0,0:0:0:0:
148,173,4493,1,2,0:0:0:0:
31,85,4715,6,0,P|31:127|42:167,2,67.5000025749208,2|0|0,0:0|0:0|0:0,0:0:0:0:
302,97,5382,2,0,P|245:74|103:120,1,202.500007724762,2|0,0:0|0:0,0:0:0:0:
113,109,6493,5,2,0:0:0:0:
259,162,6826,1,2,0:0:0:0:
230,0,7159,1,2,0:0:0:0:
185,98,7382,6,0,P|185:135|193:169,1,67.5000025749208,0|2,0:0|0:0,0:0:0:0:
227,313,7826,2,0,P|233:280|233:246,1,67.5000025749208,0|2,0:0|0:0,0:0:0:0:
111,190,8271,5,2,0:0:0:0:
269,124,8604,1,0,0:0:0:0:
131,217,8937,2,0,P|96:200|-5:223,1,135.000005149842,0|2,0:0|0:0,0:0:0:0:
117,311,9604,1,0,0:0:0:0:
117,311,9715,2,0,P|153:308|188:293,1,67.5000025749208
302,309,10048,6,0,P|260:291|179:344,1,135.000005149842,2|0,0:0|0:0,0:0:0:0:
131,217,10715,1,0,0:0:0:0:
320,213,11159,6,0,L|310:132,1,72,2|2,0:0|0:0,0:0:0:0:
314,116,11826,6,0,B|346:155|346:155|321:294,1,161.999995056153,14|8,0:1|0:3,0:0:0:0:
321,293,12271,1,8,0:0:0:0:
199,214,12493,1,8,0:1:0:0:
113,262,12715,1,8,0:1:0:0:
212,119,12937,1,8,0:3:0:0:
251,335,13159,6,0,L|190:324,1,45,8|8,3:0|3:0,0:0:0:0:
52,378,13382,1,8,3:0:0:0:
52,378,13493,1,8,3:0:0:0:
52,378,13604,6,0,P|33:308|59:233,1,135,14|8,0:1|0:3,0:0:0:0:
68,222,14048,1,8,0:0:0:0:
166,268,14271,1,8,0:1:0:0:
309,147,14493,1,8,0:1:0:0:
211,193,14716,1,8,0:3:0:0:
289,291,14937,1,8,3:0:0:0:
289,291,15048,1,8,3:0:0:0:
289,291,15159,1,8,3:0:0:0:
289,291,15271,1,8,3:0:0:0:
289,291,15382,6,0,P|291:338|290:399,1,90,14|0,0:1|0:0,0:0:0:0:
373,210,15826,2,0,P|374:254|374:299,1,90,8|0,0:0|0:0,0:0:0:0:
260,162,16271,1,8,0:1:0:0:
209,318,16493,1,8,0:3:0:0:
180,141,16715,2,0,P|174:177|171:198,1,45,8|8,3:0|3:0,0:0:0:0:
102,272,16937,2,0,P|98:249|94:227,1,45,8|8,3:0|3:0,0:0:0:0:
0,153,17159,6,0,P|56:152|134:120,1,135,14|8,0:1|0:3,0:0:0:0:
347,150,17826,1,14,0:0:0:0:
347,150,17937,1,0,0:0:0:0:
347,150,18048,2,0,P|291:151|236:174,1,90,12|12,0:0|0:3,0:0:0:0:
172,216,18493,2,0,P|152:236|141:263,1,45,8|8,3:0|3:0,0:0:0:0:
232,311,18715,2,0,P|232:339|244:366,1,45,8|8,3:0|3:0,0:0:0:0:
351,291,18937,5,14,0:1:0:0:
351,291,19382,2,0,B|407:268|436:320|526:284,1,144,8|0,0:0|0:0,0:0:0:0:
492,294,20048,1,4,0:3:0:0:
315,367,20271,2,0,P|271:314|281:244,1,144,8|10,0:0|0:1,0:0:0:0:
457,206,20937,1,8,0:3:0:0:
422,80,21159,6,0,L|407:127,1,36,8|0,0:0|0:0,0:0:0:0:
363,220,21382,2,0,L|345:169,1,36,8|8,0:1|0:3,0:0:0:0:
284,111,21604,2,0,L|184:94,1,72,10|4,0:1|0:3,0:0:0:0:
213,98,21937,1,0,0:0:0:0:
213,98,22048,1,8,0:0:0:0:
82,193,22271,1,8,0:1:0:0:
149,54,22493,6,0,P|191:98|188:180,1,144,10|8,0:1|0:0,0:0:0:0:
110,330,23159,2,0,P|68:286|71:204,1,144,8|4,0:3|0:3,0:0:0:0:
275,281,23826,1,8,0:0:0:0:
275,281,24271,6,0,L|246:378,1,72,10|8,0:1|0:3,0:0:0:0:
270,364,24604,1,8,0:3:0:0:
286,376,24715,2,0,L|363:354,1,72,8|0,0:0|0:0,0:0:0:0:
433,180,25159,2,0,L|449:238,1,36,8|0,0:1|0:0,0:0:0:0:
512,282,25382,1,4,0:3:0:0:
346,189,25604,1,8,0:0:0:0:
492,77,25826,1,8,0:3:0:0:
382,277,26048,6,0,B|339:264|339:264|285:276|285:276|220:258,1,144,14|8,0:1|0:0,0:0:0:0:
62,229,26715,1,8,0:3:0:0:
62,229,26826,1,0,0:0:0:0:
62,229,26937,2,0,P|108:229|148:203,1,72,8|4,0:1|0:3,0:0:0:0:
255,55,27382,2,0,P|211:92|227:184,1,144,8|10,0:0|0:1,0:0:0:0:
384,216,28048,1,8,0:3:0:0:
287,133,28271,1,8,0:0:0:0:
438,92,28493,1,8,0:1:0:0:
372,206,28715,5,10,0:1:0:0:
372,206,28826,1,0,0:0:0:0:
372,206,28937,1,4,0:3:0:0:
445,292,29159,1,8,0:0:0:0:
288,216,29382,1,8,0:1:0:0:
505,140,29604,2,0,P|435:148|388:80,1,144,10|8,0:1|0:0,0:0:0:0:
232,228,30271,1,8,0:3:0:0:
232,228,30382,1,0,0:0:0:0:
232,228,30493,2,0,P|276:208|328:206,1,72,8|4,0:1|0:3,0:0:0:0:
426,248,30937,1,8,0:0:0:0:
262,102,31159,1,8,0:1:0:0:
299,324,31382,6,0,B|320:285|320:285|315:227|315:227|340:185,1,144,10|8,0:1|0:0,0:0:0:0:
396,356,32048,1,8,0:3:0:0:
193,283,32271,2,0,L|241:268,2,36,10|0|4,0:1|0:0|0:3,0:0:0:0:
406,186,32715,1,8,0:0:0:0:
372,196,32826,1,0,0:0:0:0:
336,191,32937,1,8,0:3:0:0:
308,169,33048,1,0,0:0:0:0:
293,137,33159,1,14,0:1:0:0:
378,98,33382,5,8,0:1:0:0:
214,192,33604,2,0,P|201:153|187:95,1,72,8|8,0:0|0:3,0:0:0:0:
201,106,33937,1,0,0:0:0:0:
209,91,34048,1,8,0:1:0:0:
303,278,34271,1,4,0:3:0:0:
97,156,34493,6,0,P|65:201|80:311,1,144,8|10,0:0|0:1,0:0:0:0:
238,353,35159,1,8,0:3:0:0:
147,233,35382,1,8,0:0:0:0:
289,178,35604,1,0,0:0:0:0:
289,178,35715,1,0,0:0:0:0:
289,178,35826,1,8,0:1:0:0:
140,246,36048,1,4,0:3:0:0:
356,316,36271,1,8,0:0:0:0:
255,182,36493,1,8,0:1:0:0:
435,70,36715,6,0,P|443:117|383:202,1,144,14|8,0:1|0:0,0:0:0:0:
185,125,37382,2,0,P|219:113|260:99,1,72,8|0,0:3|0:0,0:0:0:0:
274,111,37715,1,0,0:0:0:0:
291,120,37826,1,4,0:3:0:0:
205,332,38048,6,0,P|197:285|257:200,1,144,8|10,0:0|0:1,0:0:0:0:
425,247,38715,1,8,0:3:0:0:
425,247,38826,1,8,0:3:0:0:
425,247,38937,2,0,L|364:272,2,36,8|0|8,0:0|0:0|0:3,0:0:0:0:
340,359,39382,1,8,0:1:0:0:
498,288,39604,1,4,0:3:0:0:
333,176,39826,1,8,0:0:0:0:
508,301,40048,1,8,0:3:0:0:
258,266,40271,6,0,L|217:104,1,144,14|8,0:1|0:0,0:0:0:0:
398,39,40937,2,0,P|399:98|322:140,1,144,8|4,0:3|0:3,0:0:0:0:
151,101,41604,1,8,0:0:0:0:
151,101,41715,1,0,0:0:0:0:
151,101,41826,1,8,0:1:0:0:
109,250,42048,5,10,0:1:0:0:
229,179,42271,1,8,0:3:0:0:
73,135,42493,1,8,0:0:0:0:
133,275,42715,1,8,0:3:0:0:
296,239,42937,5,8,0:1:0:0:
296,239,43048,1,0,0:0:0:0:
296,239,43159,1,4,0:3:0:0:
117,275,43382,1,8,0:0:0:0:
273,127,43604,1,8,0:1:0:0:
232,361,43826,6,0,B|212:319|212:319|218:261|218:261|189:200,1,144,14|8,0:1|0:0,0:0:0:0:
328,118,44493,1,8,0:1:0:0:
341,137,44604,1,0,0:0:0:0:
352,158,44715,2,0,L|328:240,1,72,8|4,0:1|0:3,0:0:0:0:
159,378,45159,2,0,L|138:308,1,72,8|0,0:0|0:0,0:0:0:0:
29,94,45604,6,0,P|81:111|126:124,1,90,14|8,0:3|0:0,0:0:0:0:
148,108,45937,1,8,0:1:0:0:
179,98,46048,2,0,L|201:176,1,45,4|8,0:3|0:1,0:0:0:0:
261,324,46271,2,0,L|273:280,1,45,8|8,0:3|0:1,0:0:0:0:
436,107,46493,1,14,0:0:0:0:
436,107,46604,1,8,0:1:0:0:
436,107,46715,1,8,0:0:0:0:
436,107,46826,1,8,0:1:0:0:
436,107,46937,2,0,P|387:172|281:150,1,180,14|14,0:0|0:1,0:0:0:0:
296,163,47715,5,2,0:0:0:0:
228,247,48048,2,0,P|161:240|75:222,1,135.000005149842,2|0,0:0|0:0,0:0:0:0:
42,131,48715,2,0,P|108:144|175:150,1,135.000005149842,0|2,0:0|0:0,0:0:0:0:
175,150,49493,5,2,0:0:0:0:
246,260,49826,2,0,P|288:226|381:234,1,135.000005149842,2|0,0:0|0:0,0:0:0:0:
286,138,50493,2,0,P|281:71|319:17,1,135.000005149842,0|2,0:0|0:0,0:0:0:0:
319,17,51271,5,2,0:0:0:0:
431,109,51604,1,2,0:0:0:0:
363,179,51826,2,0,P|327:174|292:167,1,67.5000025749208
470,274,52271,2,0,P|436:267|403:263,1,67.5000025749208
290,359,52715,2,0,P|281:316|291:254,2,101.250003862381,2|2|2,0:0|0:0|0:0,0:0:0:0:
290,359,53826,6,0,P|291:325|298:273,1,67.5000025749208,0|2,0:0|0:0,0:0:0:0:
289,138,54271,1,0,0:0:0:0:
196,287,54493,1,14,0:3:0:0:
374,182,54937,1,4,0:3:0:0:
241,56,55382,1,4,0:3:0:0:
147,195,55826,1,4,0:3:0:0:
368,91,56271,1,14,0:3:0:0:
396,270,56715,6,0,P|362:268|322:255,1,67.5000025749208,4|0,0:3|0:0,0:0:0:0:
134,313,57159,2,0,P|166:303|199:301,1,67.5000025749208,4|0,0:3|0:0,0:0:0:0:
440,176,57604,2,0,P|406:178|366:191,1,67.5000025749208,4|0,0:3|0:0,0:0:0:0:
149,97,58048,5,14,0:3:0:0:
81,182,58271,1,6,0:3:0:0:
163,179,58493,1,6,0:3:0:0:
114,293,58716,1,6,0:3:0:0:
231,233,58937,1,14,0:3:0:0:
203,384,59160,1,6,0:3:0:0:
356,241,59382,1,6,0:3:0:0:
114,293,59604,1,6,0:3:0:0:
405,361,59826,1,10,0:3:0:0:
405,361,59937,1,2,0:0:0:0:
405,361,60048,1,10,0:1:0:0:
275,161,60271,6,2,L|278:138,14,16.8750006437302,2|0|0|0|0|0|0|0|0|0|0|0|0|0|0,0:0|0:0|0:0|0:0|0:0|0:0|0:0|0:0|0:0|0:0|0:0|0:0|0:0|0:0|0:0,0:0:0:0:
273,192,61159,1,2,0:0:0:0:
273,192,61604,6,0,P|314:164|429:176,1,161.999995056153,14|8,0:1|0:3,0:0:0:0:
447,190,62048,1,10,0:0:0:0:
397,37,62271,1,8,0:1:0:0:
358,267,62493,2,0,P|326:272|290:272,1,45,10|0,0:1|0:0,0:0:0:0:
205,132,62715,2,0,P|209:105|211:80,1,45,4|2,0:3|0:0,0:0:0:0:
339,127,62937,1,8,0:0:0:0:
186,243,63159,5,10,0:1:0:0:
186,243,63271,1,8,0:0:0:0:
186,243,63382,2,0,P|183:295|194:345,1,90,10|0,0:1|0:0,0:0:0:0:
319,148,63826,2,0,P|322:96|311:46,1,90,10|0,0:0|0:0,0:0:0:0:
173,0,64271,1,10,0:1:0:0:
63,104,64493,2,0,L|117:112,1,45,4|2,0:3|0:0,0:0:0:0:
236,145,64715,2,0,L|182:153,1,45,8|8,0:0|0:3,0:0:0:0:
34,222,64937,5,10,0:1:0:0:
34,222,65048,1,8,0:0:0:0:
34,222,65159,2,0,P|102:215|164:259,1,135,14|8,0:1|0:3,0:0:0:0:
174,276,65604,2,0,L|201:190,1,90,10|0,0:0|0:0,0:0:0:0:
399,166,66048,1,10,0:1:0:0:
399,166,66159,1,0,0:0:0:0:
399,166,66271,1,6,0:3:0:0:
272,257,66493,1,8,0:0:0:0:
469,322,66715,1,8,0:1:0:0:
389,86,66937,6,0,P|333:124|347:226,2,180,14|14|12,0:1|0:0|0:0,0:0:0:0:
387,325,68048,1,8,0:1:0:0:
387,325,68159,1,0,0:0:0:0:
387,325,68271,2,0,L|282:304,1,90,10|4,0:0|0:3,0:0:0:0:
75,217,68715,6,0,P|154:239|227:161,1,180,14|10,0:1|0:0,0:0:0:0:
409,246,69382,1,8,0:1:0:0:
409,246,69493,1,10,0:1:0:0:
409,246,69604,2,0,P|357:224|296:233,1,90,0|6,0:0|0:3,0:0:0:0:
184,307,70048,1,10,3:2:0:0:
318,130,70271,1,2,3:0:0:0:
114,31,70493,6,0,L|147:189,1,135,14|8,0:1|0:3,0:0:0:0:
156,192,70937,1,10,0:0:0:0:
336,84,71159,2,0,P|266:114|226:119,1,90,8|0,0:1|0:0,0:0:0:0:
51,126,71604,1,6,0:3:0:0:
51,126,71715,1,0,0:0:0:0:
51,126,71826,1,10,0:0:0:0:
261,206,72048,1,6,0:3:0:0:
58,333,72271,6,0,P|75:286|89:241,1,90,14|2,0:1|3:0,0:0:0:0:
87,247,72604,1,0,3:0:0:0:
87,247,72715,1,0,3:0:0:0:
272,144,72937,2,0,P|231:207|249:275,1,135,6|0,3:0|3:0,0:0:0:0:
256,283,73382,2,0,L|374:251,1,90,0|6,3:0|3:0,0:0:0:0:
512,289,73826,2,0,L|485:235,1,45,2|0,3:0|3:0,0:0:0:0:
436,122,74048,2,0,L|416:187,1,45,14|0,3:1|0:0,0:0:0:0:
366,357,74271,5,2,3:0:0:0:
366,357,74382,1,0,3:0:0:0:
366,357,74493,2,0,P|337:348|300:340,1,45,10|0,3:2|3:0,0:0:0:0:
146,255,74715,1,0,3:0:0:0:
146,255,74826,1,0,3:0:0:0:
146,255,74937,2,0,P|175:246|212:238,1,45,10|0,3:1|3:0,0:0:0:0:
353,167,75159,6,0,L|325:234,1,45,0|0,3:0|3:0,0:0:0:0:
235,384,75382,2,0,L|213:329,1,45,10|0,3:2|3:0,0:0:0:0:
164,107,75604,2,0,L|142:163,1,45,0|0,3:0|3:0,0:0:0:0:
53,360,75826,6,0,P|23:322|42:217,1,135,14|8,0:1|0:3,0:0:0:0:
28,216,76271,2,0,L|127:246,1,90,10|0,0:0|0:0,0:0:0:0:
277,117,76715,1,10,0:1:0:0:
277,117,76826,1,0,0:0:0:0:
277,117,76937,2,0,L|174:143,1,90,4|8,0:3|0:0,0:0:0:0:
78,81,77382,1,10,0:1:0:0:
218,277,77604,6,0,P|276:231|361:245,1,135,10|8,0:1|0:3,0:0:0:0:
361,248,78048,1,10,0:0:0:0:
481,105,78271,2,0,P|466:159|450:202,1,90,8|10,0:1|0:1,0:0:0:0:
308,325,78715,1,4,0:3:0:0:
474,280,78937,1,8,0:0:0:0:
288,330,79159,1,10,0:1:0:0:
315,73,79382,6,0,P|337:155|364:260,1,180,14|10,0:1|0:0,0:0:0:0:
89,299,80048,2,0,P|131:219|242:233,1,180,8|6,0:1|0:3,0:0:0:0:
442,300,80715,1,8,0:0:0:0:
442,300,80826,1,6,0:3:0:0:
442,300,80937,2,0,L|380:282,1,45,8|8,0:1|0:0,0:0:0:0:
278,272,81159,1,14,0:1:0:0:
407,191,81382,1,8,0:1:0:0:
258,268,81604,1,14,0:0:0:0:
430,381,81826,1,8,0:1:0:0:
186,297,82048,1,12,0:0:0:0:
186,297,82159,1,10,0:1:0:0:
186,297,82271,1,8,0:1:0:0:
321,141,82493,1,10,0:0:0:0:
273,368,82715,1,4,0:3:0:0:
413,131,82937,6,0,P|385:80|255:85,1,180,14|10,0:1|0:0,0:0:0:0:
49,242,83604,1,8,3:2:0:0:
49,242,83715,1,0,3:0:0:0:
49,242,83826,2,0,L|103:230,1,45,10|0,3:1|3:0,0:0:0:0:
219,148,84048,2,0,L|203:203,1,45,0|0,3:3|3:0,0:0:0:0:
231,369,84271,2,0,L|252:301,1,45,10|0,3:2|3:0,0:0:0:0:
387,224,84493,2,0,L|328:245,1,45,0|0,3:0|3:0,0:0:0:0:
141,302,84715,1,14,3:1:0:0:
141,302,84826,1,10,3:1:0:0:
188,53,86493,6,0,P|138:114|154:202,1,135,14|8,0:1|0:0,0:0:0:0:
154,196,86937,1,8,0:1:0:0:
357,355,87159,2,0,P|360:293|288:282,1,135,14|8,0:1|0:0,0:0:0:0:
280,298,87604,2,0,L|161:263,1,90,8|14,0:1|0:1,0:0:0:0:
499,179,88048,1,14,0:0:0:0:
