osu file format v14

[General]
AudioFilename: optc.ogg
AudioLeadIn: 0
PreviewTime:61493
Countdown: 0
SampleSet: None
StackLeniency: 0.7
Mode: 0
LetterboxInBreaks: 0
WidescreenStoryboard: 1

[Editor]
Bookmarks: 1160,11826,18937,33159,47382,61604,75826
DistanceSpacing: 1.3
BeatDivisor: 4
GridSize: 32
TimelineZoom: 1.4

[Metadata]
Title:Gurenge (TV Size)
TitleUnicode:紅蓮華 (TV Size)
Artist:LiSA
ArtistUnicode:LiSA
Creator:Shad0w1and
Version:Setu's Normal
Source:鬼滅の刃
Tags:kimetsu no yaiba blade of demon opening op japanese anime jrock rock kunka kunkakunkakunkakunka Yugu Karen Setu Yogurtt KoldNoodl cjstmdals
BeatmapID:4502549
BeatmapSetID:2139037

[Difficulty]
HPDrainRate:3
CircleSize:3
OverallDifficulty:4
ApproachRate:5.5
SliderMultiplier:1.3
SliderTickRate:1

[Events]
//Background and Video events
0,0,"BG.jpg",0,0
Video,0,"optc.flv"
//Break Periods
2,47582,53368
//Storyboard Layer 0 (Background)
//Storyboard Layer 1 (Fail)
//Storyboard Layer 2 (Pass)
//Storyboard Layer 3 (Foreground)
//Storyboard Layer 4 (Overlay)
//Storyboard Sound Samples

[TimingPoints]
1160,444.444444444444,4,2,1,50,1,0
61604,-100,4,2,1,80,0,1
72271,-100,4,2,1,70,0,1
75826,-100,4,2,1,80,0,1
84715,-100,4,2,1,60,0,0

[Colours]
Combo1 : 218,164,135
Combo2 : 255,170,185
Combo3 : 130,115,200
Combo4 : 164,251,164
Combo5 : 185,185,185

[HitObjects]
256,192,8271,12,0,10937,0:0:0:0:
395,34,11826,6,0,P|414:104|395:174,1,130,6|8,0:0|0:0,0:0:0:0:
338,215,12493,2,0,L|268:205,1,65,2|0,0:0|0:0,0:0:0:0:
195,190,12937,1,2,0:0:0:0:
195,190,13159,1,10,0:0:0:0:
90,323,13604,6,0,P|135:362|230:362,1,130,2|8,0:0|0:0,0:0:0:0:
268,315,14271,1,2,0:0:0:0:
268,315,14493,2,0,L|276:247,2,65,0|2|10,0:0|0:0|0:0,0:0:0:0:
131,214,15382,6,0,P|115:148|130:89,1,130,6|8,0:0|0:0,0:0:0:0:
197,37,16048,2,0,P|239:43|272:48,1,65,2|0,0:0|0:0,0:0:0:0:
349,62,16493,1,0,0:0:0:0:
349,62,16715,1,10,0:0:0:0:
449,197,17159,6,0,L|436:307,1,97.5,10|2,0:0|0:0,0:0:0:0:
324,351,17826,2,0,L|335:254,1,97.5,14|8,0:0|0:3,0:0:0:0:
256,154,18493,2,0,P|215:162|174:173,1,65,10|2,0:0|0:0,0:0:0:0:
129,224,18937,6,0,P|87:226|24:181,2,97.5,6|2|2,0:0|0:0|0:0,0:0:0:0:
256,334,20048,2,0,P|298:328|335:323,1,65,2|2,1:0|0:0,0:0:0:0:
463,234,20715,2,0,P|469:192|456:154,1,65,2|2,1:0|1:0,0:0:0:0:
401,113,21159,2,0,P|350:144|278:130,1,130,2|2,0:0|0:0,0:0:0:0:
139,43,22048,1,2,0:0:0:0:
46,184,22493,6,0,B|39:229|39:229|47:257|46:257|38:295,2,97.5,2|0|2,1:0|0:0|0:0,0:0:0:0:
197,109,23604,2,0,L|209:187,1,65,2|0,1:0|0:0,0:0:0:0:
290,320,24271,2,0,L|302:242,1,65,2|2,1:0|1:0,0:0:0:0:
350,188,24715,2,0,P|388:216|475:209,1,130,2|0,0:0|0:0,0:0:0:0:
511,141,25382,1,2,1:0:0:0:
511,141,25604,2,0,B|517:94|517:94|507:57,1,65,2|0,1:0|1:0,0:0:0:0:
442,29,26048,6,0,P|400:46|343:24,2,97.5,2|2|2,1:0|0:0|0:0,0:0:0:0:
504,186,27159,2,0,L|491:258,1,65,2|2,1:0|0:0,0:0:0:0:
366,363,27826,2,0,P|339:337|301:329,1,65,2|2,1:0|1:0,0:0:0:0:
234,298,28271,2,0,P|216:227|233:166,1,130,0|2,0:0|0:0,0:0:0:0:
288,113,28937,1,2,1:0:0:0:
235,47,29159,2,0,P|190:49|160:51,1,65,2|2,0:0|0:0,0:0:0:0:
107,107,29604,6,0,P|55:116|2:76,2,97.5,2|0|2,1:0|0:0|0:0,0:0:0:0:
256,186,30715,2,0,P|262:220|258:260,1,65,2|0,1:0|0:0,0:0:0:0:
200,310,31159,1,0,0:0:0:0:
124,272,31382,2,0,P|85:262|17:275,2,97.5,2|2|0,1:0|1:0|0:0,0:0:0:0:
200,310,32271,2,0,P|260:301|344:292,1,130
467,197,33159,6,0,P|479:132|459:61,1,130,2|0,1:0|0:0,0:0:0:0:
402,12,33826,1,2,0:0:0:0:
279,127,34271,1,2,1:0:0:0:
279,127,34493,2,0,P|229:120|200:117,1,65,2|2,0:0|0:0,0:0:0:0:
143,72,34937,2,0,P|115:43|106:12,2,65,2|2|2,1:0|1:0|0:0,0:0:0:0:
137,156,35604,1,2,1:0:0:0:
63,308,36048,2,0,P|27:302|-6:297,2,65,2|0|2,1:0|0:0|0:0,0:0:0:0:
136,265,36715,6,0,P|167:294|261:296,1,130,2|0,1:0|0:0,0:0:0:0:
322,254,37382,1,2,0:0:0:0:
474,339,37826,1,2,1:0:0:0:
474,339,38048,2,0,L|482:259,1,65,2|0,0:0|0:0,0:0:0:0:
432,204,38493,2,0,P|466:187|504:189,2,65,2|2|0,1:0|1:0|0:0,0:0:0:0:
392,278,39159,1,2,0:0:0:0:
287,149,39604,2,0,L|296:75,2,65,2|0|0,1:0|0:0|1:0,0:0:0:0:
216,196,40271,6,0,B|147:212|147:212|110:193|73:192,1,130,2|0,1:0|0:0,0:0:0:0:
18,237,40937,1,2,0:0:0:0:
144,357,41382,1,2,1:0:0:0:
144,357,41604,2,0,L|220:340,1,65,2|2,0:0|0:0,0:0:0:0:
270,286,42048,2,0,P|274:244|262:203,1,65,2|2,1:0|1:0,0:0:0:0:
212,167,42493,1,2,0:0:0:0:
212,167,42715,2,0,P|197:94|213:32,1,130,2|2,0:0|1:0,0:0:0:0:
287,8,43382,1,2,0:0:0:0:
438,82,43826,6,0,P|433:126|439:163,1,65,2|0,1:0|0:0,0:0:0:0:
450,234,44271,1,0,0:0:0:0:
450,234,44493,2,0,P|387:219|314:210,1,130,2|2,0:0|1:0,0:0:0:0:
238,201,45159,1,0,0:0:0:0:
85,126,45604,2,0,P|43:163|-18:168,2,97.5,4|10|2,3:0|0:0|0:0,0:0:0:0:
128,53,46493,2,0,P|191:68|264:77,1,130,4|6,0:3|0:0,0:0:0:0:
370,200,47382,1,6,0:0:0:0:
187,289,54493,5,8,0:0:0:0:
158,123,54937,1,8,0:0:0:0:
324,94,55382,1,8,0:0:0:0:
353,260,55826,1,8,0:0:0:0:
187,289,56271,6,0,P|150:254|63:245,1,130,8|8,0:0|0:0,0:0:0:0:
158,123,57159,2,0,P|193:86|202:-1,1,130,8|8,0:0|0:0,0:0:0:0:
324,94,58048,1,10,0:0:0:0:
256,192,58159,12,2,59826,0:0:0:0:
23,114,61604,6,0,P|85:102|146:136,1,130,6|10,0:0|0:0,0:0:0:0:
192,206,62271,1,2,0:0:0:0:
192,206,62493,2,0,P|183:249|181:276,2,65,2|2|8,0:0|1:0|0:0,0:0:0:0:
311,85,63382,2,0,P|358:83|396:87,1,65,2|2,0:0|0:0,0:0:0:0:
448,127,63826,2,0,P|456:167|445:205,1,65,10|2,0:0|0:0,0:0:0:0:
386,244,64271,2,0,P|380:281|387:320,2,65,2|2|8,0:0|1:0|0:0,0:0:0:0:
256,136,65159,6,0,P|200:169|125:159,1,130,6|8,0:0|0:0,0:0:0:0:
65,207,65826,1,2,0:0:0:0:
65,207,66048,2,0,P|71:266|80:345,1,130,2|10,0:0|0:0,0:0:0:0:
156,382,66715,1,2,0:0:0:0:
156,382,66937,1,6,0:0:0:0:
256,245,67382,1,10,0:0:0:0:
413,304,67826,2,0,P|451:316|513:295,2,97.5,2|2|10,0:0|0:0|0:0,0:0:0:0:
348,248,68715,6,0,B|330:191|330:191|346:111,1,130,6|8,0:0|0:0,0:0:0:0:
360,39,69382,1,2,0:0:0:0:
204,97,69826,1,2,1:0:0:0:
204,97,70048,2,0,L|124:87,1,65,10|2,0:0|0:0,0:0:0:0:
81,26,70493,2,0,P|53:73|79:149,1,130,4|10,0:0|0:0,0:0:0:0:
127,205,71159,1,2,0:0:0:0:
290,151,71604,1,2,1:0:0:0:
290,151,71826,2,0,L|370:161,1,65,10|2,0:0|0:0,0:0:0:0:
421,211,72271,6,0,P|433:264|419:316,1,97.5,14|4,0:0|0:3,0:0:0:0:
314,368,72937,2,0,P|302:315|316:263,1,97.5,14|4,0:0|0:3,0:0:0:0:
209,207,73604,1,10,0:0:0:0:
209,207,73826,1,10,0:0:0:0:
143,260,74048,2,0,P|101:267|44:236,2,97.5,12|8|8,0:0|0:0|0:0,0:0:0:0:
296,332,75159,2,0,P|336:329|372:332,1,65,8|10,0:0|0:0,0:0:0:0:
428,278,75604,1,8,0:0:0:0:
428,278,75826,6,0,P|442:205|418:143,1,130,6|10,0:0|0:0,0:0:0:0:
361,106,76493,1,2,0:0:0:0:
361,106,76715,2,0,P|355:67|361:28,2,65,2|2|8,0:0|1:0|0:0,0:0:0:0:
256,239,77604,2,0,P|197:231|118:224,1,130,2|10,0:0|0:0,0:0:0:0:
63,176,78271,1,2,0:0:0:0:
63,176,78493,2,0,P|48:136|52:102,1,65,2|2,0:0|1:0,0:0:0:0:
102,49,78937,1,8,0:0:0:0:
256,116,79382,6,0,P|309:133|398:111,1,130,6|8,0:0|0:0,0:0:0:0:
454,172,80048,1,2,0:0:0:0:
454,172,80271,2,0,P|450:216|457:245,1,65,0|2,0:0|0:0,0:0:0:0:
399,300,80715,2,0,P|344:290|324:286,1,65,10|0,0:0|0:0,0:0:0:0:
273,230,81159,1,6,0:0:0:0:
170,364,81604,1,10,0:0:0:0:
43,251,82048,2,0,P|38:209|33:179,1,65,2|2,0:0|1:0,0:0:0:0:
3,107,82493,2,0,P|8:65|13:35,1,65,8|10,0:0|0:0,0:0:0:0:
88,7,82937,5,6,0:0:0:0:
229,110,83382,1,8,0:0:0:0:
229,110,83604,2,0,P|282:103|315:100,1,65,10|10,0:0|0:0,0:0:0:0:
356,45,84048,2,0,P|409:52|442:55,1,65,10|10,0:0|0:0,0:0:0:0:
487,114,84493,1,10,0:0:0:0:
487,114,84715,1,14,0:0:0:0:
256,288,86493,6,0,B|216:282|216:282|185:293|185:293|143:288,2,97.5,14|4|14,0:0|0:3|0:0,0:0:0:0:
399,196,87604,1,0,0:0:0:0:
399,196,87826,2,0,P|397:160|399:128,1,65,14|4,0:0|0:0,0:0:0:0:
