osu file format v14

[General]
AudioFilename: optc.ogg
AudioLeadIn: 0
PreviewTime: 61493
Countdown: 0
SampleSet: Soft
StackLeniency: 0.7
Mode: 0
LetterboxInBreaks: 0
WidescreenStoryboard: 1

[Editor]
Bookmarks: 1160,11826,18937,33159,47382,61604,75826
DistanceSpacing: 1
BeatDivisor: 4
GridSize: 32
TimelineZoom: 1

[Metadata]
Title:Gurenge (TV Size)
TitleUnicode:紅蓮華 (TV Size)
Artist:LiSA
ArtistUnicode:LiSA
Creator:Shad0w1and
Version:Karen's Expert
Source:鬼滅の刃
Tags:kimetsu no yaiba blade of demon opening op japanese anime jrock rock kunka kunkakunkakunkakunka Yugu Karen Setu Yogurtt KoldNoodl cjstmdals
BeatmapID:4501741
BeatmapSetID:2139037

[Difficulty]
HPDrainRate:6
CircleSize:4.5
OverallDifficulty:8.5
ApproachRate:9
SliderMultiplier:3.2
SliderTickRate:1

[Events]
//Background and Video events
0,0,"BG.jpg",0,0
Video,0,"optc.flv"
//Break Periods
//Storyboard Layer 0 (Background)
//Storyboard Layer 1 (Fail)
//Storyboard Layer 2 (Pass)
//Storyboard Layer 3 (Foreground)
//Storyboard Layer 4 (Overlay)
//Storyboard Sound Samples

[TimingPoints]
1160,444.444444444444,4,2,1,50,1,0
1160,-222.222222222221,4,2,1,50,0,0
10048,-399.999999999997,4,2,1,50,0,0
11826,-100,4,2,1,50,0,0
13159,-200,4,2,1,50,0,0
13493,-100,4,2,1,50,0,0
18937,-133.333333333333,4,2,1,50,0,0
47382,-222.222222222221,4,2,1,50,0,0
54493,-399.999999999997,4,2,1,50,0,0
59826,-133.333333333333,4,2,1,50,0,0
60271,-399.999999999997,4,2,1,50,0,0
61604,-86.9565217391304,4,2,1,80,0,1
72271,-222.222222222221,4,2,1,70,0,0
73604,-100,4,2,1,70,0,0
75826,-86.9565217391304,4,2,1,80,0,1
84715,-100,4,2,1,60,0,0

[Colours]
Combo1 : 218,164,135
Combo2 : 255,170,185
Combo3 : 130,115,200
Combo4 : 164,251,164
Combo5 : 185,185,185

[HitObjects]
108,156,1160,6,0,P|118:207|152:274,1,107.999996704102,2|0,0:0|0:0,0:0:0:0:
233,249,1826,2,0,P|232:133|277:27,1,215.999993408203,2|0,0:0|0:0,0:0:0:0:
0,256,2937,2,0,P|34:295|97:336,1,107.999996704102,2|0,0:0|0:0,0:0:0:0:
297,317,3604,2,0,P|354:216|446:146,1,215.999993408203,2|0,0:0|0:0,0:0:0:0:
459,239,4493,1,0,0:0:0:0:
282,94,4715,6,0,P|226:103|168:132,1,107.999996704102,2|0,0:0|0:0,0:0:0:0:
162,261,5382,2,0,P|262:245|360:140,1,215.999993408203,2|0,0:0|0:0,0:0:0:0:
170,2,6493,2,0,P|126:37|90:91,1,107.999996704102,2|0,0:0|0:0,0:0:0:0:
329,349,7159,2,0,P|379:311|421:223,1,143.999995605469,2|2,0:0|0:0,0:0:0:0:
361,183,7826,1,0,0:0:0:0:
399,113,8048,1,2,0:0:0:0:
512,42,8271,6,0,P|445:45|375:-24,1,143.999995605469,2|0,0:0|0:0,0:0:0:0:
291,6,8937,2,0,P|243:104|215:230,1,215.999993408203,2|0,0:0|0:0,0:0:0:0:
512,246,10048,6,0,B|385:247|423:373|302:372,1,240,2|0,0:0|0:0,0:0:0:0:
273,290,11826,6,0,L|82:272,1,160,6|0,0:0|0:0,0:0:0:0:
42,92,12159,1,0,0:0:0:0:
77,19,12271,2,0,P|162:19|220:91,1,160,8|2,0:0|0:0,0:0:0:0:
247,140,12604,1,0,0:0:0:0:
324,119,12715,1,0,0:0:0:0:
376,179,12826,2,0,L|362:274,1,80,8|2,0:0|0:0,0:0:0:0:
151,222,13048,1,0,0:0:0:0:
151,222,13159,6,0,L|162:142,1,80,10|2,0:0|0:0,0:0:0:0:
294,38,13493,1,10,0:0:0:0:
346,100,13604,6,0,L|515:80,1,160,2|0,0:0|0:0,0:0:0:0:
512,282,13937,1,0,0:0:0:0:
451,333,14048,2,0,P|379:289|362:187,1,160,8|2,0:0|0:0,0:0:0:0:
276,213,14382,2,0,P|274:247|266:308,1,80
201,336,14604,1,8,0:0:0:0:
140,283,14715,2,0,P|142:243|147:203,1,80,2|0,0:0|0:0,0:0:0:0:
208,0,14937,5,10,0:0:0:0:
270,50,15048,1,2,0:0:0:0:
193,74,15159,1,10,0:0:0:0:
252,127,15271,1,10,0:0:0:0:
257,135,15382,6,0,L|69:108,1,160,6|0,0:0|0:0,0:0:0:0:
19,264,15715,1,0,0:0:0:0:
72,323,15826,2,0,L|236:288,1,160,8|2,0:0|0:0,0:0:0:0:
302,319,16159,1,0,0:0:0:0:
370,276,16271,1,0,0:0:0:0:
443,306,16382,2,0,P|349:321|307:384,1,160,8|0,0:0|0:0,0:0:0:0:
256,203,16715,5,10,0:0:0:0:
316,150,16826,1,2,0:0:0:0:
240,123,16937,1,2,0:0:0:0:
300,70,17048,1,2,0:0:0:0:
307,61,17159,6,0,L|281:243,1,160,10|0,0:0|0:0,0:0:0:0:
236,284,17493,2,0,L|223:363,1,80,2|0,0:0|0:0,0:0:0:0:
313,376,17715,1,0,0:0:0:0:
313,376,17826,2,0,L|325:296,1,80,14|0,0:0|0:0,0:0:0:0:
373,229,18048,5,8,0:0:0:0:
386,236,18159,1,8,0:3:0:0:
399,244,18271,1,8,0:3:0:0:
413,251,18382,1,8,0:3:0:0:
482,212,18493,5,10,0:0:0:0:
441,142,18604,1,2,0:0:0:0:
372,181,18715,1,2,0:0:0:0:
413,251,18826,1,2,0:0:0:0:
414,260,18937,5,6,0:0:0:0:
206,369,19271,1,2,0:0:0:0:
206,369,19382,2,0,L|64:350,1,120.000004577637,0|2,0:0|0:0,0:0:0:0:
9,364,19715,2,0,P|7:299|-1:233,1,120.000004577637
13,167,20048,2,0,P|94:166|139:220,2,120.000004577637,2|2|2,1:0|0:0|0:0,0:0:0:0:
202,143,20715,6,0,L|206:205,1,60.0000022888184,2|0,1:0|0:0,0:0:0:0:
283,217,20937,2,0,L|278:157,1,60.0000022888184,2|0,1:0|0:0,0:0:0:0:
194,154,21159,2,0,L|198:216,1,60.0000022888184,2|0,0:0|0:0,0:0:0:0:
387,376,21382,1,2,0:0:0:0:
387,376,21493,1,2,1:0:0:0:
387,376,21604,6,0,L|459:359,1,60.0000022888184,2|2,0:0|0:0,0:0:0:0:
482,293,21826,1,2,1:0:0:0:
428,236,21937,1,2,0:0:0:0:
352,254,22048,2,0,L|330:324,1,60.0000022888184,2|0,0:0|0:0,0:0:0:0:
231,212,22271,2,0,L|289:198,1,60.0000022888184,2|0,0:0|0:0,0:0:0:0:
400,54,22493,6,0,L|368:192,1,120.000004577637,2|0,1:0|0:0,0:0:0:0:
303,120,22826,1,0,0:0:0:0:
303,120,22937,2,0,L|320:43,1,60.0000022888184,2|0,0:0|0:0,0:0:0:0:
468,100,23159,2,0,L|455:158,1,60.0000022888184,2|0,0:0|0:0,0:0:0:0:
372,170,23382,5,0,0:0:0:0:
79,168,23604,1,2,1:0:0:0:
327,240,23826,2,0,L|240:232,1,60.0000022888184
127,235,24048,2,0,L|214:227,1,60.0000022888184
233,156,24271,6,0,P|230:96|198:47,1,120.000004577637,2|2,1:0|1:0,0:0:0:0:
120,48,24604,1,2,1:0:0:0:
17,160,24715,2,0,L|32:240,1,60.0000022888184,2|0,0:0|0:0,0:0:0:0:
2,292,24937,1,0,0:0:0:0:
42,358,25048,2,0,L|173:328,1,120.000004577637,2|0,0:0|0:0,0:0:0:0:
305,339,25382,6,0,L|233:332,1,60.0000022888184,2|0,1:0|0:0,0:0:0:0:
328,212,25604,2,0,L|357:277,1,60.0000022888184,2|0,1:0|0:0,0:0:0:0:
233,252,25826,2,0,L|250:219,3,30.0000011444092,0|0|0|0,1:0|1:0|1:0|1:0,0:0:0:0:
242,215,26048,2,0,P|218:146|247:81,1,120.000004577637,2|0,1:0|0:0,0:0:0:0:
291,53,26382,1,2,0:0:0:0:
456,225,26493,6,0,L|331:202,1,120.000004577637,0|2,0:0|0:0,0:0:0:0:
329,125,26826,2,0,L|447:146,1,120.000004577637
267,175,27159,2,0,L|261:237,1,60.0000022888184,2|0,1:0|0:0,0:0:0:0:
218,300,27382,2,0,P|160:292|109:245,1,120.000004577637,2|2,0:0|0:0,0:0:0:0:
5,22,27826,6,0,L|81:7,1,60.0000022888184,2|0,1:0|0:0,0:0:0:0:
134,43,28048,2,0,L|149:119,1,60.0000022888184,2|2,1:0|0:0,0:0:0:0:
208,149,28271,2,0,L|266:137,1,60.0000022888184
330,91,28493,1,2,0:0:0:0:
401,120,28604,1,2,1:0:0:0:
445,183,28715,6,0,B|451:214|451:214|426:260,1,60.0000022888184,2|2,0:0|0:0,0:0:0:0:
310,340,28937,2,0,B|304:309|304:309|317:284,1,60.0000022888184,2|2,1:0|0:0,0:0:0:0:
370,197,29159,2,0,L|247:218,1,120.000004577637,2|2,0:0|0:0,0:0:0:0:
38,307,29604,6,0,P|80:352|151:342,1,120.000004577637,2|0,1:0|0:0,0:0:0:0:
191,297,29937,1,0,0:0:0:0:
55,167,30048,2,0,L|73:248,1,60.0000022888184
139,192,30271,1,2,0:0:0:0:
212,217,30382,6,0,L|235:89,1,120.000004577637
177,44,30715,1,2,1:0:0:0:
354,151,30937,1,0,0:0:0:0:
98,64,31159,2,0,L|18:64,1,60.0000022888184
157,169,31382,6,0,L|37:140,1,120.000004577637,2|2,1:0|1:0,0:0:0:0:
0,207,31715,1,2,1:0:0:0:
142,358,31826,2,0,P|157:294|121:231,1,120.000004577637
295,75,32271,6,0,L|168:90,2,120.000004577637,0|0|0,0:0|1:0|0:0,0:0:0:0:
383,278,32937,2,0,L|375:310,3,30.0000011444092,0|0|0|0,1:0|1:0|1:0|1:0,0:0:0:0:
368,314,33159,6,0,P|316:295|280:225,1,120.000004577637,2|0,1:0|0:0,0:0:0:0:
320,173,33493,1,2,0:0:0:0:
201,237,33604,2,0,L|190:300,1,60.0000022888184
22,344,33826,6,0,L|5:149,1,180.000006866455,2|0,0:0|0:0,0:0:0:0:
65,112,34271,2,0,P|96:120|129:148,1,60.0000022888184,2|0,1:0|0:0,0:0:0:0:
103,333,34493,2,0,L|120:204,1,120.000004577637,2|2,0:0|0:0,0:0:0:0:
366,17,34937,6,0,L|326:67,1,60.0000022888184,2|0,1:0|0:0,0:0:0:0:
472,84,35159,2,0,L|448:24,1,60.0000022888184,2|0,1:0|0:0,0:0:0:0:
360,142,35382,2,0,L|423:151,1,60.0000022888184,2|0,0:0|0:0,0:0:0:0:
476,203,35604,1,2,1:0:0:0:
459,279,35715,1,0,0:0:0:0:
342,242,35826,6,0,L|409:225,1,60.0000022888184,2|2,0:0|1:0,0:0:0:0:
266,266,36048,1,2,1:0:0:0:
283,190,36159,1,0,0:0:0:0:
190,291,36271,2,0,L|69:323,1,120.000004577637,0|2,0:0|0:0,0:0:0:0:
15,97,36715,6,0,P|60:149|64:210,1,120.000004577637,2|0,1:0|0:0,0:0:0:0:
23,263,37048,1,2,0:0:0:0:
198,200,37159,2,0,L|209:141,1,60.0000022888184
176,69,37382,1,2,0:0:0:0:
239,24,37493,6,0,L|363:13,1,120.000004577637
426,51,37826,1,2,1:0:0:0:
389,290,38048,2,0,P|330:277|288:161,1,180.000006866455,2|2,0:0|0:0,0:0:0:0:
334,115,38493,6,0,L|257:95,1,60.0000022888184,2|0,1:0|0:0,0:0:0:0:
212,150,38715,1,2,1:0:0:0:
134,142,38826,1,2,1:0:0:0:
56,131,38937,1,0,0:0:0:0:
180,279,39159,1,2,0:0:0:0:
180,279,39271,1,0,0:0:0:0:
180,279,39382,6,0,L|167:204,1,60.0000022888184,0|0,0:0|1:0,0:0:0:0:
0,195,39604,2,0,L|10:254,1,60.0000022888184,2|0,1:0|0:0,0:0:0:0:
114,333,39826,2,0,L|43:320,1,60.0000022888184
78,165,40048,2,0,L|121:173,3,30.0000011444092,0|0|0|0,1:0|1:0|1:0|1:0,0:0:0:0:
115,163,40271,6,0,L|139:27,1,120.000004577637,2|0,1:0|0:0,0:0:0:0:
202,4,40604,1,2,0:0:0:0:
281,181,40715,2,0,L|351:186,1,60.0000022888184
394,128,40937,1,2,0:0:0:0:
377,51,41048,6,0,B|331:12|331:12|259:44,1,120.000004577637
245,108,41382,1,2,1:0:0:0:
460,342,41604,2,0,L|441:201,1,120.000004577637,2|2,0:0|0:0,0:0:0:0:
185,246,42048,6,0,L|257:264,1,60.0000022888184,2|0,1:0|0:0,0:0:0:0:
378,297,42271,2,0,L|319:282,1,60.0000022888184,2|0,1:0|0:0,0:0:0:0:
317,146,42493,2,0,L|302:204,1,60.0000022888184,2|0,0:0|0:0,0:0:0:0:
262,339,42715,1,2,0:0:0:0:
185,326,42826,1,2,1:0:0:0:
121,370,42937,1,2,0:0:0:0:
44,357,43048,1,0,0:0:0:0:
54,279,43159,6,0,L|130:295,1,60.0000022888184,2|0,1:0|0:0,0:0:0:0:
157,105,43382,2,0,P|160:162|168:235,1,120.000004577637,2|2,0:0|0:0,0:0:0:0:
398,350,43826,6,0,P|311:346|267:273,1,180.000006866455,2|2,1:0|0:0,0:0:0:0:
300,201,44271,2,0,L|228:194,1,60.0000022888184
362,146,44493,1,2,0:0:0:0:
362,146,44604,1,0,0:0:0:0:
362,146,44715,6,0,L|421:151,1,60.0000022888184
269,68,44937,2,0,L|281:134,1,60.0000022888184,2|0,1:0|0:0,0:0:0:0:
493,112,45159,2,0,L|482:52,1,60.0000022888184
419,5,45382,1,2,0:0:0:0:
419,5,45493,1,2,0:0:0:0:
419,5,45604,1,4,3:0:0:0:
439,271,45826,1,10,0:0:0:0:
439,271,45937,1,10,0:0:0:0:
377,98,46159,1,10,0:0:0:0:
382,108,46271,1,2,0:0:0:0:
391,100,46382,1,8,0:0:0:0:
373,83,46493,5,4,0:3:0:0:
331,78,46604,1,8,0:3:0:0:
291,123,46715,1,12,0:3:0:0:
303,199,46826,1,8,0:3:0:0:
310,207,46937,2,0,L|241:198,1,60.0000022888184,6|0,0:0|0:0,0:0:0:0:
235,88,47159,2,0,L|238:123,3,30.0000011444092,0|0|0|0,1:0|1:0|1:0|1:0,0:0:0:0:
228,127,47382,6,0,L|335:110,2,107.999996704102,6|2|2,0:0|0:0|0:0,0:0:0:0:
207,270,49159,2,0,L|314:287,2,107.999996704102,2|2|2,0:0|0:0|0:0,0:0:0:0:
51,35,50715,1,0,0:0:0:0:
51,35,50937,6,0,P|84:84|78:134,1,107.999996704102,2|2,0:0|0:0,0:0:0:0:
193,194,51604,2,0,P|118:136|-4:103,1,215.999993408203,2|0,0:0|0:0,0:0:0:0:
458,209,52715,6,0,P|425:258|431:308,1,107.999996704102,2|2,0:0|0:0,0:0:0:0:
316,368,53382,2,0,P|391:310|513:277,1,215.999993408203,2|2,0:0|0:0,0:0:0:0:
102,275,54493,5,8,0:0:0:0:
115,175,54937,1,8,0:0:0:0:
214,189,55382,1,8,0:0:0:0:
201,288,55826,1,8,0:0:0:0:
107,288,56271,5,8,0:0:0:0:
28,91,56715,1,8,0:0:0:0:
223,16,57160,1,8,0:0:0:0:
299,211,57604,1,8,0:0:0:0:
104,302,58048,5,10,0:0:0:0:
117,222,58271,1,8,0:0:0:0:
356,267,58493,1,10,0:0:0:0:
343,347,58716,1,8,0:0:0:0:
91,303,58937,5,10,0:0:0:0:
368,265,59160,1,10,0:0:0:0:
105,215,59382,1,10,0:0:0:0:
354,353,59605,1,10,0:0:0:0:
316,196,59826,2,0,L|323:136,2,60.0000022888184,2|2|2,0:0|0:0|0:0,0:0:0:0:
172,273,60271,6,2,L|160:364,2,80,0|0|2,0:0|0:0|0:0,1:1:0:0:
116,38,61604,6,0,B|74:14|74:14|20:32,1,92.0000017547608,6|0,0:0|0:0,0:0:0:0:
20,100,61826,2,0,B|62:124|62:124|116:106,1,92.0000017547608,2|2,0:0|1:0,0:0:0:0:
195,26,62048,2,0,L|163:220,1,184.000003509522,10|2,0:0|0:0,0:0:0:0:
199,273,62382,1,2,1:0:0:0:
346,190,62493,6,0,P|307:197|261:241,1,92.0000017547608,2|8,0:0|0:0,0:0:0:0:
269,303,62715,1,2,1:0:0:0:
12,202,62937,2,0,P|50:209|97:253,1,92.0000017547608,8|2,0:0|1:0,0:0:0:0:
101,314,63159,1,2,0:0:0:0:
197,191,63271,1,10,0:0:0:0:
256,233,63382,6,0,L|241:24,1,184.000003509522,2|2,0:0|0:0,0:0:0:0:
180,10,63715,1,2,1:0:0:0:
330,201,63826,2,0,L|432:186,1,92.0000017547608,10|0,0:0|0:0,0:0:0:0:
323,127,64048,2,0,L|425:112,1,92.0000017547608,2|2,0:0|1:0,0:0:0:0:
458,337,64271,6,0,B|389:270|389:270|293:319,1,184.000003509522,2|2,0:0|1:0,0:0:0:0:
253,356,64604,1,2,0:0:0:0:
44,323,64715,2,0,L|44:231,1,92.0000017547608,8|0,0:0|1:0,0:0:0:0:
84,169,64937,1,2,0:0:0:0:
241,277,65048,1,10,0:0:0:0:
279,214,65159,6,0,P|184:190|115:253,1,184.000003509522,6|2,0:0|0:0,0:0:0:0:
49,75,65493,1,2,1:0:0:0:
82,9,65604,2,0,L|180:21,1,92.0000017547608,8|0,0:0|0:0,0:0:0:0:
167,160,65826,2,0,L|75:148,1,92.0000017547608,2|0,0:0|0:0,0:0:0:0:
110,372,66048,6,0,P|147:346|173:282,1,92.0000017547608,2|8,0:0|0:0,0:0:0:0:
139,236,66271,1,2,1:0:0:0:
439,384,66493,2,0,P|402:358|376:294,1,92.0000017547608,10|2,0:0|1:0,0:0:0:0:
410,248,66716,1,2,0:0:0:0:
243,277,66826,1,10,0:0:0:0:
225,205,66937,6,0,P|223:110|215:-3,1,184.000003509522,6|0,0:0|0:0,0:0:0:0:
501,55,67382,2,0,P|495:146|493:238,1,184.000003509522,10|0,0:0|0:0,0:0:0:0:
451,299,67715,1,2,1:0:0:0:
381,274,67826,5,2,0:0:0:0:
325,322,67937,2,0,L|222:328,1,92.0000017547608,8|2,0:0|1:0,0:0:0:0:
187,269,68159,1,2,0:0:0:0:
115,287,68271,2,0,P|114:238|108:195,1,92.0000017547608,8|0,0:0|0:0,0:0:0:0:
46,154,68493,1,10,0:0:0:0:
140,39,68604,1,8,0:0:0:0:
206,69,68715,6,0,P|200:133|194:265,1,184.000003509522,6|0,0:0|0:0,0:0:0:0:
512,303,69159,2,0,P|452:233|359:242,1,184.000003509522,8|2,0:0|0:0,0:0:0:0:
337,305,69493,1,2,1:0:0:0:
281,181,69604,5,0,0:0:0:0:
270,255,69715,2,0,L|256:357,1,92.0000017547608,8|2,0:0|1:0,0:0:0:0:
188,371,69937,1,0,0:0:0:0:
148,309,70048,2,0,L|48:321,1,92.0000017547608,10|2,0:0|1:0,0:0:0:0:
5,266,70271,1,2,0:0:0:0:
136,174,70382,1,8,0:0:0:0:
185,226,70493,6,0,P|83:197|-11:191,1,184.000003509522,4|0,0:0|0:0,0:0:0:0:
11,117,70826,1,2,1:0:0:0:
82,30,70937,2,0,P|160:33|195:131,1,184.000003509522,10|2,0:0|0:0,0:0:0:0:
249,174,71271,1,2,1:0:0:0:
310,133,71382,5,0,0:0:0:0:
370,172,71493,2,0,P|362:212|351:274,1,92.0000017547608,8|2,0:0|1:0,0:0:0:0:
315,325,71715,1,0,0:0:0:0:
261,274,71826,2,0,B|224:246|224:246|169:264,1,92.0000017547608,10|0,0:0|0:0,0:0:0:0:
163,331,72048,2,0,B|200:359|200:359|243:344,1,92.0000017547608,2|0,0:0|0:0,0:0:0:0:
500,346,72271,6,0,L|380:327,3,107.999996704102,14|4|14|4,0:0|0:3|0:0|0:3,0:0:0:0:
119,345,73604,1,10,0:0:0:0:
43,371,73715,1,0,0:0:0:0:
58,292,73826,1,10,0:0:0:0:
134,266,73937,1,0,0:0:0:0:
144,258,74048,6,0,P|152:210|154:165,1,80,12|8,0:0|0:0,0:0:0:0:
124,103,74271,1,8,0:0:0:0:
176,43,74382,1,8,0:0:0:0:
253,64,74493,1,10,0:0:0:0:
284,137,74604,1,8,0:0:0:0:
265,214,74715,1,8,0:0:0:0:
316,275,74826,1,8,0:0:0:0:
482,198,74937,5,10,0:0:0:0:
408,166,75048,1,8,0:0:0:0:
391,244,75159,1,8,0:0:0:0:
464,277,75270,1,8,0:0:0:0:
309,359,75382,5,10,0:0:0:0:
237,323,75493,1,8,0:0:0:0:
158,307,75604,1,8,0:0:0:0:
78,310,75715,1,8,0:0:0:0:
4,344,75826,6,0,L|-8:244,1,92.0000017547608,6|0,0:0|0:0,0:0:0:0:
242,237,76048,2,0,L|231:328,1,92.0000017547608,2|2,0:0|1:0,0:0:0:0:
81,384,76271,2,0,P|72:261|56:184,1,184.000003509522,10|2,0:0|0:0,0:0:0:0:
74,129,76604,1,2,1:0:0:0:
0,18,76715,6,0,L|90:0,1,92.0000017547608,2|8,0:0|0:0,0:0:0:0:
155,33,76937,1,2,1:0:0:0:
120,211,77159,2,0,L|29:192,1,92.0000017547608,8|2,0:0|1:0,0:0:0:0:
0,124,77381,1,2,0:0:0:0:
155,33,77493,1,10,0:0:0:0:
190,97,77604,6,0,P|176:184|167:286,1,184.000003509522,2|2,0:0|0:0,0:0:0:0:
217,333,77937,1,2,1:0:0:0:
91,383,78048,2,0,L|-18:369,1,92.0000017547608,10|0,0:0|0:0,0:0:0:0:
4,297,78271,2,0,L|95:308,1,92.0000017547608,2|2,0:0|1:0,0:0:0:0:
336,384,78493,6,0,P|321:282|245:242,1,184.000003509522,2|2,0:0|1:0,0:0:0:0:
248,170,78826,1,2,0:0:0:0:
440,281,78937,2,0,P|430:325|420:381,1,92.0000017547608,8|2,0:0|1:0,0:0:0:0:
348,377,79159,1,2,0:0:0:0:
200,298,79271,1,10,0:0:0:0:
161,360,79382,6,0,L|134:155,1,184.000003509522,6|0,0:0|0:0,0:0:0:0:
72,142,79715,1,2,1:0:0:0:
179,59,79826,2,0,B|110:-4|110:-4|22:17,1,184.000003509522,8|2,0:0|0:0,0:0:0:0:
14,91,80159,1,2,1:0:0:0:
44,216,80271,5,0,0:0:0:0:
108,180,80382,2,0,P|100:130|86:67,1,92.0000017547608,8|2,0:0|0:0,0:0:0:0:
290,233,80604,1,0,0:0:0:0:
226,197,80715,2,0,P|234:147|248:84,1,92.0000017547608,10|2,0:0|1:0,0:0:0:0:
298,58,80937,1,0,0:0:0:0:
431,179,81048,1,8,0:0:0:0:
406,252,81159,6,0,P|333:231|326:119,1,184.000003509522,6|0,0:0|0:0,0:0:0:0:
504,384,81604,2,0,L|304:361,1,184.000003509522,10|0,0:0|0:0,0:0:0:0:
264,315,81937,1,2,1:0:0:0:
203,356,82048,5,2,0:0:0:0:
142,314,82159,2,0,L|130:220,1,92.0000017547608,8|2,0:0|1:0,0:0:0:0:
79,169,82382,1,2,0:0:0:0:
94,97,82493,2,0,L|184:83,1,92.0000017547608,8|0,0:0|0:0,0:0:0:0:
233,137,82715,1,10,0:0:0:0:
369,38,82826,1,10,0:0:0:0:
402,103,82937,6,0,P|302:75|231:19,1,184.000003509522,6|0,0:0|0:0,0:0:0:0:
167,8,83271,1,2,1:0:0:0:
118,63,83382,2,0,P|125:107|135:172,1,92.0000017547608,8|0,0:0|0:0,0:0:0:0:
136,227,83604,5,10,0:0:0:0:
199,189,83715,1,8,0:0:0:0:
204,262,83826,1,10,0:0:0:0:
149,212,83937,5,8,0:0:0:0:
219,191,84048,1,10,0:0:0:0:
274,239,84159,1,8,0:0:0:0:
259,311,84271,1,10,0:0:0:0:
216,251,84382,5,8,0:0:0:0:
289,245,84493,1,10,0:0:0:0:
335,301,84604,1,8,0:0:0:0:
307,368,84715,6,0,L|220:362,1,80,14|0,0:0|0:0,0:0:0:0:
231,189,86493,6,0,B|247:236|247:236|213:289|213:289|237:343,1,160,14|0,0:0|0:0,0:0:0:0:
232,334,86826,2,0,B|249:289|249:289|215:236|215:236|231:189,1,160,4|0,0:3|0:0,0:0:0:0:
272,121,87159,2,0,L|188:114,1,80,14|2,0:0|0:0,0:0:0:0:
351,125,87382,1,2,1:0:0:0:
182,106,87493,6,0,L|357:121,1,160,4|0,0:3|0:0,0:0:0:0:
342,203,87826,2,0,L|329:289,1,80,14|0,0:0|0:0,0:0:0:0:
339,274,88048,2,0,L|350:194,1,80,4|0,0:0|0:0,0:0:0:0:
