osu file format v14

[General]
AudioFilename: optc.ogg
AudioLeadIn: 0
PreviewTime: 61493
Countdown: 0
SampleSet: Soft
StackLeniency: 0.7
Mode: 0
LetterboxInBreaks: 0
WidescreenStoryboard: 0

[Editor]
Bookmarks: 1160,11826,18937,33159,47382,61604,75826
DistanceSpacing: 1
BeatDivisor: 4
GridSize: 32
TimelineZoom: 1

[Metadata]
Title:Gurenge (TV Size)
TitleUnicode:紅蓮華 (TV Size)
Artist:LiSA
ArtistUnicode:LiSA
Creator:Shad0w1and
Version:Another
Source:鬼滅の刃
Tags:kimetsu no yaiba blade of demon opening op japanese anime jrock rock kunka kunkakunkakunkakunka Yugu Karen Setu Yogurtt KoldNoodl cjstmdals
BeatmapID:4501740
BeatmapSetID:2139037

[Difficulty]
HPDrainRate:5.5
CircleSize:5.2
OverallDifficulty:8
ApproachRate:9.2
SliderMultiplier:1.6
SliderTickRate:1

[Events]
//Background and Video events
0,0,"BG.jpg",0,0
Video,0,"optc.flv"
//Break Periods
//Storyboard Layer 0 (Background)
//Storyboard Layer 1 (Fail)
//Storyboard Layer 2 (Pass)
//Storyboard Layer 3 (Foreground)
//Storyboard Layer 4 (Overlay)
//Storyboard Sound Samples

[TimingPoints]
1160,444.444444444444,4,2,33,50,1,0
10048,-250,4,2,33,50,0,0
11159,-500,4,2,33,50,0,0
11826,-66.6666666666667,4,2,33,90,0,0
18937,-80,4,2,33,60,0,0
45604,-50,4,2,33,60,0,0
47382,-133.333333333333,4,2,33,50,0,0
61159,-250,4,2,33,50,0,0
61604,-66.6666666666667,4,2,33,90,0,1
84715,-100,4,2,33,90,0,0
84826,-100,4,2,33,50,0,0
86493,-50,4,2,33,90,0,1
86826,-100,4,2,33,90,0,1
87159,-50,4,2,33,90,0,1
87493,-100,4,2,33,90,0,1
87826,-50,4,2,33,90,0,1
88048,-200,4,2,33,90,0,0
88271,-200,4,2,33,20,0,0

[Colours]
Combo1 : 218,164,135
Combo2 : 255,170,185
Combo3 : 130,115,200
Combo4 : 164,251,164
Combo5 : 185,185,185

[HitObjects]
203,45,1160,6,0,P|238:97|174:120,1,120,2|2,0:0|0:0,0:0:0:0:
203,127,1826,2,0,B|277:154|312:102|367:150|367:150|328:140|300:161,1,240,2|0,0:0|0:0,0:0:0:0:
301,160,2937,6,0,P|317:227|266:236,1,120,2|2,0:0|0:0,0:0:0:0:
282,241,3604,2,0,B|332:237|374:212|374:212|390:226|397:247|397:247|448:202|512:247,1,240,2|0,0:0|0:0,0:0:0:0:
452,303,4493,1,2,0:0:0:0:
452,303,4715,6,0,P|393:345|366:312,1,120,2|2,0:0|0:0,0:0:0:0:
369,322,5382,2,0,B|309:347|268:309|212:332|212:332|238:363|294:356,1,240,2|0,0:0|0:0,0:0:0:0:
282,241,6271,1,2,0:0:0:0:
282,241,6493,6,0,B|242:219|242:219|213:241|142:244,2,120,2|2|2,0:0|0:0|0:0,0:0:0:0:
282,241,7604,2,0,B|268:203|271:135|271:135|291:169|313:187,1,160,2|2,0:0|0:0,0:0:0:0:
302,177,8271,6,0,B|208:162|208:162|185:196|185:196|83:180,1,240,2|0,0:0|0:0,0:0:0:0:
83,180,9382,2,0,P|134:227|65:278,1,160,2|2,0:0|0:0,0:0:0:0:
84,281,10048,6,0,B|178:274|178:274|168:313,1,128,2|0,0:0|0:0,0:0:0:0:
251,333,11159,6,0,L|259:301,1,32,2|2,0:0|0:0,0:0:0:0:
332,255,11826,6,0,P|398:286|404:345,1,120.000004577637,14|0,0:1|0:0,0:0:0:0:
408,327,12159,1,8,0:3:0:0:
332,255,12271,2,0,L|363:135,1,120.000004577637,8|0,0:0|0:0,0:0:0:0:
362,139,12604,2,0,L|302:139,1,60.0000022888184,8|0,0:3|0:0,0:0:0:0:
190,212,12826,1,8,0:0:0:0:
190,212,12937,2,0,L|250:212,1,60.0000022888184,8|0,0:3|0:0,0:0:0:0:
242,307,13159,5,8,3:0:0:0:
272,358,13270,1,8,3:0:0:0:
332,359,13382,1,8,3:0:0:0:
362,307,13492,1,8,3:0:0:0:
332,255,13604,6,0,L|453:255,1,120.000004577637,14|0,0:1|0:0,0:0:0:0:
452,255,13937,1,8,0:3:0:0:
332,255,14049,2,0,P|304:191|351:144,1,120.000004577637,8|0,0:0|0:0,0:0:0:0:
328,153,14382,2,0,L|253:142,1,60.0000022888184,8|0,0:3|0:0,0:0:0:0:
363,203,14604,1,8,0:0:0:0:
363,203,14715,2,0,L|428:197,1,60.0000022888184,8|0,0:3|0:0,0:0:0:0:
362,307,14937,5,8,3:0:0:0:
302,306,15048,1,8,3:0:0:0:
271,255,15160,1,8,3:0:0:0:
302,203,15270,1,8,3:0:0:0:
363,203,15382,6,0,P|391:153|366:101,1,120.000004577637,14|0,0:1|0:0,0:0:0:0:
366,101,15715,1,8,0:3:0:0:
363,203,15827,2,0,L|483:203,1,120.000004577637,8|0,0:0|0:0,0:0:0:0:
483,203,16160,2,0,L|470:290,1,60.0000022888184,8|0,0:3|0:0,0:0:0:0:
382,349,16382,1,8,0:0:0:0:
382,349,16493,2,0,L|391:289,1,60.0000022888184,8|0,0:3|0:0,0:0:0:0:
333,151,16715,5,8,3:0:0:0:
273,151,16826,1,8,3:0:0:0:
243,203,16937,1,8,3:0:0:0:
273,254,17048,1,8,3:0:0:0:
337,258,17159,5,14,0:1:0:0:
337,258,17271,2,0,L|328:318,1,60.0000022888184,8|0,0:3|0:0,0:0:0:0:
273,254,17493,2,0,P|326:195|369:207,1,120.000004577637,8|0,0:3|0:0,0:0:0:0:
273,254,17826,6,0,L|187:240,1,60.0000022888184,14|0,0:0|0:0,0:0:0:0:
358,200,18048,2,0,L|444:186,1,60.0000022888184,12|0,0:0|0:0,0:0:0:0:
273,151,18271,2,0,L|187:137,1,60.0000022888184,12|0,0:3|0:0,0:0:0:0:
358,96,18493,5,8,3:0:0:0:
418,97,18604,1,8,3:0:0:0:
448,148,18715,1,8,3:0:0:0:
418,200,18826,1,8,3:0:0:0:
358,200,18937,6,0,P|311:196|269:246,1,100,14|0,0:1|0:0,0:0:0:0:
390,254,19271,2,0,P|437:258|479:208,1,100,8|0,0:0|0:0,0:0:0:0:
330,254,19604,2,0,L|335:359,1,100,8|0,0:3|0:0,0:0:0:0:
418,200,20048,1,4,0:3:0:0:
268,129,20271,2,0,L|274:240,1,100,8|0,0:0|0:0,0:0:0:0:
334,258,20604,1,0,0:0:0:0:
334,258,20715,5,10,0:1:0:0:
268,129,20937,1,8,0:3:0:0:
234,354,21159,2,0,L|336:354,1,100,8|0,0:0|0:0,0:0:0:0:
334,354,21493,1,8,0:3:0:0:
334,354,21604,2,0,L|332:304,1,50,10|0,0:1|0:0,0:0:0:0:
332,304,21826,2,0,L|330:253,1,50,4|0,0:3|0:0,0:0:0:0:
330,254,22048,2,0,P|380:273|429:237,1,100,8|0,0:0|0:0,0:0:0:0:
230,254,22493,6,0,L|235:374,2,100,10|0|8,0:1|0:0|0:0,0:0:0:0:
375,212,23159,2,0,L|373:161,1,50,8|0,0:3|0:0,0:0:0:0:
373,162,23382,2,0,L|371:111,1,50,8|0,0:1|0:0,0:0:0:0:
371,112,23604,2,0,L|369:61,1,50,4|0,0:3|0:0,0:0:0:0:
369,62,23826,2,0,P|413:82|457:62,2,100,8|0|10,0:0|0:0|0:1,0:0:0:0:
230,254,24493,5,8,0:3:0:0:
230,254,24604,1,8,0:3:0:0:
230,254,24715,1,8,0:0:0:0:
230,254,24826,2,0,L|292:254,1,50,8|0,0:3|0:0,0:0:0:0:
189,298,25048,2,0,P|170:253|189:209,1,100,10|0,0:1|0:0,0:0:0:0:
189,209,25382,1,4,0:3:0:0:
375,212,25604,1,8,0:0:0:0:
230,254,25826,6,0,L|255:254,3,25,8|0|0|0,0:3|0:0|0:0|0:0,0:0:0:0:
189,298,26048,6,0,B|138:298|138:298|108:349,1,100,14|0,0:1|0:0,0:0:0:0:
98,193,26382,2,0,B|123:237|123:237|182:237,1,100,8|0,0:0|0:0,0:0:0:0:
53,325,26715,2,0,B|78:280|78:280|49:229,1,100,8|0,0:3|0:0,0:0:0:0:
174,358,27159,1,4,0:3:0:0:
272,237,27382,2,0,L|165:237,1,100,8|0,0:0|0:0,0:0:0:0:
172,237,27715,1,0,0:0:0:0:
172,237,27826,5,10,0:1:0:0:
272,237,28048,1,8,0:3:0:0:
372,237,28270,2,0,L|269:236,1,100,8|0,0:0|0:0,0:0:0:0:
272,236,28604,1,8,0:3:0:0:
363,286,28715,2,0,L|372:236,1,50,10|0,0:1|0:0,0:0:0:0:
281,187,28937,2,0,L|271:236,1,50,4|0,0:3|0:0,0:0:0:0:
327,119,29159,2,0,P|281:102|232:121,1,100,8|0,0:0|0:0,0:0:0:0:
363,286,29604,6,0,L|385:170,2,100,10|0|8,0:1|0:0|0:0,0:0:0:0:
231,187,30271,2,0,L|281:187,1,50,8|0,0:3|0:0,0:0:0:0:
147,168,30493,2,0,L|172:124,1,50,8|0,0:1|0:0,0:0:0:0:
89,233,30715,2,0,L|64:189,1,50,4|0,0:3|0:0,0:0:0:0:
172,249,30937,1,8,0:0:0:0:
223,47,31159,2,0,L|110:47,1,100,0|10,0:0|0:1,0:0:0:0:
281,187,31604,5,8,0:3:0:0:
281,187,31715,1,8,0:3:0:0:
281,187,31826,2,0,L|290:137,1,50,8|0,0:0|0:0,0:0:0:0:
382,188,32048,2,0,L|373:238,1,50,8|0,0:3|0:0,0:0:0:0:
383,87,32271,2,0,L|490:87,1,100,10|4,0:1|0:3,0:0:0:0:
281,187,32715,1,8,0:0:0:0:
223,47,32937,6,0,L|226:84,3,25,8|0|0|0,0:3|0:0|0:0|0:0,0:0:0:0:
172,124,33159,6,0,P|122:121|79:72,1,100,14|0,0:1|0:0,0:0:0:0:
86,89,33493,2,0,P|108:133|88:195,1,100,8|0,0:0|0:0,0:0:0:0:
99,181,33826,2,0,P|126:139|189:126,1,100,8|0,0:3|0:0,0:0:0:0:
175,203,34159,1,0,0:0:0:0:
175,203,34271,1,4,0:3:0:0:
33,143,34493,1,8,0:0:0:0:
153,50,34715,1,0,0:0:0:0:
153,50,34826,1,0,0:0:0:0:
153,50,34937,5,10,0:1:0:0:
118,254,35159,1,8,0:3:0:0:
290,138,35382,1,8,0:0:0:0:
303,343,35604,1,0,0:0:0:0:
280,332,35715,1,0,0:0:0:0:
257,320,35826,1,8,0:1:0:0:
234,309,35937,1,0,0:0:0:0:
211,299,36048,2,0,P|160:305|131:360,1,100,4|8,0:3|0:0,0:0:0:0:
303,343,36493,1,0,0:0:0:0:
303,343,36604,1,0,0:0:0:0:
303,343,36715,6,0,B|303:265|303:265|343:275,1,100,14|0,0:1|0:0,0:0:0:0:
396,255,37048,2,0,B|396:333|396:333|356:323,1,100,8|0,0:0|0:0,0:0:0:0:
345,201,37382,2,0,B|345:123|345:123|385:133,1,100,8|0,0:3|0:0,0:0:0:0:
421,186,37715,1,0,0:0:0:0:
421,186,37826,1,4,0:3:0:0:
211,299,38048,1,8,0:0:0:0:
153,50,38271,1,0,0:0:0:0:
177,54,38382,1,0,0:0:0:0:
201,58,38493,5,10,0:1:0:0:
366,128,38715,1,8,0:3:0:0:
342,132,38826,1,8,0:3:0:0:
318,136,38937,1,8,0:0:0:0:
99,181,39159,2,0,P|128:180|168:196,1,50,8|0,0:3|0:0,0:0:0:0:
191,276,39382,2,0,P|178:302|156:319,1,50,8|0,0:1|0:0,0:0:0:0:
64,308,39604,2,0,P|47:283|44:240,1,50,4|0,0:3|0:0,0:0:0:0:
118,254,39826,1,8,0:0:0:0:
303,368,40048,6,0,L|303:343,3,25,8|0|0|0,0:3|0:0|0:0|0:0,0:0:0:0:
324,270,40271,6,0,B|371:261|371:261|423:270,1,100,14|0,0:1|0:0,0:0:0:0:
226,270,40604,2,0,B|273:279|273:279|325:270,1,100,8|0,0:0|0:0,0:0:0:0:
128,270,40937,2,0,B|175:261|175:261|227:270,1,100,8|0,0:3|0:0,0:0:0:0:
42,364,41382,2,0,L|42:237,1,100,4|8,0:3|0:0,0:0:0:0:
180,364,41826,1,0,0:0:0:0:
180,364,41937,1,0,0:0:0:0:
180,364,42048,5,10,0:1:0:0:
99,181,42271,1,8,0:3:0:0:
352,306,42493,2,0,P|327:303|302:305,1,50,8|0,0:0|0:0,0:0:0:0:
222,338,42715,2,0,P|201:352|179:363,1,50,8|0,0:3|0:0,0:0:0:0:
266,227,42937,2,0,P|243:237|222:251,1,50,10|0,0:1|0:0,0:0:0:0:
144,285,43159,2,0,P|119:287|94:285,1,50,4|0,0:3|0:0,0:0:0:0:
182,172,43382,2,0,P|222:208|220:257,1,100,8|0,0:0|0:0,0:0:0:0:
99,181,43826,6,0,P|109:136|117:75,1,100,14|0,0:1|0:0,0:0:0:0:
116,82,44159,1,0,0:0:0:0:
99,181,44271,2,0,P|51:164|-30:161,1,100,8|0,0:0|0:0,0:0:0:0:
42,264,44604,1,0,0:0:0:0:
42,264,44715,1,8,0:1:0:0:
182,172,44937,1,4,0:3:0:0:
2,158,45159,1,8,0:0:0:0:
222,338,45382,1,0,0:0:0:0:
246,338,45493,1,0,0:0:0:0:
270,338,45604,6,0,B|270:228|270:228|228:261,1,160,14|8,0:3|0:0,0:0:0:0:
270,338,45937,2,0,B|309:329|309:329|349:338,1,80,8|4,0:1|0:3,0:0:0:0:
231,258,46159,2,0,B|192:267|192:267|152:258,1,80,8|8,0:1|0:3,0:0:0:0:
192,181,46382,1,8,0:1:0:0:
276,184,46493,6,0,P|304:215|315:254,1,80,14|8,0:0|0:1,0:0:0:0:
231,258,46715,1,8,0:0:0:0:
192,181,46826,1,8,0:3:0:0:
315,251,46937,2,0,P|297:311|148:278,1,240,14|0,0:0|0:0,0:0:0:0:
231,258,47382,5,14,0:1:0:0:
231,258,47715,1,2,0:0:0:0:
204,245,47826,1,0,0:0:0:0:
99,181,48048,1,2,0:0:0:0:
126,168,48159,1,0,0:0:0:0:
153,156,48271,2,0,L|153:14,1,120.000004577637,2|0,0:0|0:0,0:0:0:0:
153,36,49159,5,2,0:0:0:0:
153,36,49493,1,2,0:0:0:0:
169,60,49604,1,0,0:0:0:0:
276,184,49826,1,2,0:0:0:0:
292,160,49937,1,0,0:0:0:0:
308,135,50048,2,0,L|389:135,1,60.0000022888184,2|0,0:0|0:0,0:0:0:0:
185,85,50493,2,0,L|252:85,1,60.0000022888184,0|0,0:0|0:0,0:0:0:0:
245,85,50937,5,2,0:0:0:0:
245,85,51270,1,2,0:0:0:0:
218,98,51381,1,0,0:0:0:0:
113,162,51603,1,2,0:0:0:0:
140,175,51714,1,0,0:0:0:0:
167,187,51826,2,0,L|167:329,1,120.000004577637,2|0,0:0|0:0,0:0:0:0:
167,307,52493,1,0,0:0:0:0:
167,307,52714,5,2,0:0:0:0:
167,307,53048,1,2,0:0:0:0:
183,283,53159,1,0,0:0:0:0:
290,159,53381,1,2,0:0:0:0:
306,183,53492,1,0,0:0:0:0:
322,208,53603,2,0,L|403:208,1,60.0000022888184,2|0,0:0|0:0,0:0:0:0:
199,258,54048,2,0,L|266:258,1,60.0000022888184,2|0,0:0|0:0,0:0:0:0:
71,131,54493,5,14,0:3:0:0:
199,2,54937,1,4,0:3:0:0:
328,131,55382,1,4,0:3:0:0:
199,258,55826,1,4,0:3:0:0:
199,2,56271,5,14,0:3:0:0:
455,2,56715,1,4,0:3:0:0:
455,258,57159,1,4,0:3:0:0:
199,258,57604,1,4,0:3:0:0:
327,2,58048,5,14,0:3:0:0:
327,258,58271,1,6,0:3:0:0:
199,131,58493,1,6,0:3:0:0:
456,131,58715,1,6,0:3:0:0:
199,258,58937,5,14,0:3:0:0:
199,2,59160,1,6,0:3:0:0:
328,131,59382,1,6,0:3:0:0:
71,131,59604,1,6,0:3:0:0:
328,245,59826,6,0,L|328:204,1,30.0000011444092,10|2,0:3|0:0,0:0:0:0:
328,131,60048,1,2,0:0:0:0:
328,326,60271,6,0,P|403:278|321:250,1,210.000008010865,2|2,0:0|0:0,0:0:0:0:
212,286,61159,6,0,B|235:292|235:292|259:287,1,48,2|0,0:0|0:0,0:0:0:0:
238,207,61604,6,0,P|260:158|324:148,1,120.000004577637,14|0,0:1|0:0,0:0:0:0:
320,146,61937,1,8,0:3:0:0:
212,286,62048,2,0,P|150:278|81:274,1,120.000004577637,10|0,0:0|0:0,0:0:0:0:
92,274,62382,1,8,0:3:0:0:
182,234,62493,6,0,L|212:286,1,60.0000022888184,10|0,0:1|0:0,0:0:0:0:
257,364,62715,1,4,0:3:0:0:
257,364,62826,2,0,L|287:311,1,60.0000022888184,2|8,0:0|0:0,0:0:0:0:
333,235,63048,1,8,0:3:0:0:
333,235,63159,2,0,L|272:235,1,60.0000022888184,2|8,0:0|0:0,0:0:0:0:
375,312,63382,6,0,P|432:294|442:222,1,120.000004577637,10|0,0:1|0:0,0:0:0:0:
448,240,63715,1,8,0:3:0:0:
273,235,63826,2,0,P|286:300|292:358,1,120.000004577637,10|0,0:0|0:0,0:0:0:0:
291,353,64159,1,8,0:3:0:0:
204,345,64271,6,0,P|205:323|211:285,1,60.0000022888184,10|0,0:1|0:0,0:0:0:0:
129,258,64493,1,4,0:3:0:0:
129,258,64604,2,0,P|140:239|165:210,1,60.0000022888184,2|8,0:0|0:0,0:0:0:0:
104,146,64826,1,8,0:3:0:0:
104,146,64937,2,0,P|123:135|159:123,1,60.0000022888184,2|8,0:0|0:0,0:0:0:0:
285,214,65159,6,0,P|267:268|211:285,1,120.000004577637,14|0,0:1|0:0,0:0:0:0:
212,285,65493,1,8,0:3:0:0:
159,123,65604,2,0,L|299:124,1,120.000004577637,10|0,0:0|0:0,0:0:0:0:
279,124,65937,1,8,0:3:0:0:
168,183,66048,6,0,L|156:96,1,60.0000022888184,10|0,0:1|0:0,0:0:0:0:
129,258,66271,2,0,L|137:317,1,60.0000022888184,6|0,0:3|0:0,0:0:0:0:
60,224,66493,1,8,0:0:0:0:
60,224,66604,2,0,L|-30:224,1,60.0000022888184,6|0,0:3|0:0,0:0:0:0:
104,146,66826,1,8,0:0:0:0:
104,146,66937,6,0,B|149:128|149:128|149:45|149:45|88:68,1,180.000006866455,14|8,0:1|0:3,0:0:0:0:
60,224,67382,2,0,B|15:242|15:242|15:325|15:325|76:302,1,180.000006866455,14|8,0:0|0:3,0:0:0:0:
208,187,67826,5,12,0:0:0:0:
208,187,67937,2,0,B|164:146|164:146|66:146,1,120.000004577637,10|0,0:1|0:0,0:0:0:0:
152,285,68271,2,0,L|215:285,1,60.0000022888184,10|0,0:0|0:0,0:0:0:0:
405,274,68493,1,4,0:3:0:0:
405,244,68604,1,8,0:0:0:0:
405,214,68715,6,0,L|255:214,1,120.000004577637,14|0,0:1|0:0,0:0:0:0:
285,214,69048,1,8,0:3:0:0:
347,295,69159,2,0,P|354:327|358:367,1,60.0000022888184,10|0,0:0|0:0,0:0:0:0:
405,214,69382,1,0,0:0:0:0:
405,214,69493,6,0,P|411:156|428:90,1,120.000004577637,10|0,0:1|0:0,0:0:0:0:
309,146,69826,2,0,P|276:146|219:138,1,60.0000022888184,6|0,0:3|0:0,0:0:0:0:
142,263,70048,5,10,3:2:0:0:
164,283,70159,1,0,3:0:0:0:
193,289,70270,1,2,3:0:0:0:
222,282,70381,1,0,3:0:0:0:
245,263,70493,6,0,L|250:133,1,120.000004577637,14|0,0:1|0:0,0:0:0:0:
249,143,70826,1,8,0:3:0:0:
320,207,70937,6,0,P|353:207|392:205,1,60.0000022888184,10|0,0:0|0:0,0:0:0:0:
245,263,71159,1,0,0:0:0:0:
245,263,71271,2,0,P|192:246|125:238,1,120.000004577637,10|0,0:1|0:0,0:0:0:0:
231,162,71604,6,0,L|223:75,1,60.0000022888184,6|0,0:3|0:0,0:0:0:0:
327,148,71826,2,0,L|319:220,1,60.0000022888184,10|0,0:0|0:0,0:0:0:0:
423,235,72048,2,0,L|418:164,1,60.0000022888184,6|0,0:3|0:0,0:0:0:0:
512,200,72271,1,14,0:1:0:0:
357,354,72493,5,2,3:0:0:0:
324,319,72604,1,0,3:0:0:0:
283,293,72715,1,0,3:0:0:0:
236,280,72826,1,0,3:0:0:0:
188,280,72937,1,6,3:0:0:0:
252,35,73159,5,2,3:0:0:0:
286,69,73270,1,0,3:0:0:0:
310,111,73381,1,0,3:0:0:0:
321,158,73492,1,0,3:0:0:0:
320,207,73603,1,6,3:0:0:0:
142,144,73826,5,2,3:0:0:0:
119,101,73937,1,0,3:0:0:0:
104,55,74048,1,14,3:1:0:0:
226,193,74271,5,2,3:0:0:0:
213,239,74382,1,0,3:0:0:0:
188,280,74493,5,10,3:2:0:0:
232,320,74604,1,0,3:0:0:0:
291,314,74715,1,0,3:0:0:0:
325,264,74826,1,0,3:0:0:0:
349,209,74937,5,10,3:1:0:0:
404,186,75048,1,0,3:0:0:0:
460,208,75159,1,0,3:0:0:0:
482,264,75270,1,0,3:0:0:0:
460,320,75382,5,10,3:2:0:0:
404,342,75493,1,0,3:0:0:0:
349,320,75604,1,0,3:0:0:0:
326,264,75716,1,0,3:0:0:0:
349,209,75826,6,0,P|384:161|367:74,1,120.000004577637,14|0,0:1|0:0,0:0:0:0:
383,102,76159,1,8,0:3:0:0:
349,209,76270,2,0,P|411:206|494:214,1,120.000004577637,10|0,0:0|0:0,0:0:0:0:
469,210,76604,1,8,0:3:0:0:
363,268,76715,6,0,L|349:209,1,60.0000022888184,10|0,0:1|0:0,0:0:0:0:
377,326,76937,1,4,0:3:0:0:
377,326,77048,2,0,L|363:267,1,60.0000022888184,2|8,0:0|0:0,0:0:0:0:
391,384,77271,1,8,0:3:0:0:
391,384,77382,2,0,L|377:325,1,60.0000022888184,2|8,0:0|0:0,0:0:0:0:
453,250,77604,6,0,P|420:314|348:319,1,120.000004577637,10|0,0:1|0:0,0:0:0:0:
378,326,77937,1,8,0:3:0:0:
383,191,78048,2,0,P|447:189|516:177,1,120.000004577637,10|0,0:0|0:0,0:0:0:0:
502,180,78381,1,8,0:3:0:0:
383,191,78493,6,0,L|375:267,1,60.0000022888184,10|0,0:1|0:0,0:0:0:0:
426,286,78715,1,4,0:3:0:0:
426,286,78826,2,0,L|364:241,1,60.0000022888184,2|8,0:0|0:0,0:0:0:0:
322,276,79048,1,8,0:3:0:0:
322,276,79159,2,0,L|391:244,1,60.0000022888184,2|8,0:0|0:0,0:0:0:0:
232,320,79381,6,0,P|177:309|148:247,1,120.000004577637,14|0,0:1|0:0,0:0:0:0:
148,256,79715,1,8,0:3:0:0:
232,320,79826,2,0,P|229:354|223:384,1,60.0000022888184,10|0,0:0|0:0,0:0:0:0:
293,163,80048,1,0,0:0:0:0:
293,163,80159,6,0,P|304:227|324:289,1,120.000004577637,10|0,0:3|0:0,0:0:0:0:
221,247,80493,2,0,P|187:243|142:237,1,60.0000022888184,6|0,0:3|0:0,0:0:0:0:
383,191,80715,1,8,0:0:0:0:
383,191,80826,2,0,P|414:184|469:178,1,60.0000022888184,6|0,0:3|0:0,0:0:0:0:
320,279,81048,1,8,0:0:0:0:
320,279,81159,6,0,P|304:200|391:200,1,180.000006866455,14|8,0:1|0:3,0:0:0:0:
221,247,81604,2,0,B|176:258|148:235|93:249|93:249|121:274|160:282,1,180.000006866455,14|8,0:0|0:3,0:0:0:0:
195,166,82048,5,12,0:0:0:0:
195,166,82159,2,0,P|202:141|208:94,1,60.0000022888184,10|0,0:1|0:0,0:0:0:0:
221,247,82382,1,0,0:0:0:0:
221,247,82493,2,0,P|223:282|228:316,1,60.0000022888184,10|0,0:0|0:0,0:0:0:0:
276,184,82715,1,4,0:3:0:0:
306,184,82826,1,8,0:0:0:0:
335,184,82937,6,0,P|388:154|396:89,1,120.000004577637,14|0,0:1|0:0,0:0:0:0:
399,100,83270,1,8,0:3:0:0:
335,184,83382,2,0,L|333:303,1,120.000004577637,10|0,0:0|0:0,0:0:0:0:
334,304,83715,1,8,0:3:0:0:
402,298,83826,5,10,3:1:0:0:
382,353,83937,1,0,3:0:0:0:
327,372,84048,1,0,3:3:0:0:
277,341,84159,1,0,3:0:0:0:
269,283,84271,5,10,3:2:0:0:
245,230,84382,1,0,3:0:0:0:
192,204,84493,1,0,3:0:0:0:
135,220,84604,1,0,3:0:0:0:
102,271,84715,6,0,B|127:310|143:370|143:370|188:317|188:317|213:334|262:330,1,240,14|2,0:1|0:0,0:0:0:0:
322,215,85604,2,0,P|282:215|244:229,1,80,2|2,0:0|0:0,0:0:0:0:
402,298,86048,2,0,P|441:297|479:283,1,80,2|0,0:0|0:0,0:0:0:0:
289,95,86493,6,0,B|281:213|281:213|335:216,1,160,14|0,0:1|0:0,0:0:0:0:
470,145,86826,6,0,L|391:142,1,80,8|0,0:0|0:0,0:0:0:0:
203,249,87159,6,0,B|321:257|321:257|324:203,1,160,14|0,0:1|0:0,0:0:0:0:
294,15,87493,6,0,L|289:94,1,80,8|0,0:0|0:0,0:0:0:0:
465,225,87826,6,0,L|470:146,1,80,14|0,0:1|0:0,0:0:0:0:
323,215,88048,6,0,L|363:217,1,40,14|2,0:0|0:0,0:0:0:0:
