osu file format v14

[General]
AudioFilename: audio.mp3
AudioLeadIn: 0
PreviewTime: 60192
Countdown: 0
SampleSet: Soft
StackLeniency: 0.7
Mode: 3
LetterboxInBreaks: 0
SpecialStyle: 0
WidescreenStoryboard: 1

[Editor]
Bookmarks: 11747,18858,33080,47303,61525,75747
DistanceSpacing: 1.1
BeatDivisor: 4
GridSize: 32
TimelineZoom: 1.7

[Metadata]
Title:Gurenge (TV Size)
TitleUnicode:紅蓮華 (TV Size)
Artist:LiSA
ArtistUnicode:LiSA
Creator:Paran
Version:DH's Normal
Source:鬼滅の刃
Tags:secxcscx drum-hitnormal dudehacker kimetsu no yaiba blade of demon opening op japanese anime destruction demon slayer rock j-rock jrock sacra music leo-nine VVCL-1460
BeatmapID:2969183
BeatmapSetID:1442901

[Difficulty]
HPDrainRate:7.5
CircleSize:4
OverallDifficulty:7.5
ApproachRate:5
SliderMultiplier:1.4
SliderTickRate:1

[Events]
//Background and Video events
0,0,"kimetsu.jpg",0,0
//Break Periods
//Storyboard Layer 0 (Background)
//Storyboard Layer 1 (Fail)
//Storyboard Layer 2 (Pass)
//Storyboard Layer 3 (Foreground)
//Storyboard Layer 4 (Overlay)
//Storyboard Sound Samples
Sample,45519,0,"Tom3.wav",70
Sample,46741,0,"soft-hitwhistle.wav",70
Sample,54408,0,"Tom3.wav",70
Sample,54852,0,"Tom3.wav",70
Sample,55297,0,"Tom3.wav",70
Sample,55741,0,"Tom3.wav",70
Sample,56186,0,"Tom3.wav",70
Sample,56630,0,"Tom3.wav",70
Sample,57074,0,"Tom3.wav",70
Sample,57519,0,"Tom3.wav",70
Sample,57963,0,"Tom3.wav",70
Sample,58186,0,"Tom3.wav",70
Sample,58408,0,"Tom3.wav",70
Sample,58630,0,"Tom3.wav",70
Sample,58852,0,"Tom3.wav",70
Sample,59074,0,"Tom3.wav",70
Sample,59297,0,"Tom3.wav",70
Sample,59519,0,"Tom3.wav",70

[TimingPoints]
1070,444.444444444444,4,2,1,70,1,0
61514,-100,4,2,1,70,0,1
84625,-100,4,2,1,70,0,0

[HitObjects]
448,192,1070,128,0,1403:0:0:0:0:
320,192,1403,128,0,1736:0:0:0:0:
192,192,1736,128,0,2847:0:0:0:0:
320,192,2847,128,0,3181:0:0:0:0:
192,192,3181,128,0,3514:0:0:0:0:
64,192,3514,128,0,4625:0:0:0:0:
320,192,4625,128,0,4958:0:0:0:0:
192,192,4958,128,0,5292:0:0:0:0:
448,192,5292,128,0,6403:0:0:0:0:
320,192,6403,128,0,6736:0:0:0:0:
192,192,6736,128,0,7069:0:0:0:0:
64,192,7069,128,0,7514:0:0:0:0:
448,192,7514,128,0,7958:0:0:0:0:
192,192,7958,1,0,0:0:0:0:
320,192,8181,128,0,8514:0:0:0:0:
192,192,8514,128,0,8847:0:0:0:0:
64,192,8847,128,0,9292:0:0:0:0:
320,192,9292,128,0,9736:0:0:0:0:
192,192,9736,1,0,0:0:0:0:
448,192,9958,128,0,10847:0:0:0:0:
64,192,10847,128,0,11514:0:0:0:0:
448,192,11736,1,4,0:0:0:0:
320,192,11736,128,2,12069:0:0:0:0:
192,192,12069,128,2,12403:0:0:0:0:
64,192,12181,1,8,0:0:0:0:
448,192,12403,128,0,12736:0:0:0:0:
320,192,12736,1,0,0:0:0:0:
64,192,12736,128,8,13069:0:0:0:0:
448,192,13069,1,0,0:0:0:0:
320,192,13069,128,8,13292:0:0:0:0:
192,192,13292,128,0,13514:0:0:0:0:
320,192,13514,128,2,13847:0:0:0:0:
448,192,13514,1,4,0:0:0:0:
192,192,13847,128,2,14181:0:0:0:0:
64,192,13958,1,8,0:0:0:0:
448,192,14181,128,0,14514:0:0:0:0:
64,192,14514,128,8,14847:0:0:0:0:
320,192,14514,1,0,0:0:0:0:
320,192,14847,128,8,15069:0:0:0:0:
448,192,14847,1,0,0:0:0:0:
192,192,15069,128,8,15292:0:0:0:0:
448,192,15292,1,4,0:0:0:0:
320,192,15292,128,2,15625:0:0:0:0:
192,192,15625,128,2,15958:0:0:0:0:
64,192,15736,1,8,0:0:0:0:
448,192,15958,128,0,16292:0:0:0:0:
320,192,16292,1,8,0:0:0:0:
64,192,16292,128,0,16625:0:0:0:0:
448,192,16625,1,0,0:0:0:0:
320,192,16625,128,8,16847:0:0:0:0:
192,192,16847,128,2,17069:0:0:0:0:
320,192,17069,128,8,17403:0:0:0:0:
448,192,17069,1,0,0:0:0:0:
192,192,17403,128,2,17736:0:0:0:0:
448,192,17736,128,4,18069:0:0:0:0:
64,192,17736,1,8,0:0:0:0:
64,192,18069,128,0,18403:0:0:0:0:
320,192,18069,1,0,0:0:0:70:Tom1.wav
320,192,18403,128,8,18625:0:0:0:0:
448,192,18403,1,0,0:0:0:0:
192,192,18625,128,0,18847:0:0:0:0:
320,192,18847,1,2,0:0:0:0:
448,192,18847,1,4,0:0:0:0:
64,192,19292,1,8,0:0:0:0:
448,192,19292,1,0,0:0:0:0:
320,192,19625,1,8,0:0:0:0:
448,192,19625,1,0,0:0:0:0:
320,192,19958,1,0,0:0:0:0:
64,192,19958,1,2,0:0:0:0:
192,192,20181,1,8,0:0:0:0:
448,192,20181,1,0,0:0:0:0:
64,192,20625,1,2,0:0:0:0:
192,192,20625,1,0,0:0:0:0:
64,192,20847,1,2,0:0:0:0:
192,192,20847,1,0,0:0:0:0:
320,192,21069,1,8,0:0:0:0:
448,192,21069,1,0,0:0:0:0:
320,192,21292,1,8,0:0:0:0:
448,192,21292,1,0,0:0:0:0:
64,192,21403,1,2,0:0:0:0:
320,192,21625,1,8,0:0:0:0:
448,192,21625,1,0,0:0:0:0:
64,192,21736,1,2,0:0:0:0:
320,192,21958,1,0,0:0:0:0:
192,192,21958,1,8,0:0:0:0:
448,192,22403,1,0,0:0:0:0:
320,192,22403,1,2,0:0:0:0:
448,192,22847,1,0,0:0:0:0:
64,192,22847,1,8,0:0:0:0:
448,192,23181,1,0,0:0:0:0:
320,192,23181,1,8,0:0:0:0:
64,192,23514,1,2,0:0:0:0:
320,192,23514,1,0,0:0:0:0:
448,192,23736,1,0,0:0:0:0:
192,192,23736,1,8,0:0:0:0:
192,192,24181,1,0,0:0:0:0:
64,192,24181,1,2,0:0:0:0:
192,192,24403,1,0,0:0:0:0:
64,192,24403,1,2,0:0:0:0:
320,192,24514,1,2,0:0:0:0:
448,192,24625,1,8,0:0:0:0:
64,192,24958,1,8,0:0:0:0:
192,192,24958,1,0,0:0:0:0:
448,192,25181,1,0,0:0:0:70:S.wav
320,192,25292,1,2,0:0:0:0:
192,192,25514,1,8,0:0:0:0:
64,192,25514,1,0,0:0:0:0:
448,192,25736,1,0,0:0:0:70:S.wav
320,192,25847,1,0,0:0:0:70:S.wav
64,192,25958,1,2,0:0:0:0:
192,192,25958,1,0,0:0:0:0:
64,192,26403,1,8,0:0:0:0:
448,192,26403,1,0,0:0:0:0:
64,192,26736,1,0,0:0:0:0:
192,192,26736,1,8,0:0:0:0:
448,192,27069,1,0,0:0:0:0:
192,192,27069,1,2,0:0:0:0:
64,192,27292,1,0,0:0:0:0:
320,192,27292,1,8,0:0:0:0:
320,192,27736,1,2,0:0:0:0:
448,192,27736,1,0,0:0:0:0:
320,192,27958,1,2,0:0:0:0:
448,192,27958,1,0,0:0:0:0:
64,192,28181,1,8,0:0:0:0:
192,192,28181,1,0,0:0:0:0:
64,192,28403,1,0,0:0:0:0:
192,192,28403,1,8,0:0:0:0:
448,192,28514,1,2,0:0:0:0:
64,192,28736,1,8,0:0:0:0:
192,192,28736,1,0,0:0:0:0:
448,192,28847,1,2,0:0:0:0:
320,192,29069,1,0,0:0:0:0:
192,192,29069,1,8,0:0:0:0:
192,192,29514,1,0,0:0:0:0:
64,192,29514,1,2,0:0:0:0:
448,192,29958,1,8,0:0:0:0:
64,192,29958,1,0,0:0:0:0:
192,192,30292,1,8,0:0:0:0:
64,192,30292,1,0,0:0:0:0:
192,192,30625,1,2,0:0:0:0:
448,192,30625,1,0,0:0:0:0:
320,192,30847,1,8,0:0:0:0:
64,192,30847,1,0,0:0:0:0:
448,192,31292,1,0,0:0:0:0:
320,192,31292,1,2,0:0:0:0:
448,192,31514,1,0,0:0:0:0:
320,192,31514,1,2,0:0:0:0:
192,192,31625,1,2,0:0:0:0:
64,192,31736,1,8,0:0:0:0:
448,192,32069,1,0,0:0:0:0:
320,192,32069,1,8,0:0:0:0:
64,192,32292,1,0,0:0:0:70:S.wav
192,192,32403,1,2,0:0:0:0:
320,192,32625,1,8,0:0:0:0:
448,192,32625,1,0,0:0:0:0:
64,192,32847,1,0,0:0:0:70:S.wav
192,192,32958,1,0,0:0:0:70:S.wav
448,192,33069,1,0,0:0:0:0:
320,192,33069,1,2,0:0:0:0:
448,192,33514,1,0,0:0:0:0:
64,192,33514,1,8,0:0:0:0:
448,192,33847,1,0,0:0:0:0:
320,192,33847,1,8,0:0:0:0:
64,192,34181,1,2,0:0:0:0:
320,192,34181,1,0,0:0:0:0:
448,192,34403,1,0,0:0:0:0:
192,192,34403,1,8,0:0:0:0:
192,192,34847,1,0,0:0:0:0:
64,192,34847,1,2,0:0:0:0:
192,192,35069,1,0,0:0:0:0:
64,192,35069,1,2,0:0:0:0:
448,192,35292,1,0,0:0:0:0:
320,192,35292,1,8,0:0:0:0:
448,192,35514,1,0,0:0:0:0:
320,192,35514,1,8,0:0:0:0:
64,192,35625,1,2,0:0:0:0:
448,192,35847,1,0,0:0:0:0:
320,192,35847,1,8,0:0:0:0:
64,192,35958,1,2,0:0:0:0:
192,192,36181,1,8,0:0:0:0:
320,192,36181,1,0,0:0:0:0:
320,192,36625,1,2,0:0:0:0:
448,192,36625,1,0,0:0:0:0:
64,192,37069,1,8,0:0:0:0:
448,192,37069,1,0,0:0:0:0:
320,192,37403,1,8,0:0:0:0:
448,192,37403,1,0,0:0:0:0:
320,192,37736,1,0,0:0:0:0:
64,192,37736,1,2,0:0:0:0:
192,192,37958,1,8,0:0:0:0:
448,192,37958,1,0,0:0:0:0:
64,192,38403,1,2,0:0:0:0:
192,192,38403,1,0,0:0:0:0:
64,192,38625,1,2,0:0:0:0:
192,192,38625,1,0,0:0:0:0:
320,192,38736,1,2,0:0:0:0:
448,192,38847,1,8,0:0:0:0:
64,192,39181,1,8,0:0:0:0:
192,192,39181,1,0,0:0:0:0:
448,192,39403,1,0,0:0:0:70:S.wav
320,192,39514,1,2,0:0:0:0:
192,192,39736,1,0,0:0:0:0:
64,192,39736,1,8,0:0:0:0:
448,192,39958,1,0,0:0:0:70:S.wav
320,192,40069,1,0,0:0:0:70:S.wav
192,192,40181,1,0,0:0:0:0:
64,192,40181,1,2,0:0:0:0:
448,192,40625,1,0,0:0:0:0:
64,192,40625,1,8,0:0:0:0:
192,192,40958,1,0,0:0:0:0:
64,192,40958,1,8,0:0:0:0:
192,192,41292,1,2,0:0:0:0:
448,192,41292,1,0,0:0:0:0:
320,192,41514,1,8,0:0:0:0:
64,192,41514,1,0,0:0:0:0:
448,192,41958,1,0,0:0:0:0:
320,192,41958,1,2,0:0:0:0:
448,192,42181,1,0,0:0:0:0:
320,192,42181,1,2,0:0:0:0:
192,192,42403,1,0,0:0:0:0:
64,192,42403,1,8,0:0:0:0:
192,192,42625,1,0,0:0:0:0:
64,192,42625,1,8,0:0:0:0:
448,192,42736,1,2,0:0:0:0:
192,192,42958,1,8,0:0:0:0:
64,192,42958,1,0,0:0:0:0:
448,192,43069,1,2,0:0:0:0:
192,192,43292,1,8,0:0:0:0:
320,192,43292,1,0,0:0:0:0:
64,192,43736,1,2,0:0:0:0:
192,192,43736,1,0,0:0:0:0:
64,192,44181,1,8,0:0:0:0:
448,192,44181,1,0,0:0:0:0:
64,192,44514,1,0,0:0:0:0:
192,192,44514,1,8,0:0:0:0:
448,192,44847,1,0,0:0:0:0:
192,192,44847,1,2,0:0:0:0:
64,192,45069,1,0,0:0:0:0:
320,192,45069,1,8,0:0:0:0:
448,192,45514,1,8,0:0:0:0:
320,192,45514,128,2,45847:0:0:0:0:
64,192,45847,1,8,0:0:0:0:
192,192,45847,128,0,46181:0:0:0:0:
320,192,46181,1,0,0:0:0:0:
64,192,46403,1,10,0:0:0:0:
192,192,46514,1,0,0:0:0:70:Tom1.wav
448,192,46625,1,0,0:0:0:70:Tom2.wav
320,192,46736,1,0,0:0:0:70:Tom3.wav
64,192,46847,128,8,47069:0:0:0:0:
192,192,46847,1,4,0:0:0:0:
320,192,47069,1,0,0:0:0:70:S.wav
192,192,47181,1,0,0:0:0:70:S.wav
64,192,47292,1,2,0:0:0:0:
448,192,47292,128,4,47625:0:0:0:0:
320,192,47625,128,0,47958:0:0:0:0:
192,192,47958,128,0,48625:0:0:0:0:
320,192,49069,128,0,49403:0:0:0:0:
192,192,49403,128,0,49736:0:0:0:0:
64,192,49736,128,0,50403:0:0:0:0:
448,192,50847,128,0,51181:0:0:0:0:
320,192,51181,128,0,51514:0:0:0:0:
64,192,51514,128,0,52181:0:0:0:0:
320,192,52625,128,0,52958:0:0:0:0:
192,192,52958,128,0,53292:0:0:0:0:
64,192,53292,128,0,53736:0:0:0:0:
448,192,53736,128,0,54181:0:0:0:0:
192,192,54181,1,0,0:0:0:0:
448,192,54403,128,8,54736:0:0:0:0:
320,192,54403,128,2,54736:0:0:0:0:
320,192,54847,128,2,55181:0:0:0:0:
448,192,54847,128,8,55181:0:0:0:0:
64,192,55292,128,2,55625:0:0:0:0:
192,192,55292,128,8,55625:0:0:0:0:
192,192,55736,128,8,56069:0:0:0:0:
64,192,55736,128,2,56069:0:0:0:0:
448,192,56181,128,8,56514:0:0:0:0:
192,192,56181,128,2,56514:0:0:0:0:
192,192,56625,128,2,56958:0:0:0:0:
448,192,56625,128,8,56958:0:0:0:0:
320,192,57069,128,8,57403:0:0:0:0:
64,192,57069,128,2,57403:0:0:0:0:
64,192,57514,128,2,57847:0:0:0:0:
320,192,57514,128,8,57847:0:0:0:0:
320,192,57958,1,2,0:0:0:0:
448,192,57958,1,8,0:0:0:0:
448,192,58181,1,8,0:0:0:0:
192,192,58181,1,2,0:0:0:0:
64,192,58403,1,2,0:0:0:0:
192,192,58403,1,8,0:0:0:0:
64,192,58625,1,2,0:0:0:0:
320,192,58625,1,8,0:0:0:0:
320,192,58847,1,2,0:0:0:0:
448,192,58847,1,8,0:0:0:0:
192,192,59069,1,2,0:0:0:0:
448,192,59069,1,8,0:0:0:0:
192,192,59292,1,8,0:0:0:0:
64,192,59292,1,2,0:0:0:0:
64,192,59514,1,2,0:0:0:0:
320,192,59514,1,8,0:0:0:0:
448,192,59736,1,0,0:0:0:0:
192,192,59884,1,0,0:0:0:0:
64,192,59958,1,0,0:0:0:0:
320,192,60069,1,0,0:0:0:0:
448,192,60181,128,0,61069:0:0:0:0:
64,192,61069,1,0,0:0:0:0:
320,192,61514,1,2,0:0:0:0:
448,192,61514,1,4,0:0:0:0:
448,192,61847,1,2,0:0:0:0:
192,192,61958,1,0,0:0:0:0:
64,192,61958,1,8,0:0:0:0:
64,192,62292,1,2,0:0:0:0:
320,192,62292,1,0,0:0:0:0:
320,192,62514,1,8,0:0:0:0:
448,192,62514,1,0,0:0:0:0:
192,192,62625,1,2,0:0:0:0:
64,192,62847,1,8,0:0:0:0:
448,192,62847,1,0,0:0:0:0:
320,192,62958,1,2,0:0:0:0:
64,192,63181,1,8,0:0:0:0:
448,192,63292,1,4,0:0:0:0:
320,192,63292,1,2,0:0:0:0:
320,192,63625,1,2,0:0:0:0:
64,192,63736,1,8,0:0:0:0:
192,192,63736,1,0,0:0:0:0:
64,192,64069,1,2,0:0:0:0:
448,192,64069,1,0,0:0:0:0:
320,192,64292,1,8,0:0:0:0:
448,192,64292,1,0,0:0:0:0:
64,192,64403,1,2,0:0:0:0:
320,192,64625,1,8,0:0:0:0:
192,192,64625,1,0,0:0:0:0:
448,192,64736,1,2,0:0:0:0:
320,192,64958,1,8,0:0:0:0:
64,192,65069,1,2,0:0:0:0:
192,192,65069,1,4,0:0:0:0:
192,192,65403,1,2,0:0:0:0:
320,192,65514,1,8,0:0:0:0:
448,192,65514,1,0,0:0:0:0:
192,192,65847,1,0,0:0:0:0:
64,192,65847,1,2,0:0:0:0:
448,192,66069,1,8,0:0:0:0:
64,192,66069,1,0,0:0:0:0:
320,192,66181,1,2,0:0:0:0:
192,192,66403,1,8,0:0:0:0:
448,192,66403,1,0,0:0:0:0:
64,192,66514,1,2,0:0:0:0:
320,192,66736,1,8,0:0:0:0:
64,192,66847,1,2,0:0:0:0:
192,192,66847,128,4,67181:0:0:0:0:
448,192,67181,1,2,0:0:0:0:
320,192,67292,128,0,67625:0:0:0:0:
64,192,67292,1,8,0:0:0:0:
192,192,67625,1,2,0:0:0:0:
64,192,67736,128,0,68069:0:0:0:0:
320,192,67847,1,8,0:0:0:0:
448,192,68069,128,0,68403:0:0:0:0:
192,192,68181,1,8,0:0:0:0:
64,192,68403,1,8,0:0:0:0:
192,192,68514,1,8,0:0:0:0:
320,192,68625,1,2,0:0:0:0:
448,192,68625,1,4,0:0:0:0:
320,192,68958,1,2,0:0:0:0:
64,192,69069,1,8,0:0:0:0:
192,192,69069,1,0,0:0:0:0:
64,192,69403,1,0,0:0:0:0:
448,192,69403,1,2,0:0:0:0:
320,192,69625,1,8,0:0:0:0:
448,192,69625,1,0,0:0:0:0:
192,192,69736,1,2,0:0:0:0:
64,192,69958,1,8,0:0:0:0:
320,192,69958,1,0,0:0:0:0:
192,192,70069,1,2,0:0:0:0:
448,192,70292,1,8,0:0:0:0:
192,192,70403,1,4,0:0:0:0:
64,192,70403,1,2,0:0:0:0:
64,192,70736,1,2,0:0:0:0:
320,192,70847,1,8,0:0:0:0:
448,192,70847,1,0,0:0:0:0:
192,192,71181,1,2,0:0:0:0:
320,192,71181,1,0,0:0:0:0:
448,192,71403,1,0,0:0:0:0:
192,192,71403,1,8,0:0:0:0:
64,192,71514,1,2,0:0:0:0:
320,192,71736,1,8,0:0:0:0:
448,192,71736,1,0,0:0:0:0:
64,192,71958,1,0,0:0:0:0:
320,192,71958,1,2,0:0:0:0:
64,192,72181,1,8,0:0:0:0:
192,192,72181,128,4,72514:0:0:0:0:
448,192,72514,128,0,72847:0:0:0:70:Tom1.wav
320,192,72847,128,4,73181:0:0:0:0:
64,192,72847,1,8,0:0:0:0:
64,192,73181,128,0,73514:0:0:0:70:Tom1.wav
192,192,73514,128,8,73736:0:0:0:0:
448,192,73514,1,0,0:0:0:70:Tom2.wav
320,192,73736,128,0,73958:0:0:0:70:Tom3.wav
64,192,73958,128,2,74292:0:0:0:0:
448,192,73958,1,4,0:0:0:0:
192,192,74292,128,8,74625:0:0:0:0:
320,192,74292,1,0,0:0:0:0:
448,192,74625,128,8,74958:0:0:0:0:
64,192,74625,1,0,0:0:0:0:
320,192,74958,128,8,75292:0:0:0:0:
192,192,74958,1,0,0:0:0:0:
64,192,75292,128,8,75514:0:0:0:0:
192,192,75292,1,2,0:0:0:0:
448,192,75514,128,0,75736:0:0:0:0:
320,192,75514,1,8,0:0:0:0:
64,192,75736,1,2,0:0:0:0:
192,192,75736,1,4,0:0:0:0:
192,192,76069,1,2,0:0:0:0:
320,192,76181,1,8,0:0:0:0:
448,192,76181,1,0,0:0:0:0:
64,192,76514,1,2,0:0:0:0:
448,192,76514,1,0,0:0:0:0:
64,192,76736,1,0,0:0:0:0:
320,192,76736,1,8,0:0:0:0:
192,192,76847,1,2,0:0:0:0:
320,192,77069,1,8,0:0:0:0:
448,192,77069,1,0,0:0:0:0:
64,192,77181,1,2,0:0:0:0:
192,192,77403,1,8,0:0:0:0:
320,192,77514,1,2,0:0:0:0:
448,192,77514,1,4,0:0:0:0:
448,192,77847,1,2,0:0:0:0:
64,192,77958,1,8,0:0:0:0:
192,192,77958,1,0,0:0:0:0:
320,192,78292,1,0,0:0:0:0:
64,192,78292,1,2,0:0:0:0:
192,192,78514,1,8,0:0:0:0:
320,192,78514,1,0,0:0:0:0:
448,192,78625,1,2,0:0:0:0:
64,192,78847,1,8,0:0:0:0:
192,192,78847,1,0,0:0:0:0:
320,192,78958,1,2,0:0:0:0:
448,192,79181,1,8,0:0:0:0:
192,192,79292,1,4,0:0:0:0:
64,192,79292,1,2,0:0:0:0:
192,192,79625,1,2,0:0:0:0:
320,192,79736,1,8,0:0:0:0:
448,192,79736,1,0,0:0:0:0:
64,192,80069,1,2,0:0:0:0:
448,192,80069,1,0,0:0:0:0:
192,192,80292,1,8,0:0:0:0:
64,192,80292,1,0,0:0:0:0:
320,192,80403,1,2,0:0:0:0:
448,192,80625,1,0,0:0:0:0:
192,192,80625,1,8,0:0:0:0:
64,192,80736,1,2,0:0:0:0:
320,192,80958,1,8,0:0:0:0:
64,192,81069,1,2,0:0:0:0:
192,192,81069,1,4,0:0:0:0:
64,192,81403,1,2,0:0:0:0:
320,192,81514,1,8,0:0:0:0:
448,192,81514,1,0,0:0:0:0:
192,192,81847,1,2,0:0:0:0:
448,192,81847,1,0,0:0:0:0:
320,192,82069,1,0,0:0:0:0:
192,192,82069,1,8,0:0:0:0:
64,192,82181,1,2,0:0:0:0:
192,192,82403,1,8,0:0:0:0:
448,192,82403,1,0,0:0:0:0:
320,192,82625,1,8,0:0:0:0:
192,192,82736,1,8,0:0:0:0:
64,192,82847,1,2,0:0:0:0:
448,192,82847,1,4,0:0:0:0:
192,192,83181,1,2,0:0:0:0:
320,192,83292,1,8,0:0:0:0:
448,192,83292,1,0,0:0:0:0:
64,192,83514,1,8,0:0:0:0:
320,192,83625,1,8,0:0:0:0:
192,192,83736,1,10,0:0:0:0:
448,192,83847,1,8,0:0:0:0:
192,192,83958,1,8,0:0:0:0:
64,192,83958,128,0,84181:0:0:0:0:
448,192,84181,1,8,0:0:0:0:
320,192,84181,128,2,84403:0:0:0:0:
192,192,84403,128,0,84625:0:0:0:0:
64,192,84403,1,8,0:0:0:0:
448,192,84625,1,8,0:0:0:0:
64,192,84736,128,2,86181:0:0:0:0:
320,192,86403,128,2,86736:0:0:0:0:
448,192,86403,1,4,0:0:0:0:
192,192,86736,128,0,87069:0:0:0:0:
64,192,86736,1,0,0:0:0:70:Tom1.wav
448,192,87069,128,4,87403:0:0:0:0:
320,192,87069,1,8,0:0:0:0:
64,192,87403,128,0,87736:0:0:0:0:
192,192,87403,1,0,0:0:0:70:Tom1.wav
320,192,87736,1,2,0:0:0:0:
448,192,87736,1,8,0:0:0:0:
320,192,87958,128,2,88181:0:0:0:0:
448,192,87958,128,4,88181:0:0:0:0:
