osu file format v14

[General]
AudioFilename: audio.mp3
AudioLeadIn: 0
PreviewTime: 59747
Countdown: 0
SampleSet: Normal
StackLeniency: 0.7
Mode: 1
LetterboxInBreaks: 0
WidescreenStoryboard: 1

[Editor]
DistanceSpacing: 1.1
BeatDivisor: 4
GridSize: 32
TimelineZoom: 1.2

[Metadata]
Title:Gurenge (TV Size)
TitleUnicode:紅蓮華 (TV Size)
Artist:LiSA
ArtistUnicode:LiSA
Creator:Consified
Version:Muzukashii
Source:鬼滅の刃
Tags:kimetsu no yaiba blade of demon opening op japanese anime female vocalist destruction demon slayer
BeatmapID:2217012
BeatmapSetID:1058152

[Difficulty]
HPDrainRate:6
CircleSize:5
OverallDifficulty:5
ApproachRate:5
SliderMultiplier:1.4
SliderTickRate:1

[Events]
//Background and Video events
0,0,"tanjiro-kamado-from-kimetsu-no-yaiba_1920x1080_xtrafondos.com.jpg",0,80
//Break Periods
//Storyboard Layer 0 (Background)
//Storyboard Layer 1 (Fail)
//Storyboard Layer 2 (Pass)
//Storyboard Layer 3 (Foreground)
//Storyboard Layer 4 (Overlay)
//Storyboard Sound Samples

[TimingPoints]
1081,444.444444444444,4,1,0,100,1,0
1081,-125,4,1,0,60,0,0
11636,-100,4,1,0,90,0,0
18747,-100,4,1,0,75,0,0
45414,-100,4,1,0,80,0,0
47192,-100,4,1,0,85,0,0
47525,-111.111111111111,4,1,0,65,0,0
54303,-105.263157894737,4,1,0,70,0,0
56080,-105.263157894737,4,1,0,75,0,0
57858,-105.263157894737,4,1,0,80,0,0
61525,-90.9090909090909,4,1,0,100,0,1
84636,-90.9090909090909,4,1,0,100,0,0
86414,-90.9090909090909,4,1,0,100,0,1
88192,-90.9090909090909,4,1,0,100,0,0

[HitObjects]
255,194,1081,5,0,0:0:0:0:
255,194,2858,1,2,0:0:0:0:
255,194,4636,1,0,0:0:0:0:
255,194,6414,1,2,0:0:0:0:
255,194,8192,1,0,0:0:0:0:
255,194,9969,1,0,0:0:0:0:
255,194,11747,1,6,0:0:0:0:
255,194,12080,1,0,0:0:0:0:
255,194,12414,1,2,0:0:0:0:
247,192,12747,1,0,0:0:0:0:
247,192,13080,1,2,0:0:0:0:
247,192,13303,1,0,0:0:0:0:
247,192,13525,1,2,0:0:0:0:
255,185,13858,1,0,0:0:0:0:
255,185,14192,1,2,0:0:0:0:
255,185,14525,1,0,0:0:0:0:
255,185,14858,1,2,0:0:0:0:
255,185,15303,1,2,0:0:0:0:
244,187,15636,1,0,0:0:0:0:
244,187,15969,1,2,0:0:0:0:
244,187,16303,1,0,0:0:0:0:
244,187,16636,1,2,0:0:0:0:
271,190,16858,1,0,0:0:0:0:
244,187,17080,1,2,0:0:0:0:
244,187,17414,1,0,0:0:0:0:
254,187,17747,1,2,0:0:0:0:
254,187,18080,1,0,0:0:0:0:
254,187,18414,1,2,0:0:0:0:
254,187,18525,1,2,0:0:0:0:
254,187,18636,1,2,0:0:0:0:
254,187,18858,1,0,0:0:0:0:
249,162,19303,1,2,0:0:0:0:
249,162,19525,1,0,0:0:0:0:
251,186,19969,1,0,0:0:0:0:
251,186,20192,1,2,0:0:0:0:
254,187,20636,1,0,0:0:0:0:
261,187,21080,1,2,0:0:0:0:
261,187,21525,1,2,0:0:0:0:
261,187,21747,1,0,0:0:0:0:
261,187,21969,1,2,0:0:0:0:
261,187,22080,1,2,0:0:0:0:
261,187,22192,1,2,0:0:0:0:
261,187,22414,1,0,0:0:0:0:
261,187,22858,1,2,0:0:0:0:
261,187,23080,1,0,0:0:0:0:
280,192,23525,1,0,0:0:0:0:
280,192,23747,1,2,0:0:0:0:
280,192,24192,1,0,0:0:0:0:
280,192,24414,1,0,0:0:0:0:
280,192,24636,1,2,0:0:0:0:
280,192,24858,1,0,0:0:0:0:
278,196,24969,1,0,0:0:0:0:
276,195,25080,1,0,0:0:0:0:
276,195,25303,1,0,0:0:0:0:
276,195,25525,1,2,0:0:0:0:
278,196,25969,1,0,0:0:0:0:
276,195,26414,1,2,0:0:0:0:
276,195,26636,1,0,0:0:0:0:
276,195,27080,1,0,0:0:0:0:
276,195,27303,1,2,0:0:0:0:
278,196,27747,1,0,0:0:0:0:
276,195,28192,1,2,0:0:0:0:
276,195,28525,1,2,0:0:0:0:
278,196,28636,1,2,0:0:0:0:
276,195,28858,1,0,0:0:0:0:
276,195,28969,1,0,0:0:0:0:
276,195,29080,1,0,0:0:0:0:
276,195,29303,1,2,0:0:0:0:
276,195,29525,1,0,0:0:0:0:
297,204,29969,1,2,0:0:0:0:
297,204,30192,1,0,0:0:0:0:
297,204,30636,1,0,0:0:0:0:
297,204,30858,1,2,0:0:0:0:
297,204,31303,1,0,0:0:0:0:
297,204,31636,1,0,0:0:0:0:
297,204,31969,1,2,0:0:0:0:
297,204,32192,1,2,0:0:0:0:
284,191,32636,1,0,0:0:0:0:
284,191,32858,1,2,0:0:0:0:
284,191,33080,1,0,0:0:0:0:
284,191,33414,1,2,0:0:0:0:
284,191,33747,1,2,0:0:0:0:
284,191,34080,1,0,0:0:0:0:
284,191,34414,1,2,0:0:0:0:
284,191,34858,1,0,0:0:0:0:
284,191,35080,1,2,0:0:0:0:
284,191,35192,1,2,0:0:0:0:
284,191,35303,1,2,0:0:0:0:
284,191,35525,1,0,0:0:0:0:
284,191,35747,1,2,0:0:0:0:
284,191,36192,1,2,0:0:0:0:
284,191,36414,1,2,0:0:0:0:
284,191,36636,1,0,0:0:0:0:
284,191,36969,1,2,0:0:0:0:
284,191,37303,1,2,0:0:0:0:
284,191,37747,1,0,0:0:0:0:
284,191,37969,1,2,0:0:0:0:
284,191,38414,1,0,0:0:0:0:
284,191,38636,1,2,0:0:0:0:
284,191,38747,1,2,0:0:0:0:
284,191,38858,1,2,0:0:0:0:
284,191,39080,1,2,0:0:0:0:
284,191,39303,1,2,0:0:0:0:
284,191,39747,1,2,0:0:0:0:
283,200,39969,1,0,0:0:0:0:
283,200,40192,1,0,0:0:0:0:
283,200,40525,1,0,0:0:0:0:
283,200,40858,1,0,0:0:0:0:
283,200,41303,1,0,0:0:0:0:
283,200,41525,1,2,0:0:0:0:
277,201,41747,1,0,0:0:0:0:
277,201,42414,1,2,0:0:0:0:
277,201,42636,1,2,0:0:0:0:
277,201,42747,1,2,0:0:0:0:
277,201,42858,1,2,0:0:0:0:
277,201,43080,1,0,0:0:0:0:
277,201,43303,1,2,0:0:0:0:
277,201,43525,1,0,0:0:0:0:
277,201,43636,1,0,0:0:0:0:
277,201,43747,1,0,0:0:0:0:
277,201,44192,1,0,0:0:0:0:
277,201,44414,1,2,0:0:0:0:
277,201,44858,1,0,0:0:0:0:
273,206,45080,1,2,0:0:0:0:
273,206,45525,1,0,0:0:0:0:
288,205,45858,1,0,0:0:0:0:
288,205,46192,1,2,0:0:0:0:
288,205,46414,1,2,0:0:0:0:
288,205,46858,1,0,0:0:0:0:
288,205,47303,1,4,0:0:0:0:
290,210,47636,1,0,0:0:0:0:
290,210,47969,1,0,0:0:0:0:
290,210,48192,1,2,0:0:0:0:
246,198,49080,1,2,0:0:0:0:
246,198,49414,1,0,0:0:0:0:
246,198,49747,1,0,0:0:0:0:
246,198,49969,1,2,0:0:0:0:
246,198,50636,1,2,0:0:0:0:
246,198,50858,1,0,0:0:0:0:
246,198,51192,1,0,0:0:0:0:
246,198,51525,1,0,0:0:0:0:
246,198,51747,1,2,0:0:0:0:
246,198,52636,1,0,0:0:0:0:
246,198,52969,1,0,0:0:0:0:
246,198,53303,1,0,0:0:0:0:
246,198,53525,1,2,0:0:0:0:
246,198,54414,1,0,0:0:0:0:
246,198,54858,1,0,0:0:0:0:
246,198,55303,1,0,0:0:0:0:
246,198,55747,1,0,0:0:0:0:
246,198,56192,1,2,0:0:0:0:
246,198,56636,1,2,0:0:0:0:
246,198,57080,1,2,0:0:0:0:
246,198,57525,1,2,0:0:0:0:
249,210,57969,1,0,0:0:0:0:
249,210,58192,1,0,0:0:0:0:
249,210,58414,1,0,0:0:0:0:
249,210,58636,1,0,0:0:0:0:
249,210,58858,1,0,0:0:0:0:
249,210,58969,1,0,0:0:0:0:
249,210,59080,1,0,0:0:0:0:
249,210,59303,1,2,0:0:0:0:
249,210,59414,1,2,0:0:0:0:
249,210,59525,1,2,0:0:0:0:
249,210,59747,1,0,0:0:0:0:
249,210,60192,1,0,0:0:0:0:
249,210,60636,1,2,0:0:0:0:
249,210,61080,1,2,0:0:0:0:
252,201,61525,1,4,0:0:0:0:
252,201,61747,1,0,0:0:0:0:
252,201,61969,1,2,0:0:0:0:
252,201,62192,1,0,0:0:0:0:
252,201,62414,1,2,0:0:0:0:
252,201,62636,1,2,0:0:0:0:
252,201,62747,1,2,0:0:0:0:
252,201,63080,1,2,0:0:0:0:
252,201,63303,1,0,0:0:0:0:
252,201,63525,1,0,0:0:0:0:
252,201,63747,1,2,0:0:0:0:
252,201,63969,1,0,0:0:0:0:
252,201,64192,1,0,0:0:0:0:
252,201,64414,1,2,0:0:0:0:
271,207,64525,1,2,0:0:0:0:
271,207,64858,1,2,0:0:0:0:
271,207,65080,1,0,0:0:0:0:
271,207,65303,1,2,0:0:0:0:
262,203,65414,1,2,0:0:0:0:
271,207,65747,1,0,0:0:0:0:
271,207,65969,1,0,0:0:0:0:
271,207,66192,1,2,0:0:0:0:
271,207,66414,1,2,0:0:0:0:
271,207,66636,1,0,0:0:0:0:
271,207,66858,1,2,0:0:0:0:
264,221,67303,1,0,0:0:0:0:
280,213,67747,1,2,0:0:0:0:
271,207,68414,1,2,0:0:0:0:
271,207,68636,1,0,0:0:0:0:
268,201,69080,1,0,0:0:0:0:
271,207,69303,1,0,0:0:0:0:
271,207,69414,1,0,0:0:0:0:
271,207,69525,1,0,0:0:0:0:
271,207,69747,1,0,0:0:0:0:
271,207,69969,1,2,0:0:0:0:
271,207,70192,1,2,0:0:0:0:
271,207,70414,1,0,0:0:0:0:
271,207,70858,1,2,0:0:0:0:
271,207,71080,1,2,0:0:0:0:
271,207,71192,1,2,0:0:0:0:
271,207,71303,1,2,0:0:0:0:
271,207,71525,1,2,0:0:0:0:
271,207,71747,1,0,0:0:0:0:
272,217,71969,1,0,0:0:0:0:
272,217,72192,1,6,0:0:0:0:
263,227,72858,1,6,0:0:0:0:
272,217,73192,1,0,0:0:0:0:
272,217,73525,1,6,0:0:0:0:
272,217,73969,1,6,0:0:0:0:
262,201,74414,1,2,0:0:0:0:
244,204,74636,1,2,0:0:0:0:
262,201,74858,1,0,0:0:0:0:
262,201,74969,1,0,0:0:0:0:
262,201,75080,1,0,0:0:0:0:
262,201,75303,1,2,0:0:0:0:
262,201,75747,1,4,0:0:0:0:
252,201,75969,1,0,0:0:0:0:
252,201,76191,1,2,0:0:0:0:
252,201,76414,1,0,0:0:0:0:
252,201,76636,1,0,0:0:0:0:
252,201,76858,1,2,0:0:0:0:
252,201,76969,1,2,0:0:0:0:
252,201,77303,1,2,0:0:0:0:
252,201,77525,1,0,0:0:0:0:
252,201,77747,1,0,0:0:0:0:
252,201,77969,1,2,0:0:0:0:
252,201,78191,1,0,0:0:0:0:
252,201,78414,1,0,0:0:0:0:
252,201,78636,1,2,0:0:0:0:
271,207,78747,1,2,0:0:0:0:
271,207,79080,1,2,0:0:0:0:
271,207,79302,1,0,0:0:0:0:
271,207,79747,1,2,0:0:0:0:
271,207,79969,1,2,0:0:0:0:
271,207,80192,1,0,0:0:0:0:
271,207,80414,1,2,0:0:0:0:
271,207,80525,1,2,0:0:0:0:
271,207,80636,1,2,0:0:0:0:
271,207,80858,1,0,0:0:0:0:
271,207,81525,1,2,0:0:0:0:
271,207,81747,1,0,0:0:0:0:
271,207,81969,1,2,0:0:0:0:
271,207,82302,1,2,0:0:0:0:
271,207,82636,1,2,0:0:0:0:
271,207,82858,1,0,0:0:0:0:
271,207,83302,1,2,0:0:0:0:
271,207,83525,1,2,0:0:0:0:
271,207,83636,1,2,0:0:0:0:
271,207,83747,1,2,0:0:0:0:
271,207,83969,1,0,0:0:0:0:
271,207,84080,1,0,0:0:0:0:
271,207,84191,1,0,0:0:0:0:
271,207,84414,1,0,0:0:0:0:
271,207,84636,1,2,0:0:0:0:
262,193,86414,1,6,0:0:0:0:
262,193,86747,1,0,0:0:0:0:
262,193,87080,1,6,0:0:0:0:
262,193,87414,1,0,0:0:0:0:
262,193,87747,1,2,0:0:0:0:
262,193,87969,1,6,0:0:0:0:
