osu file format v14

[General]
AudioFilename: audio.mp3
AudioLeadIn: 0
PreviewTime: 59669
Countdown: 0
SampleSet: Normal
StackLeniency: 0.7
Mode: 1
LetterboxInBreaks: 0
WidescreenStoryboard: 1

[Editor]
Bookmarks: 11725,18836
DistanceSpacing: 1.1
BeatDivisor: 12
GridSize: 32
TimelineZoom: 1.500001

[Metadata]
Title:Gurenge (TV Size)
TitleUnicode:紅蓮華 (TV Size)
Artist:LiSA
ArtistUnicode:LiSA
Creator:BlackBN
Version:Oni
Source:鬼滅の刃
Tags:BlackBq kimetsu no yaiba blade of demon destruction slayer kny opening op japanese anime rock j-rock jrock pop j-pop jpop sacra music leo-nine 草野華余子 カヨコ kusano kayoko 江口亮 eguchi ryō ryo ryou 竈門炭治郎 Kamado Tanjirō Tanjiro Tanjirou 花江夏樹 Hanae Natsuki 竈門禰豆子 Nezuko 鬼頭明里 Kitō Kito Kitou Akari
BeatmapID:4493423
BeatmapSetID:2135245

[Difficulty]
HPDrainRate:5.5
CircleSize:2
OverallDifficulty:5
ApproachRate:10
SliderMultiplier:1.4
SliderTickRate:1

[Events]
//Background and Video events
0,0,"gurenge.jpg",0,55
Video,-227,"gunenge.mp4"
//Break Periods
//Storyboard Layer 0 (Background)
//Storyboard Layer 1 (Fail)
//Storyboard Layer 2 (Pass)
//Storyboard Layer 3 (Foreground)
//Storyboard Layer 4 (Overlay)
//Storyboard Sound Samples

[TimingPoints]
1073,444.444444444444,4,1,0,70,1,0
1073,-111.111111111111,4,1,0,70,0,0
11684,-90.9090909090909,4,1,0,85,0,0
18906,-100,4,1,0,75,0,0
45512,-100,4,1,0,75,0,0
45734,-101.26438,4,1,0,75,0,0
45845,-101.90863,4,1,0,75,0,0
45956,-102.56114,4,1,0,75,0,0
46067,-103.22206,4,1,0,75,0,0
46290,-104.57593,4,1,0,75,0,0
46401,-105.26316,4,1,0,75,0,0
46512,-105.95948,4,1,0,75,0,0
46623,-106.66507,4,1,0,75,0,0
46734,-107.38012,4,1,0,75,0,0
46845,-108.10482,4,1,0,75,0,0
47067,-109.58398,4,1,0,75,0,0
47179,-110.34568,4,1,0,75,0,0
47239,-100,4,1,0,70,0,0
47290,-111.111115,4,1,0,70,0,0
54350,-100,4,1,0,75,0,0
54401,-111.111115,4,1,0,75,0,0
54845,-109.092766,4,1,0,75,0,0
55290,-107.142136,4,1,0,75,0,0
55512,-106.19486,4,1,0,75,0,0
55734,-105.2642,4,1,0,75,0,0
55956,-104.3497,4,1,0,75,0,0
56179,-103.44693,4,1,0,75,0,0
56623,-101.695244,4,1,0,75,0,0
57067,-100.00188,4,1,0,75,0,0
57290,-99.17248,4,1,0,75,0,0
57512,-98.360344,4,1,0,75,0,0
57734,-97.54358,4,1,0,75,0,0
57906,-100,4,1,0,80,0,0
57956,-96.77537,4,1,0,80,0,0
58179,-95.99842,4,1,0,80,0,0
58290,-95.61631,4,1,0,80,0,0
58401,-95.23724,4,1,0,80,0,0
58512,-94.861176,4,1,0,80,0,0
58623,-94.488045,4,1,0,80,0,0
58734,-94.11786,4,1,0,80,0,0
58845,-93.75055,4,1,0,80,0,0
58956,-93.3861,4,1,0,80,0,0
59067,-93.02447,4,1,0,80,0,0
59179,-92.662415,4,1,0,80,0,0
59290,-92.30636,4,1,0,80,0,0
59401,-91.953026,4,1,0,80,0,0
59512,-91.6024,4,1,0,80,0,0
59623,-91.254425,4,1,0,80,0,0
59734,-90.90909,4,1,0,80,0,0
60128,-111.111111111111,4,1,0,70,0,0
61461,-100,4,1,0,85,0,0
61517,-86.9565217391304,4,1,0,85,0,1
72128,-100,4,1,0,80,0,1
72184,-86.95652,4,1,0,80,0,0
72401,-88.396965,4,1,0,80,0,0
72512,-89.13524,4,1,0,80,0,0
72734,-90.6494,4,1,0,80,0,0
72845,-91.425934,4,1,0,80,0,0
73067,-93.01961,4,1,0,80,0,0
73179,-93.8449,4,1,0,80,0,0
73290,-94.67739,4,1,0,80,0,0
73511,-96.37966,4,1,0,80,0,0
73623,-97.26593,4,1,0,80,0,0
73734,-98.16052,4,1,0,80,0,0
73845,-99.071724,4,1,0,80,0,0
73956,-99.95795,4,1,0,80,0,0
74179,-98.11797,4,1,0,80,0,0
74290,-97.22714,4,1,0,80,0,0
74401,-96.35234,4,1,0,80,0,0
74512,-95.493126,4,1,0,80,0,0
74623,-94.64912,4,1,0,80,0,0
74734,-93.81989,4,1,0,80,0,0
74845,-93.00506,4,1,0,80,0,0
74956,-92.20427,4,1,0,80,0,0
75067,-91.417145,4,1,0,80,0,0
75179,-90.63644,4,1,0,80,0,0
75290,-89.87575,4,1,0,80,0,0
75401,-89.127716,4,1,0,80,0,0
75512,-88.392044,4,1,0,80,0,0
75623,-87.6684,4,1,0,80,0,0
75684,-100,4,1,0,85,0,0
75739,-86.95652,4,1,0,85,0,1
84628,-86.9565217391304,4,1,0,85,0,0
86401,-99.93573,4,1,0,85,0,0
86734,-95.83385,4,1,0,85,0,0
87067,-92.055405,4,1,0,85,0,0
87401,-88.553535,4,1,0,85,0,0
87734,-85.31769,4,1,0,85,0,0
87956,-83.3333333333333,4,1,0,85,0,0

[HitObjects]
256,192,1073,5,0,0:0:0:0:
256,192,1406,1,8,0:0:0:0:
256,192,1739,1,0,0:0:0:0:
256,192,2850,1,8,0:0:0:0:
256,192,3184,1,8,0:0:0:0:
256,192,3517,1,0,0:0:0:0:
256,192,4406,1,0,0:0:0:0:
256,192,4628,1,8,0:0:0:0:
256,192,4961,1,8,0:0:0:0:
256,192,5295,1,0,0:0:0:0:
256,192,6184,1,8,0:0:0:0:
256,192,6406,1,0,0:0:0:0:
256,192,6739,1,0,0:0:0:0:
256,192,7072,1,8,0:0:0:0:
256,192,7517,1,0,0:0:0:0:
256,192,7961,1,0,0:0:0:0:
256,192,8184,1,8,0:0:0:0:
256,192,8517,1,0,0:0:0:0:
256,192,8850,1,0,0:0:0:0:
256,192,9295,1,8,0:0:0:0:
256,192,9739,1,0,0:0:0:0:
256,192,9961,1,8,0:0:0:0:
256,192,11072,1,0,0:0:0:0:
256,192,11517,1,0,0:0:0:0:
384,96,11739,1,12,0:0:0:0:
256,192,12072,1,8,0:0:0:0:
256,192,12184,1,0,0:0:0:0:
256,192,12406,1,8,0:0:0:0:
256,192,12628,1,0,0:0:0:0:
256,192,12739,1,0,0:0:0:0:
256,192,12850,1,8,0:0:0:0:
256,192,13072,1,8,0:0:0:0:
256,192,13184,1,8,0:0:0:0:
256,192,13295,1,8,0:0:0:0:
256,192,13406,1,8,0:0:0:0:
256,192,13517,1,0,0:0:0:0:
256,192,13850,1,0,0:0:0:0:
256,192,13961,1,8,0:0:0:0:
256,192,14184,1,0,0:0:0:0:
256,192,14406,1,8,0:0:0:0:
256,192,14517,1,8,0:0:0:0:
256,192,14628,1,0,0:0:0:0:
256,192,14850,1,0,0:0:0:0:
256,192,14961,1,0,0:0:0:0:
256,192,15072,1,0,0:0:0:0:
256,192,15184,1,0,0:0:0:0:
256,192,15295,1,8,0:0:0:0:
256,192,15628,1,8,0:0:0:0:
256,192,15739,1,0,0:0:0:0:
256,192,15961,1,8,0:0:0:0:
256,192,16184,1,0,0:0:0:0:
256,192,16295,1,8,0:0:0:0:
256,192,16406,1,0,0:0:0:0:
256,192,16628,1,8,0:0:0:0:
256,192,16739,1,8,0:0:0:0:
256,192,16850,1,8,0:0:0:0:
256,192,16961,1,8,0:0:0:0:
256,192,17072,1,0,0:0:0:0:
256,192,17406,1,0,0:0:0:0:
256,192,17517,1,0,0:0:0:0:
256,192,17739,1,8,0:0:0:0:
256,192,17961,1,0,0:0:0:0:
256,192,18072,1,8,0:0:0:0:
256,192,18184,1,0,0:0:0:0:
256,192,18295,1,0,0:0:0:0:
256,192,18406,1,8,0:0:0:0:
256,192,18628,1,0,0:0:0:0:
384,96,18850,1,12,0:0:0:0:
256,192,19184,1,8,0:0:0:0:
256,192,19295,1,0,0:0:0:0:
256,192,19517,1,0,0:0:0:0:
256,192,19961,1,0,0:0:0:0:
256,192,20184,1,8,0:0:0:0:
256,192,20406,1,8,0:0:0:0:
256,192,20628,1,0,0:0:0:0:
256,192,20850,1,0,0:0:0:0:
256,192,21072,1,8,0:0:0:0:
256,192,21517,1,8,0:0:0:0:
256,192,21739,1,0,0:0:0:0:
256,192,21850,1,0,0:0:0:0:
256,192,21961,1,8,0:0:0:0:
256,192,22184,1,0,0:0:0:0:
256,192,22406,1,8,0:0:0:0:
256,192,22628,1,8,0:0:0:0:
256,192,22850,1,0,0:0:0:0:
256,192,23072,1,8,0:0:0:0:
256,192,23517,1,0,0:0:0:0:
256,192,23739,1,8,0:0:0:0:
256,192,24184,1,0,0:0:0:0:
256,192,24406,1,0,0:0:0:0:
256,192,24628,1,8,0:0:0:0:
256,192,24739,1,0,0:0:0:0:
256,192,24961,1,8,0:0:0:0:
256,192,25295,1,0,0:0:0:0:
256,192,25517,1,8,0:0:0:0:
256,192,25739,1,0,0:0:0:0:
256,192,25850,1,0,0:0:0:0:
256,192,25961,1,8,0:0:0:0:
256,192,26295,1,8,0:0:0:0:
256,192,26406,1,0,0:0:0:0:
256,192,26628,1,8,0:0:0:0:
256,192,27072,1,0,0:0:0:0:
256,192,27295,1,8,0:0:0:0:
256,192,27517,1,8,0:0:0:0:
256,192,27739,1,0,0:0:0:0:
256,192,27961,1,0,0:0:0:0:
256,192,28184,1,8,0:0:0:0:
256,192,28628,1,8,0:0:0:0:
256,192,28739,1,8,0:0:0:0:
256,192,28850,1,8,0:0:0:0:
256,192,29072,1,0,0:0:0:0:
256,192,29295,1,8,0:0:0:0:
256,192,29517,1,0,0:0:0:0:
256,192,29739,1,0,0:0:0:0:
256,192,29961,1,8,0:0:0:0:
256,192,30184,1,0,0:0:0:0:
256,192,30628,1,0,0:0:0:0:
256,192,30850,1,8,0:0:0:0:
256,192,31072,1,8,0:0:0:0:
256,192,31295,1,0,0:0:0:0:
256,192,31517,1,0,0:0:0:0:
256,192,31628,1,0,0:0:0:0:
256,192,31961,1,8,0:0:0:0:
256,192,32184,1,0,0:0:0:0:
256,192,32295,1,0,0:0:0:0:
256,192,32406,1,8,0:0:0:0:
256,192,32628,1,0,0:0:0:0:
256,192,32850,1,8,0:0:0:0:
256,192,32961,1,8,0:0:0:0:
256,192,33072,1,0,0:0:0:0:
256,192,33406,1,0,0:0:0:0:
256,192,33517,1,8,0:0:0:0:
256,192,33739,1,0,0:0:0:0:
256,192,34072,1,8,0:0:0:0:
256,192,34184,1,0,0:0:0:0:
256,192,34406,1,8,0:0:0:0:
256,192,34850,1,0,0:0:0:0:
256,192,35072,1,0,0:0:0:0:
256,192,35295,1,8,0:0:0:0:
256,192,35517,1,8,0:0:0:0:
256,192,35628,1,0,0:0:0:0:
256,192,35739,1,0,0:0:0:0:
256,192,35850,1,8,0:0:0:0:
256,192,36072,1,8,0:0:0:0:
256,192,36406,1,0,0:0:0:0:
256,192,36517,1,8,0:0:0:0:
256,192,36628,1,0,0:0:0:0:
256,192,36961,1,0,0:0:0:0:
256,192,37072,1,8,0:0:0:0:
256,192,37295,1,0,0:0:0:0:
256,192,37739,1,8,0:0:0:0:
256,192,37961,1,8,0:0:0:0:
256,192,38406,1,0,0:0:0:0:
256,192,38628,1,8,0:0:0:0:
256,192,38739,1,0,0:0:0:0:
256,192,38850,1,8,0:0:0:0:
256,192,39072,1,8,0:0:0:0:
256,192,39184,1,8,0:0:0:0:
256,192,39295,1,0,0:0:0:0:
256,192,39406,1,8,0:0:0:0:
256,192,39628,1,0,0:0:0:0:
256,192,39961,1,0,0:0:0:0:
256,192,40072,1,0,0:0:0:0:
256,192,40184,1,8,0:0:0:0:
256,192,40517,1,8,0:0:0:0:
256,192,40628,1,0,0:0:0:0:
256,192,40850,1,0,0:0:0:0:
256,192,41295,1,0,0:0:0:0:
256,192,41517,1,8,0:0:0:0:
256,192,41739,1,8,0:0:0:0:
256,192,41961,1,0,0:0:0:0:
256,192,42184,1,0,0:0:0:0:
256,192,42406,1,8,0:0:0:0:
256,192,42628,1,8,0:0:0:0:
256,192,42739,1,8,0:0:0:0:
256,192,42850,1,0,0:0:0:0:
256,192,43072,1,8,0:0:0:0:
256,192,43295,1,0,0:0:0:0:
256,192,43517,1,8,0:0:0:0:
256,192,43628,1,0,0:0:0:0:
256,192,43739,1,8,0:0:0:0:
256,192,44072,1,8,0:0:0:0:
256,192,44184,1,0,0:0:0:0:
256,192,44406,1,8,0:0:0:0:
256,192,44628,1,0,0:0:0:0:
256,192,44850,1,0,0:0:0:0:
256,192,45072,1,8,0:0:0:0:
256,192,45517,1,0,0:0:0:0:
256,192,45739,1,8,0:0:0:0:
256,192,45850,1,0,0:0:0:0:
256,192,46072,1,8,0:0:0:0:
256,192,46295,1,8,0:0:0:0:
256,192,46406,1,8,0:0:0:0:
256,192,46517,1,0,0:0:0:0:
256,192,46628,1,0,0:0:0:0:
256,192,46850,1,8,0:0:0:0:
384,96,47295,1,4,0:0:0:0:
256,192,47628,1,0,0:0:0:0:
256,192,47961,1,0,0:0:0:0:
256,192,48184,1,8,0:0:0:0:
256,192,49072,1,8,0:0:0:0:
256,192,49406,1,8,0:0:0:0:
256,192,49739,1,8,0:0:0:0:
256,192,49961,1,0,0:0:0:0:
256,192,50628,1,0,0:0:0:0:
256,192,50850,1,8,0:0:0:0:
256,192,51184,1,0,0:0:0:0:
256,192,51517,1,0,0:0:0:0:
256,192,51739,1,8,0:0:0:0:
256,192,52406,1,8,0:0:0:0:
256,192,52628,1,0,0:0:0:0:
256,192,52961,1,0,0:0:0:0:
256,192,53295,1,8,0:0:0:0:
256,192,53517,1,8,0:0:0:0:
256,192,53739,1,0,0:0:0:0:
256,192,54184,1,0,0:0:0:0:
256,192,54406,1,8,0:0:0:0:
256,192,54850,1,0,0:0:0:0:
256,192,55295,1,8,0:0:0:0:
256,192,55517,1,8,0:0:0:0:
256,192,55739,1,0,0:0:0:0:
256,192,55961,1,0,0:0:0:0:
256,192,56184,1,8,0:0:0:0:
256,192,56628,1,8,0:0:0:0:
256,192,57072,1,0,0:0:0:0:
256,192,57295,1,8,0:0:0:0:
256,192,57517,1,0,0:0:0:0:
256,192,57961,1,8,0:0:0:0:
256,192,58184,1,8,0:0:0:0:
256,192,58295,1,8,0:0:0:0:
256,192,58406,1,0,0:0:0:0:
256,192,58628,1,0,0:0:0:0:
256,192,58850,1,8,0:0:0:0:
256,192,59072,1,0,0:0:0:0:
256,192,59184,1,0,0:0:0:0:
256,192,59295,1,8,0:0:0:0:
256,192,59406,1,8,0:0:0:0:
256,192,59517,1,0,0:0:0:0:
256,192,59739,1,8,0:0:0:0:
256,192,60184,1,0,0:0:0:0:
256,192,60628,1,0,0:0:0:0:
256,192,61072,1,8,0:0:0:0:
384,96,61517,1,4,0:0:0:0:
256,192,61739,1,8,0:0:0:0:
256,192,61961,1,8,0:0:0:0:
256,192,62072,1,8,0:0:0:0:
256,192,62184,1,0,0:0:0:0:
256,192,62406,1,0,0:0:0:0:
256,192,62628,1,8,0:0:0:0:
256,192,62739,1,0,0:0:0:0:
256,192,62961,1,0,0:0:0:0:
256,192,63072,1,8,0:0:0:0:
256,192,63184,1,8,0:0:0:0:
256,192,63295,1,0,0:0:0:0:
256,192,63517,1,8,0:0:0:0:
256,192,63739,1,8,0:0:0:0:
256,192,63850,1,8,0:0:0:0:
256,192,63961,1,0,0:0:0:0:
256,192,64184,1,0,0:0:0:0:
256,192,64406,1,8,0:0:0:0:
256,192,64517,1,8,0:0:0:0:
256,192,64739,1,0,0:0:0:0:
256,192,64850,1,0,0:0:0:0:
256,192,64961,1,0,0:0:0:0:
256,192,65072,1,8,0:0:0:0:
256,192,65295,1,8,0:0:0:0:
256,192,65406,1,0,0:0:0:0:
256,192,65739,1,0,0:0:0:0:
256,192,65850,1,0,0:0:0:0:
256,192,65961,1,8,0:0:0:0:
256,192,66184,1,0,0:0:0:0:
256,192,66406,1,8,0:0:0:0:
256,192,66517,1,8,0:0:0:0:
256,192,66628,1,0,0:0:0:0:
256,192,66850,1,8,0:0:0:0:
256,192,67295,1,8,0:0:0:0:
256,192,67517,1,0,0:0:0:0:
256,192,67739,1,0,0:0:0:0:
256,192,67850,1,8,0:0:0:0:
256,192,67961,1,0,0:0:0:0:
256,192,68072,1,0,0:0:0:0:
256,192,68184,1,8,0:0:0:0:
256,192,68406,1,8,0:0:0:0:
384,96,68628,1,4,0:0:0:0:
256,192,69072,1,8,0:0:0:0:
256,192,69295,1,0,0:0:0:0:
256,192,69406,1,0,0:0:0:0:
256,192,69517,1,8,0:0:0:0:
256,192,69739,1,0,0:0:0:0:
256,192,69850,1,0,0:0:0:0:
256,192,69961,1,8,0:0:0:0:
256,192,70072,1,8,0:0:0:0:
256,192,70184,1,0,0:0:0:0:
256,192,70406,1,8,0:0:0:0:
256,192,70850,1,0,0:0:0:0:
256,192,71072,1,8,0:0:0:0:
256,192,71184,1,8,0:0:0:0:
256,192,71295,1,0,0:0:0:0:
256,192,71517,1,8,0:0:0:0:
256,192,71628,1,8,0:0:0:0:
256,192,71739,1,0,0:0:0:0:
256,192,71850,1,0,0:0:0:0:
256,192,71961,1,8,0:0:0:0:
256,192,72184,1,0,0:0:0:0:
256,192,72406,1,8,0:0:0:0:
256,192,72517,1,0,0:0:0:0:
384,96,72850,1,12,0:0:0:0:
256,192,73184,1,0,0:0:0:0:
256,192,73516,1,0,0:0:0:0:
256,192,73628,1,0,0:0:0:0:
256,192,73739,1,0,0:0:0:0:
384,96,73961,1,12,0:0:0:0:
256,192,74184,1,0,0:0:0:0:
256,192,74295,1,8,0:0:0:0:
256,192,74406,1,0,0:0:0:0:
256,192,74628,1,8,0:0:0:0:
256,192,74850,1,8,0:0:0:0:
256,192,74961,1,8,0:0:0:0:
256,192,75072,1,0,0:0:0:0:
256,192,75184,1,0,0:0:0:0:
256,192,75295,1,8,0:0:0:0:
256,192,75517,1,0,0:0:0:0:
384,96,75739,1,12,0:0:0:0:
256,192,75961,1,0,0:0:0:0:
256,192,76184,1,8,0:0:0:0:
256,192,76295,1,0,0:0:0:0:
256,192,76406,1,8,0:0:0:0:
256,192,76628,1,0,0:0:0:0:
256,192,76850,1,8,0:0:0:0:
256,192,76961,1,0,0:0:0:0:
256,192,77184,1,0,0:0:0:0:
256,192,77294,1,0,0:0:0:0:
256,192,77406,1,0,0:0:0:0:
256,192,77517,1,8,0:0:0:0:
256,192,77739,1,0,0:0:0:0:
256,192,77961,1,8,0:0:0:0:
256,192,78072,1,0,0:0:0:0:
256,192,78183,1,8,0:0:0:0:
256,192,78406,1,8,0:0:0:0:
256,192,78628,1,0,0:0:0:0:
256,192,78739,1,0,0:0:0:0:
256,192,79072,1,8,0:0:0:0:
256,192,79183,1,8,0:0:0:0:
256,192,79295,1,0,0:0:0:0:
256,192,79739,1,0,0:0:0:0:
256,192,79961,1,0,0:0:0:0:
256,192,80072,1,0,0:0:0:0:
256,192,80184,1,8,0:0:0:0:
256,192,80406,1,8,0:0:0:0:
256,192,80517,1,0,0:0:0:0:
256,192,80628,1,8,0:0:0:0:
256,192,80739,1,8,0:0:0:0:
256,192,80850,1,0,0:0:0:0:
256,192,81072,1,8,0:0:0:0:
256,192,81517,1,0,0:0:0:0:
256,192,81739,1,8,0:0:0:0:
256,192,81850,1,8,0:0:0:0:
256,192,81961,1,0,0:0:0:0:
256,192,82184,1,8,0:0:0:0:
256,192,82295,1,0,0:0:0:0:
256,192,82406,1,0,0:0:0:0:
256,192,82517,1,0,0:0:0:0:
256,192,82628,1,8,0:0:0:0:
384,96,82850,1,4,0:0:0:0:
256,192,83295,1,8,0:0:0:0:
256,192,83517,1,0,0:0:0:0:
256,192,83628,1,0,0:0:0:0:
256,192,83739,1,8,0:0:0:0:
256,192,83961,1,0,0:0:0:0:
256,192,84184,1,8,0:0:0:0:
256,192,84295,1,8,0:0:0:0:
256,192,84406,1,0,0:0:0:0:
256,192,84517,1,0,0:0:0:0:
256,192,84628,1,8,0:0:0:0:
384,96,86406,1,12,0:0:0:0:
384,96,86739,1,4,0:0:0:0:
384,96,87072,1,12,0:0:0:0:
384,96,87406,1,4,0:0:0:0:
384,96,87739,1,12,0:0:0:0:
384,96,87961,1,12,0:0:0:0:
