osu file format v14

[General]
AudioFilename: audio.mp3
AudioLeadIn: 0
PreviewTime: 59669
Countdown: 0
SampleSet: Normal
StackLeniency: 0.7
Mode: 1
LetterboxInBreaks: 0
WidescreenStoryboard: 0

[Editor]
Bookmarks: 11725,18836
DistanceSpacing: 1.1
BeatDivisor: 4
GridSize: 32
TimelineZoom: 3.2

[Metadata]
Title:Gurenge (TV Size)
TitleUnicode:紅蓮華 (TV Size)
Artist:LiSA
ArtistUnicode:LiSA
Creator:BlackBN
Version:Demon Slayer
Source:鬼滅の刃
Tags:BlackBq kimetsu no yaiba blade of demon destruction slayer kny opening op japanese anime rock j-rock jrock pop j-pop jpop sacra music leo-nine 草野華余子 カヨコ kusano kayoko 江口亮 eguchi ryō ryo ryou 竈門炭治郎 Kamado Tanjirō Tanjiro Tanjirou 花江夏樹 Hanae Natsuki 竈門禰豆子 Nezuko 鬼頭明里 Kitō Kito Kitou Akari
BeatmapID:4492934
BeatmapSetID:2135245

[Difficulty]
HPDrainRate:6
CircleSize:2
OverallDifficulty:7
ApproachRate:10
SliderMultiplier:1.4
SliderTickRate:1

[Events]
//Background and Video events
0,0,"gurenge.jpg",0,55
Video,-227,"gunenge.mp4"
//Break Periods
//Storyboard Layer 0 (Background)
//Storyboard Layer 1 (Fail)
//Storyboard Layer 2 (Pass)
//Storyboard Layer 3 (Foreground)
//Storyboard Layer 4 (Overlay)
//Storyboard Sound Samples

[TimingPoints]
1073,444.444444444444,4,1,0,70,1,0
1073,-71.4285714285714,4,1,0,70,0,0
11684,-50,4,1,0,85,0,0
18906,-62.5,4,1,0,75,0,0
45512,-62.5,4,1,0,75,0,0
45734,-63.49093,4,1,0,75,0,0
45845,-63.998272,4,1,0,75,0,0
45956,-64.51379,4,1,0,75,0,0
46067,-65.037674,4,1,0,75,0,0
46179,-65.57498,4,1,0,75,0,0
46290,-66.11632,4,1,0,75,0,0
46401,-66.666664,4,1,0,75,0,0
46512,-67.22626,4,1,0,75,0,0
46623,-67.79532,4,1,0,75,0,0
46734,-68.3741,4,1,0,75,0,0
46845,-68.96284,4,1,0,75,0,0
47067,-70.17129,4,1,0,75,0,0
47123,-70.48284,4,1,0,75,0,0
47179,-70.797165,4,1,0,75,0,0
47239,-70.797165,4,1,0,70,0,0
47290,-71.42857,4,1,0,70,0,0
54350,-71.42857,4,1,0,75,0,0
54401,-71.42857,4,1,0,75,0,0
54845,-68.96775,4,1,0,75,0,0
55290,-66.66583,4,1,0,75,0,0
55512,-65.573975,4,1,0,75,0,0
55734,-64.5173,4,1,0,75,0,0
55956,-63.49414,4,1,0,75,0,0
56179,-62.49853,4,1,0,75,0,0
56623,-60.606403,4,1,0,75,0,0
57067,-58.825478,4,1,0,75,0,0
57290,-57.969913,4,1,0,75,0,0
57512,-57.14255,4,1,0,75,0,0
57734,-56.3380281690141,4,1,0,75,0,0
57906,-71.42857,4,1,0,80,0,0
57956,-55.556713,4,1,0,80,0,0
58179,-54.792973,4,1,0,80,0,0
58290,-54.42059,4,1,0,80,0,0
58401,-54.05323,4,1,0,80,0,0
58512,-53.690804,4,1,0,80,0,0
58623,-53.3332,4,1,0,80,0,0
58734,-52.980328,4,1,0,80,0,0
58845,-52.6321,4,1,0,80,0,0
58956,-52.288414,4,1,0,80,0,0
59067,-51.949192,4,1,0,80,0,0
59179,-51.611343,4,1,0,80,0,0
59290,-51.280823,4,1,0,80,0,0
59401,-50.9545,4,1,0,80,0,0
59512,-50.63231,4,1,0,80,0,0
59623,-50.314167,4,1,0,80,0,0
59734,-50,4,1,0,80,0,0
59850,-28.5714285714286,4,1,0,80,0,0
60128,-71.4285714285714,4,1,0,70,0,0
61461,-71.4285714285714,4,1,0,85,0,0
61517,-45.454544,4,1,0,85,0,1
72128,-45.454544,4,1,0,80,0,1
72184,-45.454544,4,1,0,80,0,0
72401,-47.057888,4,1,0,80,0,0
72512,-47.90274,4,1,0,80,0,0
72734,-49.686832,4,1,0,80,0,0
72845,-50.629665,4,1,0,80,0,0
73067,-52.6269,4,1,0,80,0,0
73179,-53.695534,4,1,0,80,0,0
73290,-54.79832,4,1,0,80,0,0
73401,-55.94736,4,1,0,80,0,0
73511,-57.13459,4,1,0,80,0,0
73567,-57.758564,4,1,0,80,0,0
73623,-58.39632,4,1,0,80,0,0
73734,-59.703,4,1,0,80,0,0
73845,-61.069492,4,1,0,80,0,0
73956,-62.434345,4,1,0,80,0,0
74179,-59.640087,4,1,0,80,0,0
74290,-58.34042,4,1,0,80,0,0
74401,-57.096195,4,1,0,80,0,0
74456,-56.499146,4,1,0,80,0,0
74512,-55.90393,4,1,0,80,0,0
74567,-55.33143,4,1,0,80,0,0
74623,-54.76044,4,1,0,80,0,0
74734,-53.662792,4,1,0,80,0,0
74845,-52.608284,4,1,0,80,0,0
74901,-52.091858,4,1,0,80,0,0
74956,-51.59442,4,1,0,80,0,0
75012,-51.097607,4,1,0,80,0,0
75067,-50.618896,4,1,0,80,0,0
75179,-49.671276,4,1,0,80,0,0
75290,-48.76648,4,1,0,80,0,0
75345,-48.33026,4,1,0,80,0,0
75401,-47.89406,4,1,0,80,0,0
75456,-47.47324,4,1,0,80,0,0
75512,-47.05231,4,1,0,80,0,0
75567,-46.64609,4,1,0,80,0,0
75623,-46.239628,4,1,0,80,0,0
75684,-46.239628,4,1,0,85,0,0
75739,-45.454544,4,1,0,85,0,1
84628,-45.454544,4,1,0,85,0,0
86401,-45.428074,4,1,0,85,0,0
86734,-43.731777,4,1,0,85,0,0
87067,-42.157608,4,1,0,85,0,0
87401,-40.688583,4,1,0,85,0,0
87734,-39.32245,4,1,0,85,0,0
87956,-38.461544,4,1,0,85,0,0

[HitObjects]
256,192,1073,5,0,0:0:0:0:
256,192,1406,1,8,0:0:0:0:
256,192,1739,1,0,0:0:0:0:
256,192,2850,1,8,0:0:0:0:
256,192,3184,1,8,0:0:0:0:
256,192,3517,1,0,0:0:0:0:
256,192,4406,1,0,0:0:0:0:
256,192,4628,1,8,0:0:0:0:
256,192,4961,1,8,0:0:0:0:
256,192,5295,1,0,0:0:0:0:
256,192,6184,1,8,0:0:0:0:
256,192,6406,1,0,0:0:0:0:
256,192,6739,1,0,0:0:0:0:
256,192,7072,1,8,0:0:0:0:
256,192,7517,1,0,0:0:0:0:
256,192,7961,1,0,0:0:0:0:
256,192,8184,1,8,0:0:0:0:
256,192,8517,1,0,0:0:0:0:
256,192,8850,1,0,0:0:0:0:
256,192,9295,1,8,0:0:0:0:
256,192,9739,1,0,0:0:0:0:
256,192,9961,1,8,0:0:0:0:
256,192,11072,1,0,0:0:0:0:
256,192,11517,1,0,0:0:0:0:
384,96,11739,1,12,0:0:0:0:
256,192,11961,1,0,0:0:0:0:
256,192,12072,1,8,0:0:0:0:
256,192,12128,1,8,0:0:0:0:
256,192,12184,1,0,0:0:0:0:
256,192,12295,1,8,0:0:0:0:
256,192,12406,1,0,0:0:0:0:
256,192,12461,1,0,0:0:0:0:
256,192,12517,1,8,0:0:0:0:
256,192,12572,1,8,0:0:0:0:
256,192,12628,1,0,0:0:0:0:
256,192,12739,1,8,0:0:0:0:
256,192,12795,1,8,0:0:0:0:
256,192,12850,1,8,0:0:0:0:
256,192,12961,1,0,0:0:0:0:
256,192,13072,1,8,0:0:0:0:
256,192,13128,1,0,0:0:0:0:
256,192,13184,1,8,0:0:0:0:
256,192,13239,1,8,0:0:0:0:
256,192,13295,1,0,0:0:0:0:
256,192,13350,1,0,0:0:0:0:
256,192,13406,1,8,0:0:0:0:
256,192,13461,1,8,0:0:0:0:
256,192,13517,1,0,0:0:0:0:
256,192,13739,1,8,0:0:0:0:
256,192,13850,1,0,0:0:0:0:
256,192,13906,1,0,0:0:0:0:
256,192,13961,1,8,0:0:0:0:
256,192,14072,1,0,0:0:0:0:
256,192,14184,1,8,0:0:0:0:
256,192,14239,1,8,0:0:0:0:
256,192,14295,1,0,0:0:0:0:
256,192,14350,1,0,0:0:0:0:
256,192,14406,1,8,0:0:0:0:
256,192,14517,1,0,0:0:0:0:
256,192,14572,1,0,0:0:0:0:
256,192,14628,1,0,0:0:0:0:
256,192,14739,1,8,0:0:0:0:
256,192,14850,1,0,0:0:0:0:
256,192,14906,1,8,0:0:0:0:
256,192,14961,1,0,0:0:0:0:
256,192,15017,1,0,0:0:0:0:
256,192,15072,1,8,0:0:0:0:
256,192,15128,1,8,0:0:0:0:
256,192,15184,1,0,0:0:0:0:
256,192,15239,1,0,0:0:0:0:
256,192,15295,1,8,0:0:0:0:
256,192,15517,1,0,0:0:0:0:
256,192,15628,1,8,0:0:0:0:
256,192,15684,1,8,0:0:0:0:
256,192,15739,1,0,0:0:0:0:
256,192,15850,1,8,0:0:0:0:
256,192,15961,1,0,0:0:0:0:
256,192,16017,1,0,0:0:0:0:
256,192,16072,1,0,0:0:0:0:
256,192,16128,1,0,0:0:0:0:
256,192,16184,1,8,0:0:0:0:
256,192,16295,1,0,0:0:0:0:
256,192,16350,1,0,0:0:0:0:
256,192,16406,1,8,0:0:0:0:
256,192,16517,1,0,0:0:0:0:
256,192,16628,1,8,0:0:0:0:
256,192,16684,1,8,0:0:0:0:
256,192,16739,1,0,0:0:0:0:
256,192,16795,1,8,0:0:0:0:
256,192,16850,1,0,0:0:0:0:
256,192,16906,1,0,0:0:0:0:
256,192,16961,1,8,0:0:0:0:
256,192,17017,1,0,0:0:0:0:
256,192,17072,1,8,0:0:0:0:
256,192,17184,1,0,0:0:0:0:
256,192,17406,1,8,0:0:0:0:
256,192,17517,1,0,0:0:0:0:
256,192,17628,1,0,0:0:0:0:
256,192,17739,1,8,0:0:0:0:
256,192,17795,1,8,0:0:0:0:
256,192,17850,1,8,0:0:0:0:
256,192,17961,1,0,0:0:0:0:
256,192,18017,1,0,0:0:0:0:
256,192,18072,1,8,0:0:0:0:
256,192,18184,1,0,0:0:0:0:
256,192,18295,1,8,0:0:0:0:
256,192,18406,1,0,0:0:0:0:
256,192,18461,1,8,0:0:0:0:
256,192,18517,1,0,0:0:0:0:
256,192,18572,1,0,0:0:0:0:
256,192,18628,1,8,0:0:0:0:
256,192,18739,1,0,0:0:0:0:
384,96,18850,1,12,0:0:0:0:
256,192,19184,1,8,0:0:0:0:
256,192,19295,1,0,0:0:0:0:
256,192,19517,1,0,0:0:0:0:
256,192,19628,1,8,0:0:0:0:
256,192,19739,1,0,0:0:0:0:
256,192,19850,1,8,0:0:0:0:
256,192,19961,1,0,0:0:0:0:
256,192,20072,1,0,0:0:0:0:
256,192,20184,1,8,0:0:0:0:
256,192,20406,1,8,0:0:0:0:
256,192,20628,1,0,0:0:0:0:
256,192,20739,1,8,0:0:0:0:
256,192,20850,1,0,0:0:0:0:
256,192,20961,1,0,0:0:0:0:
256,192,21072,1,8,0:0:0:0:
256,192,21295,1,8,0:0:0:0:
256,192,21406,1,0,0:0:0:0:
256,192,21517,1,8,0:0:0:0:
256,192,21628,1,8,0:0:0:0:
256,192,21739,1,0,0:0:0:0:
256,192,21850,1,0,0:0:0:0:
256,192,21961,1,8,0:0:0:0:
256,192,22184,1,0,0:0:0:0:
256,192,22295,1,0,0:0:0:0:
256,192,22406,1,8,0:0:0:0:
256,192,22628,1,8,0:0:0:0:
256,192,22739,1,8,0:0:0:0:
256,192,22850,1,0,0:0:0:0:
256,192,22961,1,0,0:0:0:0:
256,192,23072,1,8,0:0:0:0:
256,192,23184,1,0,0:0:0:0:
256,192,23295,1,8,0:0:0:0:
256,192,23406,1,8,0:0:0:0:
256,192,23517,1,0,0:0:0:0:
256,192,23739,1,8,0:0:0:0:
256,192,23961,1,0,0:0:0:0:
256,192,24072,1,8,0:0:0:0:
256,192,24184,1,0,0:0:0:0:
256,192,24406,1,0,0:0:0:0:
256,192,24517,1,0,0:0:0:0:
256,192,24628,1,8,0:0:0:0:
256,192,24739,1,0,0:0:0:0:
256,192,24961,1,8,0:0:0:0:
256,192,25072,1,0,0:0:0:0:
256,192,25184,1,8,0:0:0:0:
256,192,25239,1,8,0:0:0:0:
256,192,25295,1,8,0:0:0:0:
256,192,25406,1,0,0:0:0:0:
256,192,25517,1,8,0:0:0:0:
256,192,25739,1,0,0:0:0:0:
256,192,25795,1,0,0:0:0:0:
256,192,25850,1,0,0:0:0:0:
256,192,25906,1,0,0:0:0:0:
256,192,25961,1,8,0:0:0:0:
256,192,26295,1,8,0:0:0:0:
256,192,26406,1,0,0:0:0:0:
256,192,26628,1,8,0:0:0:0:
256,192,26739,1,8,0:0:0:0:
256,192,26850,1,0,0:0:0:0:
256,192,26961,1,8,0:0:0:0:
256,192,27072,1,0,0:0:0:0:
256,192,27184,1,0,0:0:0:0:
256,192,27295,1,8,0:0:0:0:
256,192,27517,1,8,0:0:0:0:
256,192,27739,1,0,0:0:0:0:
256,192,27850,1,8,0:0:0:0:
256,192,27961,1,0,0:0:0:0:
256,192,28072,1,0,0:0:0:0:
256,192,28184,1,8,0:0:0:0:
256,192,28406,1,0,0:0:0:0:
256,192,28517,1,0,0:0:0:0:
256,192,28628,1,8,0:0:0:0:
256,192,28739,1,8,0:0:0:0:
256,192,28850,1,8,0:0:0:0:
256,192,28961,1,0,0:0:0:0:
256,192,29072,1,8,0:0:0:0:
256,192,29295,1,8,0:0:0:0:
256,192,29406,1,8,0:0:0:0:
256,192,29517,1,0,0:0:0:0:
256,192,29739,1,0,0:0:0:0:
256,192,29850,1,8,0:0:0:0:
256,192,29961,1,0,0:0:0:0:
256,192,30072,1,0,0:0:0:0:
256,192,30184,1,8,0:0:0:0:
256,192,30295,1,0,0:0:0:0:
256,192,30406,1,8,0:0:0:0:
256,192,30517,1,8,0:0:0:0:
256,192,30628,1,0,0:0:0:0:
256,192,30850,1,8,0:0:0:0:
256,192,31072,1,8,0:0:0:0:
256,192,31184,1,8,0:0:0:0:
256,192,31295,1,0,0:0:0:0:
256,192,31517,1,0,0:0:0:0:
256,192,31628,1,0,0:0:0:0:
256,192,31850,1,8,0:0:0:0:
256,192,31961,1,0,0:0:0:0:
256,192,32072,1,0,0:0:0:0:
256,192,32184,1,8,0:0:0:0:
256,192,32295,1,0,0:0:0:0:
256,192,32350,1,0,0:0:0:0:
256,192,32406,1,0,0:0:0:0:
256,192,32517,1,8,0:0:0:0:
256,192,32628,1,0,0:0:0:0:
256,192,32850,1,8,0:0:0:0:
256,192,32906,1,8,0:0:0:0:
256,192,32961,1,8,0:0:0:0:
256,192,33017,1,8,0:0:0:0:
256,192,33072,1,0,0:0:0:0:
256,192,33406,1,0,0:0:0:0:
256,192,33517,1,8,0:0:0:0:
256,192,33628,1,0,0:0:0:0:
256,192,33739,1,0,0:0:0:0:
256,192,33850,1,8,0:0:0:0:
256,192,34072,1,8,0:0:0:0:
256,192,34184,1,0,0:0:0:0:
256,192,34295,1,0,0:0:0:0:
256,192,34406,1,8,0:0:0:0:
256,192,34628,1,8,0:0:0:0:
256,192,34739,1,8,0:0:0:0:
256,192,34850,1,0,0:0:0:0:
256,192,35072,1,0,0:0:0:0:
256,192,35184,1,0,0:0:0:0:
256,192,35295,1,8,0:0:0:0:
256,192,35406,1,0,0:0:0:0:
256,192,35517,1,8,0:0:0:0:
256,192,35628,1,8,0:0:0:0:
256,192,35739,1,0,0:0:0:0:
256,192,35850,1,8,0:0:0:0:
256,192,36072,1,8,0:0:0:0:
256,192,36184,1,0,0:0:0:0:
256,192,36406,1,0,0:0:0:0:
256,192,36517,1,8,0:0:0:0:
256,192,36628,1,0,0:0:0:0:
256,192,36961,1,0,0:0:0:0:
256,192,37072,1,8,0:0:0:0:
256,192,37184,1,0,0:0:0:0:
256,192,37295,1,8,0:0:0:0:
256,192,37406,1,8,0:0:0:0:
256,192,37517,1,0,0:0:0:0:
256,192,37739,1,8,0:0:0:0:
256,192,37850,1,0,0:0:0:0:
256,192,37961,1,8,0:0:0:0:
256,192,38072,1,8,0:0:0:0:
256,192,38184,1,0,0:0:0:0:
256,192,38295,1,8,0:0:0:0:
256,192,38406,1,0,0:0:0:0:
256,192,38628,1,8,0:0:0:0:
256,192,38739,1,0,0:0:0:0:
256,192,38850,1,8,0:0:0:0:
256,192,39072,1,8,0:0:0:0:
256,192,39184,1,8,0:0:0:0:
256,192,39295,1,0,0:0:0:0:
256,192,39406,1,8,0:0:0:0:
256,192,39461,1,8,0:0:0:0:
256,192,39517,1,8,0:0:0:0:
256,192,39628,1,0,0:0:0:0:
256,192,39739,1,8,0:0:0:0:
256,192,39961,1,0,0:0:0:0:
256,192,40017,1,0,0:0:0:0:
256,192,40072,1,0,0:0:0:0:
256,192,40128,1,0,0:0:0:0:
256,192,40184,1,8,0:0:0:0:
256,192,40517,1,8,0:0:0:0:
256,192,40628,1,8,0:0:0:0:
256,192,40739,1,0,0:0:0:0:
256,192,40850,1,0,0:0:0:0:
256,192,40961,1,8,0:0:0:0:
256,192,41072,1,0,0:0:0:0:
256,192,41295,1,0,0:0:0:0:
256,192,41406,1,0,0:0:0:0:
256,192,41517,1,8,0:0:0:0:
256,192,41628,1,0,0:0:0:0:
256,192,41739,1,8,0:0:0:0:
256,192,41850,1,8,0:0:0:0:
256,192,41961,1,0,0:0:0:0:
256,192,42184,1,0,0:0:0:0:
256,192,42295,1,0,0:0:0:0:
256,192,42406,1,8,0:0:0:0:
256,192,42628,1,8,0:0:0:0:
256,192,42739,1,8,0:0:0:0:
256,192,42850,1,0,0:0:0:0:
256,192,42961,1,0,0:0:0:0:
256,192,43072,1,8,0:0:0:0:
256,192,43295,1,0,0:0:0:0:
256,192,43517,1,8,0:0:0:0:
256,192,43572,1,8,0:0:0:0:
256,192,43628,1,8,0:0:0:0:
256,192,43684,1,8,0:0:0:0:
256,192,43739,1,8,0:0:0:0:
256,192,44072,1,8,0:0:0:0:
256,192,44184,1,0,0:0:0:0:
256,192,44406,1,0,0:0:0:0:
256,192,44517,1,8,0:0:0:0:
256,192,44628,1,8,0:0:0:0:
256,192,44739,1,8,0:0:0:0:
256,192,44850,1,0,0:0:0:0:
256,192,44961,1,0,0:0:0:0:
256,192,45072,1,8,0:0:0:0:
256,192,45295,1,8,0:0:0:0:
256,192,45406,1,8,0:0:0:0:
256,192,45517,1,0,0:0:0:0:
256,192,45739,1,8,0:0:0:0:
256,192,45850,1,0,0:0:0:0:
256,192,45961,1,0,0:0:0:0:
256,192,46072,1,8,0:0:0:0:
256,192,46184,1,0,0:0:0:0:
256,192,46295,1,8,0:0:0:0:
256,192,46406,1,8,0:0:0:0:
256,192,46517,1,0,0:0:0:0:
256,192,46628,1,0,0:0:0:0:
256,192,46739,1,0,0:0:0:0:
256,192,46850,1,8,0:0:0:0:
256,192,47072,1,8,0:0:0:0:
256,192,47128,1,8,0:0:0:0:
256,192,47184,1,8,0:0:0:0:
384,96,47295,1,4,0:0:0:0:
256,192,47628,1,0,0:0:0:0:
256,192,47961,1,0,0:0:0:0:
256,192,48184,1,8,0:0:0:0:
256,192,49072,1,8,0:0:0:0:
256,192,49406,1,8,0:0:0:0:
256,192,49739,1,8,0:0:0:0:
256,192,49961,1,0,0:0:0:0:
256,192,50628,1,0,0:0:0:0:
256,192,50850,1,8,0:0:0:0:
256,192,51184,1,0,0:0:0:0:
256,192,51517,1,0,0:0:0:0:
256,192,51739,1,8,0:0:0:0:
256,192,52406,1,8,0:0:0:0:
256,192,52628,1,0,0:0:0:0:
256,192,52961,1,0,0:0:0:0:
256,192,53295,1,8,0:0:0:0:
256,192,53517,1,8,0:0:0:0:
256,192,53739,1,0,0:0:0:0:
256,192,54184,1,0,0:0:0:0:
256,192,54406,1,8,0:0:0:0:
256,192,54850,1,0,0:0:0:0:
256,192,55295,1,8,0:0:0:0:
256,192,55517,1,8,0:0:0:0:
256,192,55739,1,0,0:0:0:0:
256,192,55961,1,0,0:0:0:0:
256,192,56184,1,8,0:0:0:0:
256,192,56628,1,8,0:0:0:0:
256,192,57072,1,0,0:0:0:0:
256,192,57295,1,8,0:0:0:0:
256,192,57517,1,0,0:0:0:0:
256,192,57739,1,0,0:0:0:0:
256,192,57961,1,8,0:0:0:0:
256,192,58184,1,8,0:0:0:0:
256,192,58295,1,8,0:0:0:0:
256,192,58406,1,0,0:0:0:0:
256,192,58517,1,8,0:0:0:0:
256,192,58628,1,0,0:0:0:0:
256,192,58739,1,0,0:0:0:0:
256,192,58850,1,8,0:0:0:0:
256,192,58961,1,0,0:0:0:0:
256,192,59072,1,8,0:0:0:0:
256,192,59184,1,8,0:0:0:0:
256,192,59295,1,8,0:0:0:0:
256,192,59406,1,0,0:0:0:0:
256,192,59517,1,8,0:0:0:0:
256,192,59628,1,8,0:0:0:0:
256,192,59739,1,0,0:0:0:0:
256,192,60184,5,0,0:0:0:0:
256,192,60628,1,0,0:0:0:0:
256,192,61072,1,8,0:0:0:0:
384,96,61517,1,4,0:0:0:0:
256,192,61739,1,8,0:0:0:0:
256,192,61850,1,0,0:0:0:0:
256,192,61961,1,8,0:0:0:0:
256,192,62017,1,8,0:0:0:0:
256,192,62072,1,0,0:0:0:0:
256,192,62184,1,8,0:0:0:0:
256,192,62239,1,0,0:0:0:0:
256,192,62295,1,0,0:0:0:0:
256,192,62406,1,8,0:0:0:0:
256,192,62461,1,8,0:0:0:0:
256,192,62517,1,0,0:0:0:0:
256,192,62572,1,0,0:0:0:0:
256,192,62628,1,8,0:0:0:0:
256,192,62684,1,0,0:0:0:0:
256,192,62739,1,8,0:0:0:0:
256,192,62795,1,8,0:0:0:0:
256,192,62850,1,0,0:0:0:0:
256,192,62961,1,8,0:0:0:0:
256,192,63072,1,0,0:0:0:0:
256,192,63128,1,0,0:0:0:0:
256,192,63184,1,8,0:0:0:0:
256,192,63295,1,0,0:0:0:0:
256,192,63350,1,8,0:0:0:0:
256,192,63406,1,8,0:0:0:0:
256,192,63461,1,8,0:0:0:0:
256,192,63517,1,0,0:0:0:0:
256,192,63628,1,8,0:0:0:0:
256,192,63739,1,0,0:0:0:0:
256,192,63795,1,0,0:0:0:0:
256,192,63850,1,8,0:0:0:0:
256,192,63961,1,0,0:0:0:0:
256,192,64017,1,8,0:0:0:0:
256,192,64072,1,8,0:0:0:0:
256,192,64184,1,0,0:0:0:0:
256,192,64239,1,8,0:0:0:0:
256,192,64295,1,0,0:0:0:0:
256,192,64350,1,0,0:0:0:0:
256,192,64406,1,8,0:0:0:0:
256,192,64461,1,0,0:0:0:0:
256,192,64517,1,8,0:0:0:0:
256,192,64572,1,8,0:0:0:0:
256,192,64628,1,0,0:0:0:0:
256,192,64739,1,8,0:0:0:0:
256,192,64850,1,0,0:0:0:0:
256,192,64906,1,0,0:0:0:0:
256,192,64961,1,0,0:0:0:0:
256,192,65072,1,8,0:0:0:0:
256,192,65184,1,0,0:0:0:0:
256,192,65295,1,8,0:0:0:0:
256,192,65350,1,8,0:0:0:0:
256,192,65406,1,0,0:0:0:0:
256,192,65461,1,0,0:0:0:0:
256,192,65517,1,8,0:0:0:0:
256,192,65628,1,0,0:0:0:0:
256,192,65739,1,8,0:0:0:0:
256,192,65795,1,8,0:0:0:0:
256,192,65850,1,0,0:0:0:0:
256,192,65961,1,8,0:0:0:0:
256,192,66017,1,0,0:0:0:0:
256,192,66072,1,0,0:0:0:0:
256,192,66128,1,0,0:0:0:0:
256,192,66184,1,8,0:0:0:0:
256,192,66295,1,0,0:0:0:0:
256,192,66406,1,8,0:0:0:0:
256,192,66461,1,8,0:0:0:0:
256,192,66517,1,0,0:0:0:0:
256,192,66628,1,8,0:0:0:0:
256,192,66684,1,8,0:0:0:0:
256,192,66739,1,8,0:0:0:0:
256,192,66850,1,0,0:0:0:0:
256,192,66906,1,0,0:0:0:0:
256,192,66961,1,0,0:0:0:0:
256,192,67017,1,0,0:0:0:0:
256,192,67072,1,8,0:0:0:0:
256,192,67184,1,0,0:0:0:0:
256,192,67295,1,8,0:0:0:0:
256,192,67350,1,8,0:0:0:0:
256,192,67406,1,8,0:0:0:0:
256,192,67461,1,8,0:0:0:0:
256,192,67517,1,0,0:0:0:0:
256,192,67628,1,8,0:0:0:0:
256,192,67739,1,0,0:0:0:0:
256,192,67795,1,0,0:0:0:0:
256,192,67850,1,0,0:0:0:0:
256,192,67906,1,0,0:0:0:0:
256,192,67961,1,8,0:0:0:0:
256,192,68072,1,0,0:0:0:0:
256,192,68128,1,0,0:0:0:0:
256,192,68184,1,8,0:0:0:0:
256,192,68295,1,0,0:0:0:0:
256,192,68406,1,8,0:0:0:0:
256,192,68461,1,8,0:0:0:0:
256,192,68517,1,8,0:0:0:0:
384,96,68628,1,4,0:0:0:0:
256,192,68850,1,8,0:0:0:0:
256,192,68961,1,0,0:0:0:0:
256,192,69017,1,0,0:0:0:0:
256,192,69072,1,8,0:0:0:0:
256,192,69184,1,0,0:0:0:0:
256,192,69295,1,8,0:0:0:0:
256,192,69350,1,8,0:0:0:0:
256,192,69406,1,0,0:0:0:0:
256,192,69461,1,0,0:0:0:0:
256,192,69517,1,8,0:0:0:0:
256,192,69628,1,0,0:0:0:0:
256,192,69739,1,8,0:0:0:0:
256,192,69795,1,8,0:0:0:0:
256,192,69850,1,8,0:0:0:0:
256,192,69961,1,0,0:0:0:0:
256,192,70017,1,8,0:0:0:0:
256,192,70072,1,0,0:0:0:0:
256,192,70128,1,0,0:0:0:0:
256,192,70184,1,8,0:0:0:0:
256,192,70295,1,0,0:0:0:0:
256,192,70406,1,8,0:0:0:0:
256,192,70628,1,0,0:0:0:0:
256,192,70739,1,8,0:0:0:0:
256,192,70795,1,8,0:0:0:0:
256,192,70850,1,0,0:0:0:0:
256,192,70961,1,8,0:0:0:0:
256,192,71072,1,0,0:0:0:0:
256,192,71128,1,0,0:0:0:0:
256,192,71184,1,8,0:0:0:0:
256,192,71239,1,8,0:0:0:0:
256,192,71295,1,0,0:0:0:0:
256,192,71406,1,8,0:0:0:0:
256,192,71517,1,0,0:0:0:0:
256,192,71572,1,0,0:0:0:0:
256,192,71628,1,0,0:0:0:0:
256,192,71739,1,8,0:0:0:0:
256,192,71795,1,0,0:0:0:0:
256,192,71850,1,8,0:0:0:0:
256,192,71906,1,8,0:0:0:0:
256,192,71961,1,0,0:0:0:0:
256,192,72072,1,8,0:0:0:0:
256,192,72184,1,0,0:0:0:0:
256,192,72406,1,8,0:0:0:0:
256,192,72517,1,0,0:0:0:0:
256,192,72739,1,0,0:0:0:0:
384,96,72850,1,12,0:0:0:0:
256,192,73072,1,0,0:0:0:0:
256,192,73184,1,0,0:0:0:0:
256,192,73295,1,8,0:0:0:0:
256,192,73406,1,0,0:0:0:0:
256,192,73516,1,8,0:0:0:0:
256,192,73572,1,8,0:0:0:0:
256,192,73628,1,8,0:0:0:0:
256,192,73739,1,0,0:0:0:0:
256,192,73850,1,0,0:0:0:0:
384,96,73961,1,12,0:0:0:0:
256,192,74184,1,0,0:0:0:0:
256,192,74295,1,8,0:0:0:0:
256,192,74406,1,0,0:0:0:0:
256,192,74461,1,0,0:0:0:0:
256,192,74517,1,8,0:0:0:0:
256,192,74572,1,8,0:0:0:0:
256,192,74628,1,0,0:0:0:0:
256,192,74739,1,0,0:0:0:0:
256,192,74850,1,8,0:0:0:0:
256,192,74906,1,8,0:0:0:0:
256,192,74961,1,0,0:0:0:0:
256,192,75017,1,0,0:0:0:0:
256,192,75072,1,8,0:0:0:0:
256,192,75184,1,8,0:0:0:0:
256,192,75295,1,0,0:0:0:0:
256,192,75350,1,0,0:0:0:0:
256,192,75406,1,0,0:0:0:0:
256,192,75461,1,0,0:0:0:0:
256,192,75517,1,8,0:0:0:0:
256,192,75572,1,8,0:0:0:0:
256,192,75628,1,0,0:0:0:0:
384,96,75739,1,12,0:0:0:0:
256,192,75961,1,0,0:0:0:0:
256,192,76072,1,8,0:0:0:0:
256,192,76183,1,0,0:0:0:0:
256,192,76239,1,0,0:0:0:0:
256,192,76294,1,8,0:0:0:0:
256,192,76406,1,0,0:0:0:0:
256,192,76461,1,0,0:0:0:0:
256,192,76517,1,0,0:0:0:0:
256,192,76628,1,8,0:0:0:0:
256,192,76683,1,0,0:0:0:0:
256,192,76739,1,0,0:0:0:0:
256,192,76794,1,0,0:0:0:0:
256,192,76850,1,8,0:0:0:0:
256,192,76906,1,0,0:0:0:0:
256,192,76961,1,8,0:0:0:0:
256,192,77017,1,8,0:0:0:0:
256,192,77072,1,0,0:0:0:0:
256,192,77183,1,8,0:0:0:0:
256,192,77294,1,0,0:0:0:0:
256,192,77350,1,0,0:0:0:0:
256,192,77406,1,8,0:0:0:0:
256,192,77517,1,0,0:0:0:0:
256,192,77572,1,0,0:0:0:0:
256,192,77628,1,0,0:0:0:0:
256,192,77684,1,0,0:0:0:0:
256,192,77739,1,8,0:0:0:0:
256,192,77850,1,0,0:0:0:0:
256,192,77961,1,8,0:0:0:0:
256,192,78017,1,8,0:0:0:0:
256,192,78072,1,0,0:0:0:0:
256,192,78183,1,8,0:0:0:0:
256,192,78239,1,8,0:0:0:0:
256,192,78295,1,8,0:0:0:0:
256,192,78406,1,0,0:0:0:0:
256,192,78461,1,8,0:0:0:0:
256,192,78517,1,0,0:0:0:0:
256,192,78572,1,0,0:0:0:0:
256,192,78628,1,8,0:0:0:0:
256,192,78683,1,0,0:0:0:0:
256,192,78739,1,0,0:0:0:0:
256,192,78794,1,0,0:0:0:0:
256,192,78850,1,8,0:0:0:0:
256,192,78961,1,0,0:0:0:0:
256,192,79072,1,8,0:0:0:0:
256,192,79128,1,8,0:0:0:0:
256,192,79183,1,0,0:0:0:0:
256,192,79295,1,8,0:0:0:0:
256,192,79350,1,0,0:0:0:0:
256,192,79406,1,0,0:0:0:0:
256,192,79517,1,8,0:0:0:0:
256,192,79628,1,0,0:0:0:0:
256,192,79684,1,0,0:0:0:0:
256,192,79739,1,8,0:0:0:0:
256,192,79850,1,0,0:0:0:0:
256,192,79961,1,8,0:0:0:0:
256,192,80017,1,8,0:0:0:0:
256,192,80072,1,8,0:0:0:0:
256,192,80128,1,8,0:0:0:0:
256,192,80184,1,0,0:0:0:0:
256,192,80295,1,8,0:0:0:0:
256,192,80406,1,0,0:0:0:0:
256,192,80461,1,0,0:0:0:0:
256,192,80517,1,0,0:0:0:0:
256,192,80628,1,8,0:0:0:0:
256,192,80684,1,0,0:0:0:0:
256,192,80739,1,8,0:0:0:0:
256,192,80795,1,8,0:0:0:0:
256,192,80850,1,0,0:0:0:0:
256,192,80906,1,0,0:0:0:0:
256,192,80961,1,8,0:0:0:0:
256,192,81072,1,0,0:0:0:0:
256,192,81295,1,8,0:0:0:0:
256,192,81406,1,0,0:0:0:0:
256,192,81517,1,8,0:0:0:0:
256,192,81572,1,8,0:0:0:0:
256,192,81628,1,0,0:0:0:0:
256,192,81684,1,0,0:0:0:0:
256,192,81739,1,8,0:0:0:0:
256,192,81850,1,0,0:0:0:0:
256,192,81961,1,8,0:0:0:0:
256,192,82017,1,8,0:0:0:0:
256,192,82072,1,0,0:0:0:0:
256,192,82184,1,8,0:0:0:0:
256,192,82295,1,0,0:0:0:0:
256,192,82350,1,0,0:0:0:0:
256,192,82406,1,8,0:0:0:0:
256,192,82461,1,8,0:0:0:0:
256,192,82517,1,0,0:0:0:0:
256,192,82628,1,8,0:0:0:0:
256,192,82684,1,8,0:0:0:0:
256,192,82739,1,8,0:0:0:0:
384,96,82850,1,4,0:0:0:0:
256,192,83072,1,0,0:0:0:0:
256,192,83184,1,0,0:0:0:0:
256,192,83295,1,8,0:0:0:0:
256,192,83406,1,0,0:0:0:0:
256,192,83517,1,8,0:0:0:0:
256,192,83572,1,0,0:0:0:0:
256,192,83628,1,0,0:0:0:0:
256,192,83684,1,0,0:0:0:0:
256,192,83739,1,8,0:0:0:0:
256,192,83850,1,0,0:0:0:0:
256,192,83961,1,8,0:0:0:0:
256,192,84072,1,8,0:0:0:0:
256,192,84184,1,0,0:0:0:0:
256,192,84295,1,0,0:0:0:0:
256,192,84406,1,8,0:0:0:0:
256,192,84517,1,8,0:0:0:0:
256,192,84628,1,8,0:0:0:0:
256,192,84739,1,0,0:0:0:0:
384,96,86406,1,12,0:0:0:0:
384,96,86739,1,4,0:0:0:0:
384,96,87072,1,12,0:0:0:0:
384,96,87406,1,4,0:0:0:0:
384,96,87739,1,12,0:0:0:0:
384,96,87961,1,12,0:0:0:0:
