osu file format v14

[General]
AudioFilename: audio.mp3
AudioLeadIn: 0
PreviewTime: 42911
Countdown: 0
SampleSet: Normal
StackLeniency: 0.7
Mode: 0
LetterboxInBreaks: 0
WidescreenStoryboard: 1

[Editor]
Bookmarks: 48270,79848
DistanceSpacing: 2.6
BeatDivisor: 4
GridSize: 32
TimelineZoom: 3.999998

[Metadata]
Title:Empty MERMAiD
TitleUnicode:Empty MERMAiD
Artist:LiSA
ArtistUnicode:LiSA
Creator:small
Version:Manquito's Extra
Source:
Tags:risa oribe
BeatmapID:1941190
BeatmapSetID:924645

[Difficulty]
HPDrainRate:6
CircleSize:4
OverallDifficulty:8.5
ApproachRate:9.3
SliderMultiplier:1.9
SliderTickRate:2

[Events]
//Background and Video events
0,0,"belfast_azur_lane_drawn_by_wasabi60__79d654a8e9aff7da77a83fc2ab22df9f.png",0,0
//Break Periods
//Storyboard Layer 0 (Background)
//Storyboard Layer 1 (Fail)
//Storyboard Layer 2 (Pass)
//Storyboard Layer 3 (Foreground)
//Storyboard Sound Samples

[TimingPoints]
274,315.789473684211,4,1,0,50,1,0
5342,-100,4,1,0,60,0,0
15437,-100,4,1,0,45,0,0
17648,-100,4,1,0,60,0,0
38174,-100,4,1,0,45,0,0
43227,-181.818181818181,4,1,0,30,0,0
45753,-100,4,1,0,60,0,0
48280,-86.9565217391304,4,1,0,80,0,1
68490,-100,4,1,0,35,0,0
69753,-100,4,1,0,60,0,0

[Colours]
Combo1 : 255,185,255
Combo2 : 128,255,128
Combo3 : 255,230,140
Combo4 : 130,200,244

[HitObjects]
94,110,5326,6,0,L|195:124,1,95,4|0,0:0|0:0,0:0:0:0:
241,289,5642,2,0,L|140:275,1,95,8|0,0:0|0:0,0:0:0:0:
254,194,5958,1,0,0:0:0:0:
355,338,6116,2,0,P|402:340|447:326,1,95,0|8,0:0|0:0,0:0:0:0:
478,215,6431,1,0,0:0:0:0:
355,104,6589,6,0,L|369:205,1,95,0|0,0:0|0:0,0:0:0:0:
254,194,6905,2,0,L|240:295,1,95,8|0,0:0|0:0,0:0:0:0:
55,177,7221,1,0,0:0:0:0:
108,334,7379,1,0,0:0:0:0:
174,137,7537,2,0,P|188:78|206:45,1,95,8|0,0:0|0:0,0:0:0:0:
254,194,7852,6,0,L|359:211,1,95,0|0,0:0|0:0,0:0:0:0:
453,47,8168,2,0,L|359:62,1,95,8|0,0:0|0:0,0:0:0:0:
452,256,8484,2,0,L|436:162,1,95,0|0,0:0|0:0,0:0:0:0:
238,100,8800,2,0,L|253:193,1,95,8|0,0:0|0:0,0:0:0:0:
156,354,9116,6,0,P|98:349|63:329,1,95,0|0,0:0|0:0,0:0:0:0:
163,171,9431,2,0,P|221:176|256:196,1,95,8|0,0:0|0:0,0:0:0:0:
280,341,9747,1,0,0:0:0:0:
323,141,9905,1,4,0:0:0:0:
165,270,10063,1,8,0:0:0:0:
385,220,10221,1,4,0:0:0:0:
177,78,10379,6,0,P|164:123|163:178,1,95,4|0,0:0|0:0,0:0:0:0:
65,346,10695,2,0,P|63:298|50:253,1,95,8|0,0:0|0:0,0:0:0:0:
1,170,11010,1,0,0:0:0:0:
177,78,11168,2,0,L|278:93,1,95,0|8,0:0|0:0,0:0:0:0:
352,189,11484,1,0,0:0:0:0:
466,53,11642,6,0,L|451:154,1,95,0|0,0:0|0:0,0:0:0:0:
252,275,11958,2,0,L|266:176,1,95,8|0,0:0|0:0,0:0:0:0:
328,358,12274,1,0,0:0:0:0:
357,172,12431,1,0,0:0:0:0:
241,299,12589,2,0,P|189:316|139:316,1,95,8|0,0:0|0:0,0:0:0:0:
25,166,12905,5,0,0:0:0:0:
50,326,13063,1,0,0:0:0:0:
142,166,13221,2,0,L|127:67,1,95,8|0,0:0|0:0,0:0:0:0:
226,205,13537,2,0,L|240:298,1,95,0|0,0:0|0:0,0:0:0:0:
277,133,13852,2,0,L|262:39,1,95,8|0,0:0|0:0,0:0:0:0:
357,172,14168,5,0,0:0:0:0:
142,166,14326,1,0,0:0:0:0:
351,84,14484,2,0,P|404:61|446:54,1,95,8|0,0:0|0:0,0:0:0:0:
226,205,14800,2,0,P|272:214|315:234,2,95,0|4|8,0:0|0:0|0:0,0:0:0:0:
155,258,15274,1,4,0:0:0:0:
351,323,15431,5,0,0:0:0:0:
143,352,15589,1,0,0:0:0:0:
360,340,15747,2,0,B|338:341|310:353|310:353|293:349|262:353,1,95,0|0,0:0|0:0,0:0:0:0:
100,252,16063,2,0,B|80:213|80:213|185:232|185:232|149:262,1,190,0|0,0:0|0:0,0:0:0:0:
31,92,16537,6,0,B|56:88|73:92|73:92|101:80|123:79,1,95,0|0,0:0|0:0,0:0:0:0:
230,160,16852,1,0,0:0:0:0:
230,160,17010,2,0,B|255:163|272:159|272:159|300:171|322:172,1,95,0|0,0:0|0:0,0:0:0:0:
440,102,17326,2,0,P|445:46|438:5,1,95,0|0,0:0|0:0,0:0:0:0:
322,172,17642,1,0,0:0:0:0:
318,195,17720,1,0,0:0:0:0:
316,219,17799,1,0,0:0:0:0:
317,243,17878,1,0,0:0:0:0:
321,266,17957,5,0,0:0:0:0:
414,220,18116,1,0,0:0:0:0:
230,160,18274,1,8,0:0:0:0:
405,312,18431,1,0,0:0:0:0:
125,336,18589,6,0,B|148:195|148:195|172:241,1,190,8|0,0:0|0:0,0:0:0:0:
169,236,19063,6,0,L|74:245,1,95,0|8,0:0|0:0,0:0:0:0:
22,148,19379,1,0,0:0:0:0:
239,178,19537,2,0,P|258:221|255:272,1,95,8|0,0:0|0:0,0:0:0:0:
158,149,19852,1,0,0:0:0:0:
36,318,20010,1,0,0:0:0:0:
88,81,20168,1,8,0:0:0:0:
92,65,20484,5,0,0:0:0:0:
302,111,20642,1,0,0:0:0:0:
169,236,20800,1,8,0:0:0:0:
250,31,20958,1,0,0:0:0:0:
381,195,21116,6,0,B|239:178|239:178|276:213,1,190,8|0,0:0|0:0,0:0:0:0:
273,210,21589,6,0,L|284:309,1,95,0|8,0:0|0:0,0:0:0:0:
381,195,21905,1,0,0:0:0:0:
179,141,22063,2,0,L|168:235,1,95,8|0,0:0|0:0,0:0:0:0:
155,330,22379,1,0,0:0:0:0:
73,160,22537,1,0,0:0:0:0:
273,210,22695,1,8,0:0:0:0:
288,216,23010,5,0,0:0:0:0:
78,277,23168,1,0,0:0:0:0:
295,313,23326,1,8,0:0:0:0:
205,133,23484,1,0,0:0:0:0:
155,330,23642,6,0,B|297:313|297:313|260:348,1,190,8|0,0:0|0:0,0:0:0:0:
262,345,24116,6,0,L|271:249,1,95,0|8,0:0|0:0,0:0:0:0:
404,323,24431,1,0,0:0:0:0:
359,130,24589,2,0,L|367:226,1,95,8|0,0:0|0:0,0:0:0:0:
463,243,24905,1,0,0:0:0:0:
278,165,25063,1,0,0:0:0:0:
439,60,25221,1,8,0:0:0:0:
453,52,25537,5,0,0:0:0:0:
366,224,25695,1,0,0:0:0:0:
352,41,25852,1,8,0:0:0:0:
463,243,26010,1,0,0:0:0:0:
278,165,26168,6,0,B|136:148|136:148|173:183,1,190,8|0,0:0|0:0,0:0:0:0:
170,180,26642,6,0,L|156:80,1,95,0|8,0:0|0:0,0:0:0:0:
90,246,26958,1,0,0:0:0:0:
278,165,27116,2,0,L|292:64,1,95,8|0,0:0|0:0,0:0:0:0:
233,241,27431,1,8,0:0:0:0:
74,154,27589,1,8,0:0:0:0:
279,259,27747,1,8,0:0:0:0:
233,241,27826,1,8,0:0:0:0:
184,252,27906,1,8,0:0:0:0:
137,233,27985,1,0,0:0:0:0:
90,246,28063,5,4,0:0:0:0:
229,337,28221,1,0,0:0:0:0:
278,165,28379,1,8,0:0:0:0:
381,291,28537,2,0,P|462:279|497:176,1,190,0|0,0:0|0:0,0:0:0:0:
414,46,29010,6,0,L|390:149,1,95,8|0,0:0|0:0,0:0:0:0:
256,257,29326,2,0,L|280:154,1,95,0|0,0:0|0:0,0:0:0:0:
176,40,29642,2,0,P|124:44|82:64,1,95,8|0,0:0|0:0,0:0:0:0:
15,156,29958,1,0,0:0:0:0:
157,305,30116,1,0,0:0:0:0:
108,154,30274,2,0,L|84:257,1,95,8|0,0:0|0:0,0:0:0:0:
243,350,30589,5,4,0:0:0:0:
277,164,30747,1,0,0:0:0:0:
157,305,30905,1,8,0:0:0:0:
338,273,31063,2,0,B|486:297|486:297|446:258,1,190,0|0,0:0|0:0,0:0:0:0:
457,269,31537,6,0,P|444:203|446:169,1,95,8|0,0:0|0:0,0:0:0:0:
289,70,31852,2,0,P|288:117|276:163,1,95,0|0,0:0|0:0,0:0:0:0:
133,221,32168,2,0,L|29:208,1,95,8|0,0:0|0:0,0:0:0:0:
192,160,32484,1,0,0:0:0:0:
209,190,32562,1,0,0:0:0:0:
214,225,32641,1,0,0:0:0:0:
206,260,32720,1,0,0:0:0:0:
186,289,32799,1,8,0:0:0:0:
186,289,33116,5,4,0:0:0:0:
71,152,33274,2,0,P|51:108|41:51,1,95,0|8,0:0|0:0,0:0:0:0:
192,160,33589,2,0,L|393:184,1,190,0|0,0:0|0:0,0:0:0:0:
170,158,34063,1,8,0:0:0:0:
281,258,34221,6,0,B|322:177|322:177|290:77,1,190,0|0,0:0|0:0,0:0:0:0:
406,40,34695,2,0,P|401:102|405:147,1,95,8|0,0:0|0:0,0:0:0:0:
192,160,35010,1,0,0:0:0:0:
418,223,35168,1,0,0:0:0:0:
283,352,35326,2,0,P|285:304|280:257,1,95,8|0,0:0|0:0,0:0:0:0:
38,192,35642,5,4,0:0:0:0:
102,335,35800,1,0,0:0:0:0:
192,160,35958,1,8,0:0:0:0:
192,160,36116,1,0,0:0:0:0:
26,210,36274,2,0,L|137:228,1,95,8|0,0:0|0:0,0:0:0:0:
192,160,36589,2,0,L|285:144,1,95,0|0,0:0|0:0,0:0:0:0:
468,106,36905,5,8,0:0:0:0:
251,50,37063,1,0,0:0:0:0:
312,266,37221,1,8,0:0:0:0:
389,42,37379,1,0,0:0:0:0:
296,172,37537,2,0,P|300:215|311:265,1,95,8|0,0:0|0:0,0:0:0:0:
157,354,37852,2,0,P|167:307|172:260,1,95,12|0,0:0|0:0,0:0:0:0:
75,102,38168,5,0,0:0:0:0:
75,102,38326,1,0,0:0:0:0:
47,264,38484,1,0,0:0:0:0:
47,264,38642,1,0,0:0:0:0:
165,97,38800,6,0,L|268:82,1,95,8|0,0:0|0:0,0:0:0:0:
390,185,39116,2,0,L|287:170,1,95,0|0,0:0|0:0,0:0:0:0:
419,286,39431,5,0,0:0:0:0:
419,286,39589,1,0,0:0:0:0:
253,332,39747,1,0,0:0:0:0:
253,332,39905,1,0,0:0:0:0:
390,185,40063,6,0,P|405:127|407:81,1,95,8|0,0:0|0:0,0:0:0:0:
289,227,40379,2,0,L|190:240,1,95,0|0,0:0|0:0,0:0:0:0:
47,334,40695,5,0,0:0:0:0:
47,334,40852,1,0,0:0:0:0:
119,168,41010,1,0,0:0:0:0:
119,168,41167,1,0,0:0:0:0:
253,332,41326,6,0,L|352:345,1,95,8|0,0:0|0:0,0:0:0:0:
459,154,41642,2,0,P|411:154|365:165,1,95,0|0,0:0|0:0,0:0:0:0:
436,302,41958,5,0,0:0:0:0:
436,302,42116,1,0,0:0:0:0:
253,332,42274,1,0,0:0:0:0:
253,332,42432,1,0,0:0:0:0:
365,165,42589,6,0,P|365:116|353:71,1,95,8|0,0:0|0:0,0:0:0:0:
158,37,42905,2,0,P|157:85|169:130,1,95,0|0,0:0|0:0,0:0:0:0:
324,261,43221,6,0,B|358:260|377:249|377:249|407:255|440:248,1,104.500003189087,0|0,0:0|0:0,0:0:0:0:
187,89,44484,6,0,B|170:118|170:140|170:140|150:163|140:195,1,104.500003189087,0|0,0:0|0:0,0:0:0:0:
67,324,45431,1,0,0:0:0:0:
67,324,45747,6,0,L|166:309,1,95,8|0,0:0|0:0,0:0:0:0:
374,272,46063,1,8,0:0:0:0:
190,117,46221,1,0,0:0:0:0:
191,146,46300,1,0,0:0:0:0:
204,177,46379,1,8,0:0:0:0:
246,361,46537,1,0,0:0:0:0:
259,330,46616,1,0,0:0:0:0:
260,301,46695,1,8,0:0:0:0:
345,142,46852,1,0,0:0:0:0:
314,129,46931,1,0,0:0:0:0:
285,128,47010,5,8,0:0:0:0:
107,72,47168,1,8,0:0:0:0:
354,249,47326,1,8,0:0:0:0:
67,324,47484,1,8,0:0:0:0:
67,324,48274,5,4,0:0:0:0:
219,149,48431,1,0,0:0:0:0:
207,325,48589,1,8,0:0:0:0:
85,181,48747,1,0,0:0:0:0:
212,338,48905,2,0,L|330:322,1,109.250002083778,0|0,0:0|0:0,0:0:0:0:
414,222,49221,1,8,0:0:0:0:
285,28,49379,2,0,B|249:88|249:88|293:236,1,218.500004167557,0|0,0:0|0:0,0:0:0:0:
355,122,49852,2,0,P|432:102|479:100,1,109.250002083778,8|0,0:0|0:0,0:0:0:0:
291,230,50168,5,0,0:0:0:0:
373,37,50326,1,0,0:0:0:0:
291,230,50484,2,0,L|166:221,1,109.250002083778,8|0,0:0|0:0,0:0:0:0:
45,103,50800,1,4,0:0:0:0:
241,119,50958,1,0,0:0:0:0:
65,225,51116,2,0,P|46:277|43:338,1,109.250002083778,8|0,0:0|0:0,0:0:0:0:
124,148,51431,1,0,0:0:0:0:
225,321,51589,1,0,0:0:0:0:
332,142,51747,1,8,0:0:0:0:
339,297,51905,6,0,B|183:276|183:276|229:326,1,218.500004167557,0|0,0:0|0:0,0:0:0:0:
225,321,52379,2,0,L|214:201,1,109.250002083778,8|0,0:0|0:0,0:0:0:0:
197,33,52695,1,0,0:0:0:0:
215,212,52852,1,0,0:0:0:0:
291,57,53010,2,0,P|366:35|410:35,1,109.250002083778,8|0,0:0|0:0,0:0:0:0:
222,121,53326,5,4,0:0:0:0:
391,208,53484,1,0,0:0:0:0:
215,212,53642,2,0,P|140:234|96:234,1,109.250002083778,8|0,0:0|0:0,0:0:0:0:
35,161,53958,1,0,0:0:0:0:
197,33,54116,1,0,0:0:0:0:
215,212,54274,1,8,0:0:0:0:
49,40,54431,6,0,B|66:204|66:204|28:152,1,218.500004167557,0|0,0:0|0:0,0:0:0:0:
35,161,54905,2,0,L|151:136,1,109.250002083778,8|0,0:0|0:0,0:0:0:0:
313,230,55221,1,0,0:0:0:0:
171,303,55379,1,0,0:0:0:0:
281,143,55537,2,0,L|387:166,1,109.250002083778,8|0,0:0|0:0,0:0:0:0:
276,117,55852,1,4,0:0:0:0:
171,303,56010,6,0,P|100:319|17:214,1,218.500004167557,0|4,0:0|0:0,0:0:0:0:
83,60,56484,1,0,0:0:0:0:
83,60,56642,2,0,P|137:66|188:86,1,109.250002083778,0|4,0:0|0:0,0:0:0:0:
346,182,56958,1,0,0:0:0:0:
346,182,57116,2,0,P|291:188|240:208,1,109.250002083778,0|4,0:0|0:0,0:0:0:0:
438,265,57431,2,0,P|459:214|468:161,1,109.250002083778,0|0,0:0|0:0,0:0:0:0:
254,75,57747,1,8,0:0:0:0:
254,75,57905,2,0,P|232:125|223:178,1,109.250002083778,0|8,0:0|0:0,0:0:0:0:
222,346,58221,1,0,0:0:0:0:
222,346,58379,6,0,L|103:332,1,109.250002083778,4|0,0:0|0:0,0:0:0:0:
35,154,58695,2,0,L|143:141,1,109.250002083778,8|0,0:0|0:0,0:0:0:0:
336,117,59010,1,0,0:0:0:0:
195,230,59168,1,0,0:0:0:0:
228,36,59326,2,0,L|240:144,1,109.250002083778,8|0,0:0|0:0,0:0:0:0:
396,288,59642,5,0,0:0:0:0:
336,117,59800,1,0,0:0:0:0:
234,323,59958,2,0,P|167:350|119:352,1,109.250002083778,8|0,0:0|0:0,0:0:0:0:
240,144,60274,1,0,0:0:0:0:
329,357,60431,1,0,0:0:0:0:
113,272,60589,1,8,0:0:0:0:
113,272,60905,6,0,P|86:205|84:157,1,109.250002083778,4|0,0:0|0:0,0:0:0:0:
229,20,61221,2,0,P|256:87|258:135,1,109.250002083778,8|0,0:0|0:0,0:0:0:0:
235,275,61537,1,0,0:0:0:0:
97,71,61695,1,0,0:0:0:0:
342,155,61852,1,8,0:0:0:0:
66,323,62010,6,0,P|133:246|242:284,1,218.500004167557,4|0,0:0|0:0,0:0:0:0:
367,362,62484,2,0,L|379:246,1,109.250002083778,8|0,0:0|0:0,0:0:0:0:
407,84,62800,1,0,0:0:0:0:
479,256,62958,1,0,0:0:0:0:
342,155,63116,2,0,P|272:128|235:127,1,109.250002083778,8|0,0:0|0:0,0:0:0:0:
34,184,63431,5,4,0:0:0:0:
34,184,63589,1,0,0:0:0:0:
76,63,63747,2,0,L|62:175,1,109.250002083778,0|0,0:0|0:0,0:0:0:0:
201,333,64063,5,4,0:0:0:0:
201,333,64221,1,0,0:0:0:0:
201,199,64379,2,0,L|215:308,1,109.250002083778,0|0,0:0|0:0,0:0:0:0:
321,48,64694,5,4,0:0:0:0:
321,48,64852,1,0,0:0:0:0:
321,181,65010,2,0,L|334:72,1,109.250002083778,0|0,0:0|0:0,0:0:0:0:
310,273,65326,1,4,0:0:0:0:
310,273,65484,1,0,0:0:0:0:
177,105,65642,1,4,0:0:0:0:
177,105,65800,1,0,0:0:0:0:
105,312,65958,5,12,0:0:0:0:
321,181,66116,1,8,0:0:0:0:
59,113,66274,1,8,0:0:0:0:
342,186,66431,1,8,0:0:0:0:
138,222,66589,5,12,0:0:0:0:
329,85,66747,1,8,0:0:0:0:
342,313,66905,1,8,0:0:0:0:
417,126,67063,1,8,0:0:0:0:
242,343,67221,5,12,0:0:0:0:
177,105,67379,1,8,0:0:0:0:
369,341,67537,5,8,0:0:0:0:
434,103,67695,1,8,0:0:0:0:
228,352,67852,5,12,0:0:0:0:
163,114,68010,1,8,0:0:0:0:
215,361,68168,1,8,0:0:0:0:
452,109,68326,5,8,0:0:0:0:
387,347,68484,1,12,0:0:0:0:
387,347,69747,6,0,L|287:336,1,95,4|0,0:0|0:0,0:0:0:0:
177,153,70063,2,0,L|277:164,1,95,8|0,0:0|0:0,0:0:0:0:
237,64,70379,1,0,0:0:0:0:
57,125,70537,2,0,P|29:174|19:215,1,95,0|8,0:0|0:0,0:0:0:0:
26,309,70852,1,0,0:0:0:0:
177,153,71010,6,0,L|187:247,1,95,0|0,0:0|0:0,0:0:0:0:
348,354,71326,2,0,L|358:259,1,95,8|0,0:0|0:0,0:0:0:0:
327,98,71642,1,0,0:0:0:0:
468,230,71800,1,0,0:0:0:0:
328,80,71958,2,0,P|279:52|238:42,1,95,8|0,0:0|0:0,0:0:0:0:
170,207,72274,6,0,P|218:178|247:148,1,95,4|0,0:0|0:0,0:0:0:0:
138,15,72589,2,0,P|138:71|150:111,1,95,8|0,0:0|0:0,0:0:0:0:
156,328,72905,2,0,L|53:318,1,95,0|0,0:0|0:0,0:0:0:0:
170,207,73221,2,0,L|273:217,1,95,8|0,0:0|0:0,0:0:0:0:
413,342,73537,6,0,P|451:307|466:259,1,95,0|0,0:0|0:0,0:0:0:0:
316,141,73852,2,0,P|278:176|263:224,1,95,8|0,0:0|0:0,0:0:0:0:
315,359,74168,1,0,0:0:0:0:
462,178,74326,1,8,0:0:0:0:
263,215,74484,1,0,0:0:0:0:
413,342,74642,1,8,0:0:0:0:
366,132,74800,6,0,L|268:120,1,95,4|0,0:0|0:0,0:0:0:0:
156,328,75116,2,0,L|254:316,1,95,8|0,0:0|0:0,0:0:0:0:
263,215,75431,1,0,0:0:0:0:
116,96,75589,2,0,P|74:119|39:150,1,95,0|8,0:0|0:0,0:0:0:0:
165,189,75905,1,0,0:0:0:0:
289,77,76063,6,0,P|330:100|365:131,1,95,0|0,0:0|0:0,0:0:0:0:
416,265,76379,2,0,L|406:370,1,95,8|0,0:0|0:0,0:0:0:0:
476,179,76695,1,0,0:0:0:0:
317,308,76852,1,0,0:0:0:0:
213,107,77010,1,8,0:0:0:0:
332,218,77168,1,0,0:0:0:0:
154,347,77326,6,0,P|103:338|49:317,1,95,4|0,0:0|0:0,0:0:0:0:
240,194,77642,2,0,P|286:201|331:217,1,95,8|0,0:0|0:0,0:0:0:0:
90,189,77958,2,0,P|97:142|113:97,1,95,0|0,0:0|0:0,0:0:0:0:
272,293,78274,2,0,P|264:339|248:384,1,95,8|0,0:0|0:0,0:0:0:0:
213,107,78589,5,0,0:0:0:0:
165,261,78747,1,8,0:0:0:0:
221,82,78905,1,0,0:0:0:0:
272,293,79063,1,8,0:0:0:0:
339,85,79221,5,0,0:0:0:0:
397,289,79379,1,0,0:0:0:0:
355,79,79537,1,8,0:0:0:0:
240,194,79695,1,0,0:0:0:0:
466,353,79852,6,0,P|482:318|477:252,1,95,4|0,0:0|0:0,0:0:0:0:
254,103,80168,2,0,P|236:146|239:193,1,95,8|0,0:0|0:0,0:0:0:0:
416,172,80484,2,0,L|307:157,1,95,0|0,0:0|0:0,0:0:0:0:
166,328,80800,2,0,L|260:315,1,95,8|0,0:0|0:0,0:0:0:0:
78,158,81116,6,0,P|53:199|42:245,1,95,0|0,0:0|0:0,0:0:0:0:
254,103,81431,2,0,P|278:144|289:190,1,95,8|0,0:0|0:0,0:0:0:0:
156,58,81747,1,0,0:0:0:0:
142,236,81905,1,0,0:0:0:0:
254,103,82063,1,8,0:0:0:0:
64,63,82221,1,0,0:0:0:0:
289,189,82379,6,0,L|393:172,1,95,4|0,0:0|0:0,0:0:0:0:
463,31,82695,2,0,L|369:46,1,95,8|0,0:0|0:0,0:0:0:0:
289,189,83010,2,0,P|267:263|271:304,1,95,0|0,0:0|0:0,0:0:0:0:
50,352,83326,2,0,P|46:304|28:261,1,95,8|0,0:0|0:0,0:0:0:0:
178,160,83642,6,0,P|131:153|88:133,1,95,0|0,0:0|0:0,0:0:0:0:
267,279,83958,2,0,P|220:285|177:305,1,95,8|0,0:0|0:0,0:0:0:0:
352,343,84274,1,0,0:0:0:0:
448,135,84431,1,8,0:0:0:0:
267,279,84589,1,0,0:0:0:0:
347,115,84747,1,8,0:0:0:0:
352,343,84905,6,0,B|371:315|371:315|376:236,1,95,4|0,0:0|0:0,0:0:0:0:
270,49,85221,2,0,B|250:76|250:76|245:155,1,95,8|0,0:0|0:0,0:0:0:0:
375,254,85537,2,0,B|360:223|360:223|295:179,1,95,0|0,0:0|0:0,0:0:0:0:
144,242,85852,2,0,B|177:244|177:244|248:210,1,95,8|0,0:0|0:0,0:0:0:0:
128,338,86168,6,0,B|73:311|73:311|39:313,1,95,0|0,0:0|0:0,0:0:0:0:
217,131,86484,2,0,B|162:157|162:157|128:155,1,95,8|0,0:0|0:0,0:0:0:0:
148,64,86800,1,0,0:0:0:0:
232,217,86958,1,0,0:0:0:0:
323,68,87116,1,8,0:0:0:0:
148,64,87274,1,0,0:0:0:0:
232,217,87431,6,0,B|251:244|251:244|255:305,1,95,4|0,0:0|0:0,0:0:0:0:
439,173,87747,2,0,B|419:200|419:200|415:261,1,95,8|0,0:0|0:0,0:0:0:0:
208,128,88063,2,0,B|227:155|227:155|231:216,1,95,0|0,0:0|0:0,0:0:0:0:
462,84,88379,2,0,B|442:111|442:111|438:172,1,95,8|0,0:0|0:0,0:0:0:0:
434,339,88695,5,0,0:0:0:0:
207,308,88852,1,8,0:0:0:0:
438,172,89010,1,0,0:0:0:0:
148,100,89168,1,0,0:0:0:0:
148,100,89247,1,0,0:0:0:0:
148,100,89326,5,8,0:0:0:0:
340,245,89484,1,8,0:0:0:0:
92,334,89642,1,8,0:0:0:0:
134,85,89800,1,8,0:0:0:0:
309,335,89958,1,4,0:0:0:0:
